#TITLE:Dancin' My Way;
#SUBTITLE:;
#ARTIST:DeeJayz Paradize feat. Thomas Howard;
#TITLETRANSLIT:;
#SUBTITLETRANSLIT:;
#ARTISTTRANSLIT:;
#GENRE:;
#CREDIT:;
#MUSIC:Dancin' My Way.ogg;
#BANNER:banner.png;
#BACKGROUND:background.png;
#CDTITLE:;
#SAMPLESTART:31.902;
#SAMPLELENGTH:15.000;
#SELECTABLE:YES;
#OFFSET:-0.027;
#BPMS:0.000=128.000;
#STOPS:;
#BGCHANGES:;
#FGCHANGES:;

//--------------- dance-single - ----------------
#NOTES:
     dance-single:
     :
     Medium:
     9:
     0,0,0,0,0:
0000
0000
0000
0000
,
0000
0000
0000
0000
,
0000
0000
0000
0000
,
0000
0000
0000
0000
,
0000
0000
0000
0000
,
1000
1000
0001
0001
,
0100
0010
0010
0100
,
0001
0001
1000
1000
,
2002
0000
3003
0000
,
0001
0000
0010
0000
0100
1000
0100
0000
,
0010
0001
1000
0010
,
0100
0000
0001
0000
1000
0010
1000
0000
,
0001
0010
0100
1000
,
0010
0000
0100
0000
0001
0100
0001
0000
,
1000
0100
0010
0001
,
0100
0000
0010
0000
1000
0010
1000
0000
,
0002
0000
1003
1000
,
0001
0010
0001
0000
0100
0100
0100
0000
,
0001
1000
0001
0000
0010
0000
0100
0000
,
1000
0010
1000
0000
0100
0000
0110
0000
,
0001
1000
0001
0000
0100
0000
0110
0000
,
1000
0000
0001
1000
0001
0000
0010
0000
,
0100
1000
0001
0000
0100
0000
1001
0000
,
0010
1001
0100
1001
,
0220
0000
0000
0000
0000
0000
0000
0000
0330
0000
0000
0000
0000
0000
0000
0001
0000
0000
1000
0000
0000
0001
0000
0000
1000
0000
0000
0000
0000
0000
0000
0000
,
0002
0100
1000
0100
,
1003
0001
0010
0100
,
2000
0100
0001
0100
,
3001
0100
0010
1000
,
0001
0001
0001
0000
0100
0000
0010
0000
,
1000
1000
1000
0000
0100
0000
0010
0000
,
0001
0001
0001
0000
0100
0000
0010
0000
,
0220
0000
0000
0000
0000
0000
0000
0000
0330
0000
0000
0000
0000
0000
0000
1000
0000
0000
0001
0000
0000
1000
0000
0000
0001
0000
0000
0000
0000
0000
0000
0000
,
0010
0000
0100
1000
0100
0010
0100
0000
,
1000
0000
0001
1000
0001
0000
0100
0000
,
0010
0000
0100
0001
0100
0010
0100
0000
,
0001
0000
1000
0001
1000
0000
0100
0000
,
0110
0000
0010
0001
0010
0100
0010
0000
,
0001
0000
1000
0001
1000
0000
0010
0000
,
0100
0000
0010
1000
0010
0100
0010
0000
,
1000
0000
0001
1000
0001
0000
0010
0000
,
0110
0000
0100
1000
0100
0010
0100
0000
,
1000
1000
0000
0001
0001
0000
1001
0000
,
0110
0000
0001
0100
0010
0100
0001
0000
,
0020
0000
0030
0000
,
1001
1000
0100
0001
,
0100
1000
0100
0010
,
0001
0100
1000
0100
,
0001
0100
0020
0030
,
1000
0010
0100
0010
,
1000
0100
0010
0100
,
1000
0001
0100
0001
,
0010
0001
0200
0300
,
1001
0000
0000
0000
;

//--------------- dance-single - ----------------
#NOTES:
     dance-single:
     :
     Hard:
     12:
     0,0,0,0,0:
0000
0000
0000
0000
,
0000
0000
0000
0000
,
0000
0000
0000
0000
,
0000
0000
0000
0000
,
0000
0000
0000
0000
,
0001
0100
1000
0100
,
0001
0010
1000
0010
,
0001
0000
0100
0010
0000
1000
0000
0001
,
0000
0010
0000
0110
0000
2002
0000
3003
,
1000
0100
0001
0100
1000
0001
0010
0000
,
0100
1000
0010
0100
0001
0010
1001
0000
,
0001
0100
1000
0100
0001
1000
0010
0000
,
0100
0001
0010
0100
1000
0010
0110
0000
,
1000
0010
0001
0010
1000
0100
0010
0000
,
0100
1000
0010
0100
0001
0010
1001
0000
,
0001
0010
1000
0010
0001
1000
0100
0000
,
0010
0000
0000
0001
0000
0000
0100
0000
0001
0000
1000
0001
0000
0001
1000
0000
,
0100
0000
0010
0000
0001
1000
0001
1000
0001
0000
0100
0000
0110
0000
0000
0000
,
0010
1000
0010
1000
0010
0000
0100
0000
0001
0000
0010
0000
0011
0000
0000
0000
,
1000
0000
0100
0000
0001
0000
0100
0000
1000
0000
0001
0010
0100
0000
0000
0000
,
0010
0001
0010
0001
1000
0000
0010
0000
0100
0000
0001
0000
0110
0000
0000
0000
,
0001
0000
0000
0100
0000
0000
1000
0000
1000
0000
0100
0000
0001
0000
0100
0000
,
0010
0000
1000
0010
1000
0000
0001
0000
0010
0000
0100
1000
0100
0000
0000
0000
,
0010
0000
0001
0100
0001
0000
0000
0000
0010
0000
0100
1000
0100
0000
0000
0000
,
2002
0000
0000
0000
0000
0000
0000
0000
3003
0000
0000
0000
0000
0000
0000
0100
0000
0000
0010
0000
0000
0100
0000
0000
0110
0000
0000
0000
0000
0000
0000
0000
,
1001
1000
0010
0001
,
0010
1000
0100
1000
0001
1000
0100
0000
,
0010
1000
0010
0001
,
0100
0001
0010
0001
1000
0001
0100
0000
,
0010
0010
1000
0000
0100
0000
0001
0100
,
1000
1000
0010
0000
0001
0000
0010
0000
,
0100
0100
1000
0000
0100
0000
0001
0000
,
2002
0000
0000
0000
0000
0000
0000
0000
3003
0000
0000
0000
0000
0000
0000
0010
0000
0000
0100
0000
0000
0010
0000
0000
0110
0000
0000
0000
0000
0000
0000
0000
,
1000
0000
0100
0010
0001
0000
0100
0010
1000
0000
1000
0000
0001
0000
0010
0000
,
0100
0000
1000
0001
0100
0000
0010
0000
1000
0000
0001
0000
1001
0000
0000
0000
,
0001
0000
0010
0100
1000
0000
0010
0100
0001
0000
0001
0000
0010
0000
0100
0000
,
1000
0000
0010
1000
0001
0000
0010
0000
0100
0000
1000
0000
1001
0000
0000
0000
,
1000
0000
0001
0010
0100
0000
1000
0010
0100
0000
0100
0000
0001
0000
1000
0000
,
0100
0000
0010
0001
1000
0000
0010
0000
0100
0000
0001
0000
1001
0000
0000
0000
,
0001
0000
0010
0100
1000
0000
0010
0100
0001
0000
0001
0000
0010
0000
0100
0000
,
1000
0000
0001
1000
0010
0000
0100
0000
0001
0000
0010
0000
1001
0000
0000
0000
,
1000
0000
0100
0010
0001
0000
0100
0010
1000
0000
1000
0000
0100
0000
0000
0000
,
0011
0011
0000
1010
1010
0000
0110
0000
,
0001
0000
1000
0100
0010
0000
0001
0100
0010
0000
0010
0000
1000
0000
0100
0000
,
0002
0000
0000
0000
0103
0010
0100
1000
,
0001
0000
0000
0000
0100
0010
0100
0010
0100
0000
0001
0000
0100
0000
0010
0000
,
1000
0000
0000
0000
0100
0010
0100
0010
0100
0000
1000
0000
0100
0000
0010
0000
,
0001
0000
0000
0000
1000
0001
1000
0001
1000
0000
0010
0000
0100
0000
0001
0000
,
0000
0010
0000
0110
0000
2002
0000
3003
,
1000
0000
0001
0000
0100
0001
0100
0001
0100
0000
0010
0000
1000
0000
0001
0000
,
0010
0000
0000
0000
0100
1000
0100
1000
0100
0000
0010
0000
0001
0000
1000
0000
,
0010
0000
0000
0000
1000
0001
1000
0001
1000
0000
0010
0000
0100
0000
0001
0000
,
0000
0010
0000
0110
0000
2002
0000
3003
,
0110
0000
0000
0000
;
