#TITLE:DON'T CLOCK ME;
#SUBTITLE:;
#ARTIST:POPULA DEMAND ft. THE GET FRESH GIRLS;
#TITLETRANSLIT:;
#SUBTITLETRANSLIT:;
#ARTISTTRANSLIT:;
#GENRE:;
#CREDIT:;
#MUSIC:Don’t-Clock-Me-Edit-_1_.ogg;
#BANNER:;
#BACKGROUND:;
#CDTITLE:;
#SAMPLESTART:0.000;
#SAMPLELENGTH:0.000;
#SELECTABLE:YES;
#OFFSET:-0.025;
#BPMS:0.000=124.395
,123.000=127.000
,124.000=124.395
,191.000=121.000
,192.000=124.395
;
#STOPS:;
#DISPLAYBPM:124.000;
#BGCHANGES:;
#FGCHANGES:;

//--------------- dance-single - ----------------
#NOTES:
     dance-single:
     :
     Hard:
     13:
     0,0,0,0,0:
0000
0000
0000
0000
,
0000
0000
0000
0000
,
0000
0000
0000
0000
,
0000
0000
0000
0000
,
1000
0000
0001
0100
0000
0001
1000
0000
0100
0000
0000
0010
0000
0001
1000
0000
,
1001
0001
0100
0000
0001
1000
0100
0000
,
1000
0010
0100
0000
0001
0010
0100
0000
,
1000
0001
0100
0000
0001
1000
0100
0000
,
1000
0000
0001
0100
0000
0001
1000
0000
0100
0000
0000
0010
0000
0001
1000
0000
,
1001
0000
0001
0000
0101
0000
0000
0000
1010
0000
1000
0000
0100
0000
0010
0001
,
1000
0000
0010
0000
0100
0000
0001
0000
0101
0000
0000
0000
1100
0000
1000
0001
,
0010
0100
0010
1000
0000
0010
0001
1000
,
0010
0100
0010
0000
0110
0000
0000
0000
0100
0000
0001
0000
1000
0100
0010
0000
,
1001
0000
1000
0000
1100
0000
0000
0000
0011
0000
0001
0000
0100
0000
0010
1000
,
0001
0000
0010
0000
0100
0000
1000
0000
1100
0000
0000
0000
0101
0000
0001
1000
,
0010
0100
0010
0001
0000
0010
1000
0001
,
0010
0000
0010
0000
0100
1000
0000
0010
0000
0100
0001
0100
0001
0100
0001
0000
,
1000
0010
0100
0010
1000
0001
1000
0000
,
0001
0010
0100
0010
0001
1000
0001
0000
,
1000
0010
0001
0010
0100
0001
1000
0000
,
0001
0000
0010
0000
1000
0000
0010
0000
0001
0100
0001
0000
1000
0000
0100
0000
,
1100
1000
0010
0100
0001
0001
1000
0000
,
0001
0010
0100
1000
0001
0001
1000
0000
,
1010
0010
0100
0010
1000
1000
0001
0000
,
0010
0000
0100
0000
1000
0001
0000
1000
0000
0010
0000
0100
0001
1000
0001
0000
,
1001
0000
1000
0100
0010
0000
0011
0000
,
0001
0000
0100
0000
0010
0000
0100
0000
0001
0000
1000
0000
0100
0000
0010
0001
,
1000
0010
0100
0000
0001
0010
0100
1000
,
0001
0100
0001
0000
1000
0100
1000
0010
,
0110
0000
0100
0001
1000
0001
1000
0000
,
0010
0100
0010
1000
0100
0010
0100
1000
,
1001
0000
0000
0000
0001
0000
0100
0000
0010
0000
0100
0000
0001
0000
1000
0001
,
1000
0000
0100
0000
0000
0100
0000
0000
1000
0000
0001
0000
0100
0001
0100
0000
,
0001
0000
0010
0000
0100
0000
1000
0001
0000
0000
0100
0000
1000
0000
0100
0000
,
0001
0000
1000
0000
0001
0000
1000
0100
0000
0001
0000
0100
0000
1000
0000
0001
,
1000
0000
0010
0000
0100
0000
0010
1000
0000
0000
0001
0000
1000
0100
0010
0000
,
0001
0100
0010
0000
1000
0000
0010
0100
0000
0001
0000
1000
0100
0000
0010
0001
,
1000
0000
0010
0000
0100
0000
0001
0100
0010
0000
1000
0000
0001
1000
0001
0000
,
0010
0000
0100
0000
1000
0000
0001
0000
0100
0010
1000
0000
0001
0010
0100
0000
,
1000
0000
0010
0000
0100
0001
0100
0000
0001
0000
0010
0000
0100
1000
0100
0000
,
1000
0000
0001
0100
0010
0000
1000
0000
0001
1000
0001
0000
1000
0000
0100
0000
,
1100
1000
0001
0000
0100
0010
1000
0010
,
0100
0001
0000
0010
0000
0100
0000
1000
0001
0000
1000
0000
1001
0000
0000
0000
,
0101
0001
1000
0000
0100
0010
0001
0010
,
0100
1000
0001
0000
0100
0001
1000
0000
0001
0000
1000
0000
1010
0000
0000
0000
,
0110
0100
0001
0000
1001
1000
0100
0010
,
0001
0010
0001
0000
1000
0010
1000
0000
0001
0000
1000
0000
1001
0000
0000
0000
,
0011
0010
0100
0000
1010
0010
0100
0001
,
1000
0000
0100
0000
0001
0000
0100
0000
1000
0000
0001
0000
0100
0001
1000
0000
,
1001
0000
0101
0000
0001
1000
0001
0000
,
1001
0000
1100
0000
1000
0001
1000
0000
,
1010
0110
0101
0011
,
0110
0100
1100
1000
1001
0000
0001
0001
,
1001
0000
1000
0000
1100
0000
0000
0000
0011
0000
0001
0000
0100
0000
0010
1000
,
0001
0000
0010
0000
0100
0000
1000
0000
1100
0000
0000
0000
0101
0000
0001
1000
,
0010
0100
0010
0001
0000
0010
1000
0001
,
0010
0100
0010
0000
0110
0000
0000
0000
0100
0000
1000
0000
0001
0100
0010
0000
,
1001
0000
0001
0000
0101
0000
0000
0000
1010
0000
1000
0000
0100
0000
0010
0001
,
1000
0000
0010
0000
0100
0000
0001
0000
0101
0000
0000
0000
1100
0000
1000
0001
,
0010
0100
0010
1000
0000
0010
0001
1000
,
0010
0000
0010
0000
0100
0001
0000
0010
0000
0100
1000
0100
1000
0100
1000
0000
,
0001
0100
0010
0000
1000
0100
0010
0000
,
0001
0000
1000
0000
0001
0000
0000
0000
1000
0000
0010
0000
0100
0001
1000
0000
,
0001
0010
0001
0000
1000
0010
1000
0000
,
0010
0000
0100
0000
0001
0000
0000
0000
0010
0000
0100
0000
1000
0001
1000
0000
,
0010
0000
0100
0000
0001
0100
0001
0000
1000
0000
0100
0000
1000
0000
0001
0000
,
0010
0000
0100
0000
1000
0100
1000
0000
0010
0000
0100
0000
0001
0000
1000
0001
,
1000
0000
0100
0000
1000
0001
0000
0000
1000
0000
0100
0000
1000
0010
0000
0000
,
0100
0000
0001
0000
1000
0100
1000
0000
0001
0000
0100
0000
0001
0000
1000
0000
;

//--------------- dance-single - Evergreen ----------------
#NOTES:
     dance-single:
     Evergreen:
     Challenge:
     17:
     0,0,0,0,0:
0000
0000
0000
0000
,
0000
0000
0000
0000
,
0000
0000
0000
0000
,
0000
0000
0000
0000
,
1000
0000
0010
0100
0000
0010
0100
0000
0001
0000
0000
1000
0000
0001
1000
0000
,
1001
0000
0000
0000
0001
0000
0000
0000
1000
0000
0200
0300
0000
0000
0200
0300
0001
0000
0000
0000
1000
0000
0020
0030
0000
0000
0020
0030
0001
0000
1000
0000
,
0001
0000
0000
0000
1000
0000
0000
0000
0001
0000
0200
0300
0000
0000
0200
0300
1000
0000
0000
0000
0001
0000
0020
0030
0000
0000
0020
0030
1000
0000
0001
0000
,
1000
0000
0100
0000
0010
0001
0000
1000
0010
0000
0100
0001
0000
1000
0100
1000
,
0001
0000
0000
0000
0000
0000
0000
0000
0010
0000
0000
0000
0100
0000
0000
0000
0000
0000
0000
0000
0010
0000
0000
0000
0100
0000
0000
0000
0000
0000
0000
0000
1000
0000
0000
0000
0000
0000
0000
0000
0000
0000
0000
0000
0001
0000
0000
0000
0000
0000
0000
0000
1000
0000
0000
0000
0200
0300
0000
0000
0200
0300
0000
0000
,
0002
0000
0000
0000
0103
0000
0001
0000
1000
0000
0000
0000
0010
0000
0000
0000
1010
0000
0000
0000
1000
0000
0200
0300
0000
0000
0200
0300
0001
0000
1000
0000
,
0001
0000
0000
0000
0000
0000
0000
0000
0010
0000
0000
0000
0000
0000
0000
0000
0100
0000
0000
0000
1000
0000
0000
0000
0001
0000
0000
0000
0000
0000
0000
0000
1001
0000
0000
0000
0000
0000
0000
0000
1000
0000
0000
0000
0001
0000
0000
0000
0000
0000
0000
0000
0010
0000
0000
0000
0200
0300
0000
0000
0200
0300
0000
0000
,
0002
0000
0100
0000
1003
0001
1000
0100
0010
0000
0001
1000
0000
0010
0100
0001
,
1000
0000
0100
0000
0001
0100
1000
0000
0020
1030
0000
0001
0010
0010
1000
0001
,
2000
0000
0000
0000
3100
0000
1000
0000
0001
0000
0000
0000
0010
0000
0000
0000
0011
0000
0000
0000
0001
0000
0200
0300
0000
0000
0200
0300
1000
0000
0001
0000
,
1000
0000
0000
0000
0000
0000
0000
0000
0010
0000
0000
0000
0000
0000
0000
0000
0100
0000
0000
0000
0001
0000
0000
0000
1000
0000
0000
0000
0000
0000
0000
0000
1001
0000
0000
0000
0000
0000
0000
0000
0001
0000
0000
0000
1000
0000
0000
0000
0000
0000
0000
0000
0010
0000
0000
0000
0200
0300
0000
0000
0200
0300
0000
0000
,
2000
0000
0100
0000
3001
1000
0001
0100
0010
0000
1000
0001
0000
0010
0100
1000
,
0001
0000
1000
0000
0001
1000
0000
0100
0000
0010
0000
0001
1000
0001
0100
0001
,
2000
0000
0000
3020
0030
0000
0020
0030
0000
0001
0000
0000
1000
0000
0000
0000
0000
0000
0001
0000
0000
1000
0000
0000
0200
0300
0000
0200
0300
0000
0001
0000
0000
1000
0000
0000
0000
0000
0000
0001
0000
0000
1000
0000
0000
0001
0000
0000
,
0020
0030
0000
0020
0030
0000
1000
0000
0000
0001
0000
0000
0200
0300
0000
0200
0300
0000
1000
0000
0000
0001
0000
0000
0010
0000
0000
0000
0000
0000
0100
0000
0000
1000
0000
0000
0000
0000
0000
0010
0000
0000
0100
0000
0000
2000
0000
0000
,
0000
3100
0001
1000
0100
0010
0001
1000
0001
0010
0100
1000
0000
0001
0100
0001
,
1000
0000
0100
1000
0001
0000
0100
0001
0010
1000
0010
1000
0010
0001
0010
0001
,
2000
0000
3001
0010
0100
1000
0002
0000
0203
0000
0320
0000
1030
0001
0000
0010
,
0200
0300
0000
0200
0300
0000
0001
0000
0000
1000
0000
0000
0020
0030
0000
0020
0030
0000
0001
0000
0000
1000
0000
0000
0010
0000
0000
0100
0000
0000
0010
0000
0000
0000
0000
0000
1000
0000
0000
0001
0000
0000
0000
0000
0000
0000
0000
0000
,
2000
3001
0010
0100
0001
0000
0100
1000
0000
0010
1000
0001
1000
0000
0001
0100
,
0001
0000
0000
0000
0000
0000
1000
0000
0000
0000
0000
0000
0001
0000
0000
1000
0000
0000
0000
0000
0000
0001
0000
0000
0000
0000
0000
1000
0000
0000
0200
0300
0000
0200
0300
0000
0001
0000
0000
0200
0300
0000
0200
0300
0000
1000
0000
0000
,
0002
0000
0003
0100
0010
1000
0001
0010
0100
0000
0000
1000
0010
0001
0000
0010
,
1000
0000
0000
0001
0000
0000
1000
0000
0000
0000
0000
0000
0020
0030
0000
0020
0030
0000
0001
0000
0000
1000
0000
0000
0001
0000
0000
0000
0000
0000
2000
0000
0000
0000
0000
0000
3100
0000
0000
0001
0000
0000
0100
0000
0000
1000
0000
0000
,
0002
0003
0100
1000
0000
0100
0001
0000
1000
0001
1000
0000
0001
0000
0010
0100
,
1000
0000
0000
0000
0010
0100
0010
0000
1000
0000
0000
0000
0001
0000
0000
0000
0010
0000
0100
0000
0000
0000
1000
0000
0010
0000
0001
0000
0010
0000
1000
0000
,
0002
0000
0000
1003
0000
0000
0000
0000
0000
0010
0000
0000
1000
0000
0000
0200
0300
0000
0200
0300
0000
0001
0000
0000
1000
0000
0000
0100
0000
0000
0000
0000
0000
0010
0000
0000
0000
0000
0000
0001
0000
0000
1000
0000
0000
0001
0000
0000
,
0200
0000
0310
0100
0000
0010
0100
0010
0100
0000
0010
1000
0000
0001
0010
0100
,
2000
3000
0001
0000
1000
0010
0100
0001
0010
0100
1000
0001
1000
0100
0010
0001
,
1000
0000
0100
0000
0000
0100
0000
0000
1000
0000
0001
0000
1000
0001
1000
0000
,
0002
0000
0000
0000
0000
0000
0003
0000
0000
0000
0000
0000
1000
0000
0000
0000
0000
0000
0100
0000
0000
0000
0000
0000
0020
0000
0000
0030
0000
0000
0000
0000
0000
0000
0000
0000
0020
0000
0000
0030
0000
0000
1000
0000
0000
0000
0000
0000
0001
0000
0000
0000
0000
0000
0200
0000
0300
0000
0000
0000
0200
0000
0300
0000
0000
0000
1000
0000
0000
0000
0000
0000
0001
0000
0000
0000
0000
0000
0020
0000
0030
0000
0000
0000
0020
0000
0030
0000
0000
0000
1000
0000
0000
0000
0000
0000
,
0002
0000
0000
0003
0000
0000
1000
0000
0000
0010
0000
0000
0200
0000
0300
0000
0000
0000
0200
0000
0300
1000
0000
0000
0001
0000
0000
0020
0000
0000
0030
0000
0000
1000
0000
0000
0010
0000
0000
0001
0000
0000
0200
0300
0000
0200
0300
0000
,
2000
0000
0000
0000
0000
0000
3000
0000
0000
0000
0000
0000
0001
0000
0000
0000
0000
0000
0100
0000
0000
0000
0000
0000
0020
0000
0000
0000
0030
0000
0000
0000
0000
0000
0000
0000
0020
0000
0000
0000
0030
0000
0001
0000
0000
0000
0000
0000
1000
0000
0000
0000
0000
0000
0010
0000
0000
0000
0000
0000
1000
0000
0000
0000
0000
0000
0001
0000
0000
0000
0000
0000
0010
0000
0000
0000
0000
0000
0100
0000
0000
0000
0000
0000
1000
0000
0000
0001
0000
0000
1000
0000
0000
0000
0000
0000
,
0010
0000
0000
0000
0000
0000
0100
0000
0000
0000
0000
0000
0001
0000
0000
0000
0000
0000
1000
0000
0000
0000
0000
0000
0001
0000
0000
1000
0000
0000
0001
0000
0000
0000
0000
0000
0010
0000
0000
0000
0000
0000
0100
0000
0000
0000
0000
0000
1000
0000
0000
0000
0000
0000
0001
0000
0000
0000
0000
0000
0010
0000
0000
0000
0000
0000
0001
0000
0000
0000
0000
0000
0200
0000
0300
0000
0000
0000
0200
0000
0300
0000
0000
0000
1000
0000
0000
0000
0000
0000
0010
0000
0000
0000
0000
0000
,
2000
0000
0000
0000
0000
0000
3000
0000
0000
0000
0000
0000
0001
0000
0000
0000
0000
0000
0010
0000
0000
0000
0000
0000
0200
0000
0000
0000
0300
0000
0000
0000
0000
0000
0000
0000
0200
0000
0000
0000
0300
0000
0001
0000
0000
0000
0000
0000
1000
0000
0000
0010
0000
0000
1000
0000
0000
0000
0000
0000
0001
0000
0000
0000
0000
0000
0100
0000
0000
0000
0000
0000
0001
0000
0000
0010
0000
0000
0001
0000
0000
0000
0000
0000
1000
0000
0000
0000
0000
0000
0010
0000
0000
0000
0000
0000
,
2000
0000
0000
0000
0000
0000
3000
0000
0000
0000
0000
0000
0001
0000
0000
0000
0000
0000
0010
0000
0000
0000
0000
0000
0100
0000
0000
0000
0000
0000
0000
0000
0000
0000
0000
0000
2000
0000
0000
3000
0000
0000
0000
0000
0000
0000
0000
0000
0001
0000
0000
0000
0000
0000
0200
0000
0300
0000
0000
0000
0200
0000
0300
0000
0000
0000
1000
0000
0000
0000
0000
0000
0200
0000
0300
0000
0000
0000
0200
0000
0300
0000
0000
0000
0001
0000
0000
0000
0000
0000
1000
0000
0000
0000
0000
0000
,
0100
0000
0000
0000
0000
0000
0000
0000
0000
0000
0000
0000
0010
0000
0000
0001
0000
0000
0010
0000
0000
0000
0000
0000
0100
0000
0000
0000
0000
0000
1000
0000
0000
0000
0000
0000
0001
0000
0000
0000
0000
0000
1000
0000
0000
0000
0000
0000
0001
0000
0000
0100
0000
0000
0001
0000
0000
0000
0000
0000
0200
0000
0300
0000
0000
0000
0200
0000
0300
0000
0000
0000
1000
0000
0000
0000
0000
0000
0010
0000
0000
0000
0000
0000
0100
0000
0000
0000
0000
0000
0001
0000
0000
0000
0000
0000
,
1000
0000
0100
0000
0010
0001
0010
0000
0100
0000
1000
0000
0010
0000
0100
0000
0010
0000
1000
0000
0001
0000
0000
0000
0010
0100
1000
0001
1000
0000
0010
0000
,
0200
0300
0010
0000
0100
0000
0001
0000
0010
0100
0000
1000
0000
0100
0002
0003
,
1000
0000
0000
0020
0000
0000
0030
0000
0000
0001
0000
0000
0000
0000
0000
0020
0000
0000
0030
0000
0000
1000
0000
0000
0001
0000
0000
0000
0000
0000
0100
0000
2000
0000
0000
0000
3020
0000
0000
0030
0000
0000
0000
0000
0000
0000
0000
0000
,
1000
0000
0010
0000
0100
0000
0001
0000
1000
0000
0100
0000
0010
0000
0000
0000
0001
0000
1000
0000
0010
0000
0100
0000
0001
0000
1000
0000
0010
0100
0010
0000
,
0001
0000
0010
0000
1000
0000
0001
0000
0010
0100
0010
0000
1000
0000
0010
0000
0001
0000
0100
0000
0002
0000
0000
0000
0013
0000
0000
0000
0000
0000
0000
0000
,
0100
0000
0000
0000
0000
0000
1000
0000
0000
0001
0000
0000
1000
0000
0000
0000
0000
0000
0010
0000
0000
0000
0000
0000
0100
0000
0000
0001
0000
0000
1000
0000
0000
0001
0000
0000
0010
0000
0000
0000
0100
0000
1000
0000
0000
0000
0010
0000
,
0100
0000
0000
0000
1000
0000
0100
0000
0001
0000
1000
0000
0001
0000
0000
0000
0010
0000
0100
0000
0000
0000
1000
0000
0001
0000
0000
1000
0000
0000
0010
0000
0000
1000
0000
0000
0002
0000
0000
0003
0000
0000
0000
0000
0000
0000
0000
0000
,
2000
3000
0001
1000
0001
0000
0010
0000
0100
1000
0001
1000
0010
0000
1000
0001
,
0010
1000
0010
0100
1000
0010
0100
0010
0001
0010
1000
0000
0001
1000
0001
0000
,
1001
0000
1000
0000
1010
0000
0000
0000
1010
0000
1000
0010
0100
1000
0100
0010
,
1001
0000
0000
0000
0000
0000
0001
0000
0000
0000
0000
0000
0010
0000
0000
0000
0000
0000
1000
0000
0000
0010
0000
0000
0001
0000
0000
0000
0000
0000
1000
0000
0000
0020
0000
0030
0000
0000
0000
0020
0000
0030
0001
0000
0000
1000
0000
0000
,
1001
0001
0101
0100
0110
0010
1010
1000
,
1001
0000
0011
0000
1100
0000
1010
0000
0101
0000
0001
0000
0010
0100
1000
0001
,
2000
0000
0000
0000
3100
0000
1000
0000
0001
0000
0000
0000
0010
0000
0000
0000
0011
0000
0000
0000
0001
0000
0200
0300
0000
0000
0200
0300
1000
0000
0001
0000
,
1000
0000
0000
0000
0000
0000
0000
0000
0010
0000
0000
0000
0000
0000
0000
0000
0100
0000
0000
0000
0001
0000
0000
0000
1000
0000
0000
0000
0000
0000
0000
0000
1001
0000
0000
0000
0000
0000
0000
0000
0001
0000
0000
0000
1000
0000
0000
0000
0000
0000
0000
0000
0010
0000
0000
0000
0200
0300
0000
0000
0200
0300
0000
0000
,
2000
0000
0100
0000
3001
1000
0001
0100
0010
0000
1000
0001
0000
0010
0100
1000
,
0001
0000
0100
0000
1000
0100
0001
0000
0020
0031
0000
1000
0010
0010
0001
1000
,
0002
0000
0000
0000
0103
0000
0001
0000
1000
0000
0000
0000
0010
0000
0000
0000
1010
0000
0000
0000
1000
0000
0200
0300
0000
0000
0200
0300
0001
0000
1000
0000
,
0001
0000
0000
0000
0000
0000
0000
0000
0010
0000
0000
0000
0000
0000
0000
0000
0100
0000
0000
0000
1000
0000
0000
0000
0001
0000
0000
0000
0000
0000
0000
0000
1001
0000
0000
0000
0000
0000
0000
0000
1000
0000
0000
0000
0001
0000
0000
0000
0000
0000
0000
0000
0010
0000
0000
0000
0200
0300
0000
0000
0200
0300
0000
0000
,
0001
0000
0000
0000
0000
0000
0010
0000
0000
0000
0000
0000
0100
0000
0000
1000
0000
0000
0000
0000
0000
0010
0000
0000
0000
0000
0000
0100
0000
0000
0000
0000
0000
0001
0000
0000
1000
0000
0000
0200
0300
0000
0200
0300
0000
0001
0000
0000
,
1000
0000
0000
0000
0000
0000
0100
0000
0000
0000
0000
0000
0010
0000
0000
0001
0000
0000
1000
0000
0000
0010
0000
0000
0100
0000
0000
0001
0000
0000
0200
0300
0000
0200
0300
0000
1000
0000
0000
0200
0300
0000
0200
0300
0000
0001
0000
0000
,
2000
3010
0100
0001
0010
0001
0100
0001
1000
0010
1000
0001
0010
0100
1000
0001
,
1000
0000
0000
0010
0000
0000
0100
0000
0000
0001
0000
0000
1000
0000
0000
0100
0000
0000
0010
0000
0000
0001
0000
0000
1000
0000
0000
0000
0100
0000
0010
0000
0000
0000
0001
0000
0100
0000
0000
0000
1000
0000
0100
0000
0001
0000
1000
0000
,
0002
0103
0010
1000
0100
1000
0010
1000
0001
0100
0001
1000
0100
0010
0001
1000
,
0001
0100
0010
1000
0001
0010
0100
1000
0001
0000
0100
0000
0001
1000
0001
0000
,
0010
0000
0000
0000
0100
0000
0000
0000
1000
0000
0010
0000
0100
0000
0001
0000
0010
0000
0100
0000
1000
0000
0001
0000
1000
0000
0010
0000
0100
0001
1000
0000
,
0002
0000
0000
0003
0000
0000
0010
0000
0000
0000
0000
0000
0001
0000
0100
0000
0001
0000
0010
0000
0000
0100
0000
0000
1000
0000
0000
0001
0000
0000
1000
0000
0000
0010
0000
0000
0100
0000
0001
0000
1000
0000
0100
0000
0000
0010
0000
0000
,
0001
0010
0100
0000
1000
0010
0000
1000
0010
0100
0001
0000
1000
0001
0000
0001
,
0100
0000
0000
1000
0000
0000
0100
0000
0000
0000
0000
0000
0001
0000
0000
1000
0000
0000
0000
0000
0000
0100
0000
0000
0000
0000
0000
0010
0000
0000
0000
0000
0000
0001
0000
0000
1000
0000
0000
0020
0030
0000
0020
0030
0000
0001
0000
0000
,
1000
0000
0000
0000
;
