#VERSION:0.83;
#TITLE:DEAD END in My Brain;
#SUBTITLE:;
#ARTIST:RetBear (unknown Vo\:10fu);
#TITLETRANSLIT:;
#SUBTITLETRANSLIT:;
#ARTISTTRANSLIT:;
#GENRE:;
#ORIGIN:;
#CREDIT:nobarben;
#BANNER:DEAD END in my Brain.png;
#BACKGROUND:DEAD END in my Brain-jacket.png;
#PREVIEWVID:;
#JACKET:DEAD END in my Brain-jacket.png;
#CDIMAGE:DEAD END in my Brain.jpg;
#DISCIMAGE:DEAD END in My Brain-bg.png;
#LYRICSPATH:;
#CDTITLE:;
#MUSIC:DEAD END in My Brain.ogg;
#OFFSET:0.522994;
#SAMPLESTART:60.849998;
#SAMPLELENGTH:14.000000;
#SELECTABLE:YES;
#BPMS:0.000=142.000;
#STOPS:;
#DELAYS:;
#WARPS:;
#TIMESIGNATURES:0.000=4=4;
#TICKCOUNTS:0.000=4;
#COMBOS:0.000=1;
#SPEEDS:0.000=1.000=0.000=0;
#SCROLLS:0.000=1.000;
#FAKES:;
#LABELS:0.000=Song Start;
#BGCHANGES:;
#KEYSOUNDS:;
#ATTACKS:
;

//---------------dance-single - ----------------
#NOTEDATA:;
#CHARTNAME:;
#STEPSTYPE:dance-single;
#DESCRIPTION:;
#CHARTSTYLE:;
#DIFFICULTY:Hard;
#METER:14;
#RADARVALUES:0.682674,0.708102,0.338573,0.193470,0.614268,494.000000,459.000000,35.000000,20.000000,0.000000,0.000000,0.000000,0.000000,0.000000,0.682674,0.708102,0.338573,0.193470,0.614268,494.000000,459.000000,35.000000,20.000000,0.000000,0.000000,0.000000,0.000000,0.000000;
#CREDIT:nobarben;
#NOTES:
0000
0000
0000
0000
,
0000
0000
0000
0000
,
0000
0000
0000
0000
,
0000
0000
0000
0000
,
0000
0000
0000
0000
,
1000
0000
0010
0000
0110
0000
0000
0000
1000
0001
1000
0100
0000
0010
0001
0000
,
0000
0000
0011
0000
0001
1000
0000
0001
0100
0000
0010
1000
0000
0001
0010
0000
,
0001
0000
0100
0000
0110
0000
0000
0000
0001
1000
0001
0010
0000
0100
1000
0000
,
0000
0000
1010
0000
1000
0100
0000
0010
0001
0000
0010
0100
1000
0100
0010
0000
,
0001
0000
0000
0001
0000
0000
0001
0000
1000
0000
0000
0010
0000
0000
0102
0000
,
0000
1003
0000
2100
0000
3001
0001
0010
,
1000
0010
0001
0010
1000
0010
0001
0012
,
0000
0000
1003
0000
0000
0000
2010
0000
0000
0000
3001
0000
0001
0000
0100
0010
,
1000
0000
0000
1000
0000
0000
1000
0000
0001
0000
0000
0010
0000
0000
2100
0000
,
0000
3001
0000
0102
0000
1003
1000
0010
,
0001
0010
1000
0010
0001
0010
0100
0110
,
0000
0000
0001
0000
0000
0000
2000
0000
3100
0010
0001
0000
1000
0000
0010
0000
,
0100
0001
1000
0001
0100
0000
0010
1000
0000
0001
1000
0000
0100
0000
0010
0000
,
0001
0100
0101
0000
1100
0000
1010
0000
,
1000
0100
0001
0100
1000
0100
0010
0110
,
0000
0001
0000
2000
0000
0010
3001
0100
,
0001
1000
0100
1000
0001
0000
0010
0100
0000
1000
0001
0000
1000
0000
0010
0000
,
0100
0010
1010
0000
1100
0000
0101
0000
,
0001
0000
0010
0000
0001
0000
0010
0000
1000
0000
0000
0010
0000
0000
0001
0000
,
2000
0010
0001
0000
0100
0000
3100
0000
,
0021
0000
0000
0100
0000
0000
1030
0010
0001
0000
1000
0100
0000
0001
0100
0000
,
0000
0000
0010
0001
1000
0000
0001
0000
0100
0000
0000
0010
0000
0000
1000
0000
,
1020
0000
0000
0100
0000
0000
0031
0010
1000
0000
0001
0100
0000
1000
0100
0000
,
0000
0000
0010
1000
0001
0000
1000
0000
0100
0000
0010
0000
0100
0000
0000
0000
,
1200
0000
0000
0010
0000
0000
0301
0100
1000
0000
0001
0010
0000
1000
0010
0000
,
0000
0000
0100
1000
0001
0000
0100
0000
0010
0000
0000
1000
0000
0000
1000
0000
,
0200
0000
0000
0000
0020
0000
0330
1001
,
0000
0000
0001
0010
0100
0000
1000
0000
0001
0100
0010
1000
0001
0000
0000
0000
,
1000
1000
0100
0100
0010
0001
0100
0020
,
0000
0000
0130
0000
2001
0000
3100
0000
1000
0001
0010
0000
0100
0000
0010
0000
,
0001
0100
0001
0000
0100
0010
0100
0000
0010
1000
0010
1000
0100
0010
0001
0000
,
0000
0000
1001
0000
0000
0000
0001
0010
0100
1000
0001
0000
1000
0000
0010
0000
,
1000
0100
0000
0010
0001
0000
0001
0000
1000
0100
0000
0010
0001
0000
0001
0000
,
1000
0100
0000
0010
0001
0000
0001
0000
0000
0000
1000
0001
1000
0000
0010
0000
,
0100
0000
0001
1000
0000
0001
0010
0000
0100
0000
1000
0001
0000
1000
0010
0000
,
0100
0000
0001
0010
0000
0100
0010
0000
0002
0000
0000
0000
1003
0000
0001
0100
,
0010
0000
1000
0000
0001
0000
1000
0100
0010
0000
0001
0000
0100
0001
1000
0000
,
0000
0000
0001
0010
0100
0000
0010
0000
1000
0000
0000
0010
0000
0000
0001
0000
,
1000
1000
0010
0010
0001
0001
0010
2000
,
0000
0000
3001
0000
0000
0000
0100
0010
0100
0010
1000
0000
0001
0000
0010
0000
,
0001
0100
0000
0010
1000
0000
1000
0000
0001
0100
0000
0010
1000
0000
1000
0000
,
0001
0010
0000
0100
1000
0000
1000
0000
0000
0000
0001
0010
0200
0000
0000
0000
,
1300
0010
0000
0100
0001
0000
0001
0000
0010
0000
0001
1000
0000
0001
0100
0000
,
0010
0000
1000
0001
0000
1000
0100
0000
0010
0001
0010
0000
0001
0100
0001
0100
,
0010
0000
1000
0000
0000
0000
0001
0010
0100
0000
1000
0000
0001
0100
0010
0000
,
0000
0000
1000
0000
1000
0100
0010
0001
1000
0000
0010
0000
0100
0000
0001
0000
,
0010
0100
1000
0000
0000
0000
0001
0000
0100
0010
1000
0000
0100
0010
0001
0000
,
0000
0000
1000
0010
0100
0000
0010
0000
0110
0000
0000
0000
1001
0000
0000
0000
,
0110
0000
0001
0000
1001
0000
0000
0000
1000
0001
0010
0100
0000
1000
0001
0000
,
0100
0000
0101
0000
0001
0100
0000
0100
0010
0000
0010
1000
0000
1000
0001
0000
,
1000
0000
0001
0000
0011
0000
0000
0000
0010
0100
1000
0001
0000
0100
0010
0000
,
0100
0000
0110
0000
0010
1000
0000
1000
0100
0000
0100
0010
0000
0010
0001
0000
,
1000
0000
0010
0000
0110
0000
0000
0000
0010
1000
0100
0010
0000
0001
1000
0000
,
0010
0000
0110
0000
0100
0001
0000
0001
0010
0000
0010
1000
0000
1000
0010
0000
,
0100
0000
1000
0000
1001
0000
0000
0000
0001
0100
0010
0100
0000
1000
0100
0000
,
0010
0000
0110
0000
1000
0100
0000
0010
0002
0000
0000
0000
0000
0000
0000
0000
,
0003
0000
0000
0000
;

//---------------dance-single - ----------------
#NOTEDATA:;
#CHARTNAME:;
#STEPSTYPE:dance-single;
#DESCRIPTION:;
#CHARTSTYLE:;
#DIFFICULTY:Medium;
#METER:10;
#RADARVALUES:0.404906,0.442563,0.077388,0.512697,0.135429,293.000000,285.000000,8.000000,53.000000,0.000000,0.000000,0.000000,0.000000,0.000000,0.404906,0.442563,0.077388,0.512697,0.135429,293.000000,285.000000,8.000000,53.000000,0.000000,0.000000,0.000000,0.000000,0.000000;
#CREDIT:nobarben;
#NOTES:
0000
0000
0000
0000
,
0000
0000
0000
0000
,
0000
0000
0000
0000
,
0000
0000
0000
0000
,
0000
0000
0000
0000
,
1000
0000
0001
0000
0100
0001
1000
0000
,
0001
0010
0100
1000
0100
0000
1000
0000
,
0001
0000
0100
0000
0010
1000
0001
0000
,
1000
0000
0100
0000
0000
0010
0000
0000
0002
0000
0000
0000
1003
0000
0000
0000
,
0002
0000
0000
0000
0003
0000
1000
0000
0010
0000
0000
0100
0000
0000
0002
0000
,
0000
1003
0000
0002
0000
0013
0000
0001
,
0020
0000
0230
0000
2300
0000
3001
2000
,
0000
3001
0000
2000
0000
3010
0010
0000
,
0200
0000
0000
0000
0000
0000
0301
0000
1000
0000
0000
0100
0000
0000
0020
0000
,
0000
0031
0000
0020
0000
0130
0000
1000
,
0002
0000
0203
0000
0320
0000
1030
1000
,
0000
0001
0000
0020
0000
0000
0130
0000
,
1000
0100
1000
0100
0010
0001
1000
0010
,
0000
0100
0001
0000
0010
0000
0110
0000
,
0002
0000
0203
0000
2300
0000
3100
0010
,
0000
0100
0000
0002
0000
1000
1003
0000
,
0001
0010
0001
0010
0100
1000
0001
0100
,
0000
0010
1000
0000
0100
0000
0110
0000
,
0002
0000
0000
0000
1003
0000
0001
0000
0100
0000
0000
0010
0000
0000
1000
0000
,
2002
0000
0003
3010
,
1001
0000
0000
0001
0000
0000
1000
0000
0100
0000
0000
0001
0000
0000
0100
0000
,
0000
1000
1000
0000
0002
0000
0003
0000
,
1001
0000
0000
1000
0000
0000
0001
0000
0100
0000
0000
1000
0000
0000
0100
0000
,
0000
0001
1000
0000
0100
0010
0100
0000
,
1100
0000
0000
0100
0000
0000
0001
0000
0100
0000
0000
1000
0000
0000
0010
0000
,
0000
0100
0100
0000
0002
0000
0003
0000
,
0020
0000
0000
0000
0000
0000
0000
0130
,
0000
1000
0100
0001
0100
1000
0001
0000
,
2000
0000
3020
0000
0031
0010
1000
0002
,
0000
1000
1003
0000
0001
0010
0100
1000
,
0002
0000
0203
0000
1300
0100
0001
1000
,
0000
1001
0000
1000
0100
0010
0001
1000
,
0002
0000
0000
0100
0000
0000
0103
0000
0002
0000
0000
0010
0000
0000
0013
0000
,
0002
0000
0000
0100
0000
0000
0103
0000
0000
0000
0010
0000
1000
0000
0001
0000
,
2000
0000
0000
0010
0000
0000
3001
0000
0020
0000
0000
0001
0000
0000
0130
0000
,
2000
0000
0000
0001
0000
0000
3010
0000
0200
0000
0000
0000
0000
0000
0310
0000
,
1000
0100
0000
0001
0100
1000
0001
0010
,
0000
0000
1000
0000
0010
0000
0001
0000
1000
0000
0000
0010
0000
0000
0001
0000
,
0020
0000
2030
0000
3001
0001
0010
0200
,
0000
1300
0000
0001
0100
0010
1000
0001
,
2000
0000
0000
0010
0000
0000
3010
0000
2000
0000
0000
0100
0000
0000
3100
0000
,
0020
0000
0000
0001
0000
0000
0031
0000
0000
0000
1000
0000
2000
0000
0000
0000
,
3002
0000
0000
0010
0000
0000
0013
0000
0002
0000
0000
0100
0000
0000
1003
0000
,
0020
0000
0000
0100
0000
0000
2030
0000
0000
0000
0000
0000
3001
0000
0100
0000
,
0001
0010
0000
1000
0001
0100
1000
0001
,
0000
1000
0010
0000
1000
0001
0010
0100
,
1000
0010
0000
0001
1000
0100
0001
1000
,
0000
0100
0010
0100
2000
0000
3001
0000
,
0220
0000
0000
0000
,
0000
0000
0000
0330
,
1000
0000
0001
0000
0010
0100
1000
0000
,
0001
0000
0100
0000
0000
0001
0000
0000
1000
0000
0000
0001
0000
0000
0010
0000
,
0100
0000
1000
0000
0001
1000
0010
0000
,
0100
0000
0001
0000
0000
0010
0000
0000
0100
0000
0000
1000
0000
0000
0001
0000
,
1000
0000
0010
0000
0100
0001
1000
0000
,
0100
0000
0010
0000
0000
0001
0000
0000
2000
0000
0000
0000
0000
0000
0000
0000
,
3000
0000
0000
0000
;

//---------------dance-single - ----------------
#NOTEDATA:;
#CHARTNAME:;
#STEPSTYPE:dance-single;
#DESCRIPTION:;
#CHARTSTYLE:;
#DIFFICULTY:Easy;
#METER:6;
#RADARVALUES:0.297115,0.383555,0.280532,0.232164,0.000000,215.000000,186.000000,29.000000,24.000000,0.000000,0.000000,0.000000,0.000000,0.000000,0.297115,0.383555,0.280532,0.232164,0.000000,215.000000,186.000000,29.000000,24.000000,0.000000,0.000000,0.000000,0.000000,0.000000;
#CREDIT:nobarben;
#NOTES:
0000
0000
0000
0000
,
0000
0000
0000
0000
,
0000
0000
0000
0000
,
0000
0000
0000
0000
,
0000
0000
0000
0000
,
1000
0100
1000
1000
,
0001
0100
0001
0000
,
0001
0010
0001
0001
,
1000
0100
0020
0030
,
0002
0000
1000
0000
1003
0000
0000
0001
,
0000
1000
0000
0001
0000
1000
0000
0000
,
0001
0000
0001
0000
0010
0000
0000
0100
,
0000
1000
0000
0100
0000
1000
0000
0000
,
1001
0000
1000
0000
0010
0000
0000
0100
,
0000
0001
0000
0100
0000
0001
0000
0000
,
1000
0000
1000
0000
0100
0000
0010
0010
,
0000
0001
0000
2000
0000
0000
3001
0000
,
1000
0100
1000
0000
0100
0000
0010
0000
,
0000
0001
0001
1000
,
0001
0000
0100
0000
0010
0000
1000
1000
,
0000
0001
0000
1000
0000
0000
0000
0000
,
0001
0010
0001
0000
0010
0000
0100
0000
,
0000
1000
1000
0001
,
0200
0000
0310
0000
,
2002
0000
0000
3003
,
0011
0000
0000
0000
1001
0000
0000
1001
,
0000
0001
0100
0010
,
1010
0000
0000
0000
1001
0000
0000
1001
,
0000
0000
1000
0000
0100
0010
0100
0000
,
0110
0000
0000
0000
1001
0000
0000
1001
,
0000
0001
0100
0010
,
2000
0000
0000
0000
0000
0000
0000
3001
,
0000
0000
0010
0000
0100
1000
0100
0000
,
2000
0000
3020
0000
0230
0000
0301
0001
,
0000
0000
1000
0000
0001
0000
0001
0010
,
0002
0000
0203
0000
0320
0000
1030
1000
,
0000
1001
0000
0000
0000
0000
0000
0000
,
0101
1000
0101
1000
,
0101
1000
0000
0100
,
1100
0001
0101
1000
,
1010
0100
0220
0330
,
1000
1000
0001
0000
,
0010
0010
0100
0000
,
2000
0000
3200
0000
0320
0000
0031
0001
,
0000
0000
1000
0000
0001
1000
0001
0000
,
0011
1000
0011
1000
,
1010
0001
0000
0100
,
0110
1000
1001
0001
,
0011
1000
2002
3003
,
0001
0000
0100
0100
,
0000
0010
1000
0001
,
1000
0000
0100
0110
,
0000
0001
1000
0001
,
2002
0000
0000
0000
,
0000
0000
0000
3003
,
0001
0010
0001
0001
,
1000
0010
1000
0000
,
1000
0100
1000
1000
,
0001
0010
0001
0000
,
1000
0010
0100
0100
,
0001
1000
2002
0000
,
3003
0000
0000
0000
;

//---------------dance-double - ----------------
#NOTEDATA:;
#CHARTNAME:;
#STEPSTYPE:dance-double;
#DESCRIPTION:;
#CHARTSTYLE:;
#DIFFICULTY:Hard;
#METER:14;
#RADARVALUES:0.671619,0.678597,0.232164,0.232164,0.594921,486.000000,462.000000,24.000000,24.000000,0.000000,0.000000,0.000000,0.000000,0.000000,0.671619,0.678597,0.232164,0.232164,0.594921,486.000000,462.000000,24.000000,24.000000,0.000000,0.000000,0.000000,0.000000,0.000000;
#CREDIT:nobarben;
#NOTES:
// measure 0
00000000
00000000
00000000
00000000
,  // measure 1
00000000
00000000
00000000
00000000
,  // measure 2
00000000
00000000
00000000
00000000
,  // measure 3
00000000
00000000
00000000
00000000
,  // measure 4
00000000
00000000
00000000
00000000
,  // measure 5
10000000
00000000
00010000
00000000
01000000
00000000
00010000
00000000
00100000
01000000
00100000
01000000
00000000
10000000
00010000
00000000
,  // measure 6
10000000
00000000
01000000
00000000
00100000
00010000
00000000
00100000
00001000
00000000
00010000
00000100
00000000
00001000
00000100
00000000
,  // measure 7
00000010
00000000
00000001
00000000
00001000
00000000
00000001
00000000
00000100
00000010
00000100
00000010
00000000
00001000
00000001
00000000
,  // measure 8
00000010
00000000
00000100
00000000
00001000
00000010
00000000
00000100
00000001
00000000
00001000
00000001
00000010
00000001
00001000
00000000
,  // measure 9
00000001
00000000
00000000
00000001
00000000
00000000
00000001
00000000
00000100
00000000
00000000
00001000
00000000
00000000
00012000
00000000
,  // measure 10
00000000
01003000
00000000
00012000
00000000
01003000
01000000
00100000
,  // measure 11
00010000
00100000
01000000
00100000
00010000
00100000
01000000
01020000
,  // measure 12
00000000
10030000
00000000
01020000
00000000
10030000
10000000
00000000
,  // measure 13
10000000
00000000
00000000
10000000
00000000
00000000
10000000
00000000
01000000
00000000
00000000
00010000
00000000
00000000
00021000
00000000
,  // measure 14
00000000
00030100
00000000
00021000
00000000
00030100
00000100
00000010
,  // measure 15
00001000
00000010
00000100
00000010
00001000
00000010
00000100
00002100
,  // measure 16
00000000
00000000
00003001
00000000
00000000
00000000
00000020
00000000
00000130
00001000
00000001
00000000
00000100
00000000
00000001
00000000
,  // measure 17
00001000
00000010
00001000
00000010
00001000
00000000
00000100
00010000
00000000
00001000
00100000
00000000
00010000
00000000
00100000
00000000
,  // measure 18
10000000
00100000
00110000
00000000
00101000
00000000
00011000
00000000
,  // measure 19
00010000
00001000
00000100
00001000
00010000
00001000
00000100
00002100
,  // measure 20
00000000
00010000
00000000
02003000
00000000
00100000
03010000
10000000
,  // measure 21
00010000
00100000
00010000
00100000
00010000
00000000
01000000
00001000
00000000
00010000
00000010
00000000
00001000
00000000
00000010
00000000
,  // measure 22
00000001
00000010
00001010
00000000
00010010
00000000
00011000
00000000
,  // measure 23
00001000
00000000
00010000
00000000
00001000
00000000
00010000
00000000
01000000
00000000
00000000
00010000
00000000
00000000
00001000
00000000
,  // measure 24
00020000
00001000
00000100
00000000
00000010
00000000
00031000
00000000
,  // measure 25
00020010
00000000
00000000
00001000
00000000
00000000
01030000
00010000
00001000
00000000
00100000
00010000
00000000
00100000
00001000
00000000
,  // measure 26
00000000
00000000
00010000
00000100
00001000
00000000
00000001
00000000
00000100
00000000
00000000
00000010
00000000
00000000
00010000
00000000
,  // measure 27
00102000
00000000
00000000
00010000
00000000
00000000
00003100
00001000
00010000
00000000
00000010
00001000
00000000
00000010
00010000
00000000
,  // measure 28
00000000
00000000
00001000
01000000
00010000
00000000
10000000
00000000
01000000
00000000
00100000
00000000
00001000
00000000
00010000
00000000
,  // measure 29
00020100
00000000
00000000
00001000
00000000
00000000
00130000
00010000
00001000
00000000
01000000
00010000
00000000
01000000
00001000
00000000
,  // measure 30
00000000
00000000
00010000
00000010
00001000
00000000
00000001
00000000
00000010
00000000
00000000
00000100
00000000
00000000
00010000
00000000
,  // measure 31
00002000
00000000
00000000
00000000
00020000
00000000
00033000
00011000
,  // measure 32
00000000
00000000
00001000
00010000
00000100
00000000
00000010
00000000
00000001
00001000
00000001
00001000
00000002
00000000
00000000
00000000
,  // measure 33
00000103
00000100
00001000
00001000
00010000
00100000
10000000
00020000
,  // measure 34
00000000
00000000
00130000
00000000
20010000
00000000
31000000
00000000
10000000
00010000
00100000
00000000
10000000
00000000
00100000
00000000
,  // measure 35
01000000
00000000
01000000
00000000
00010000
00000000
00010000
00000000
00001000
00000010
00000000
00000100
00000010
00000000
00002001
00000000
,  // measure 36
00000000
00000000
00003010
00000000
00000000
00000000
00001000
00000001
00000100
00000010
00001000
00000000
00000001
00000000
00000010
00000000
,  // measure 37
00000001
00000100
00000000
00000010
00001000
00000000
00001000
00000000
00000010
00010000
00000000
00001000
01000000
00000000
01000000
00000000
,  // measure 38
00010000
01000000
00000000
00100000
10000000
00000000
10000000
00000000
00000000
00000000
00100000
10000000
00010000
00000000
10010000
00000000
,  // measure 39
10000000
00000000
00100000
10000000
00000000
00010000
10000000
00000000
01000000
00000000
00100000
00010000
00000000
00100000
00001000
00000000
,  // measure 40
00010000
00000000
00000100
00001000
00000000
00000100
00000010
00000000
00000002
00000000
00000000
00000000
00001003
00000000
00000001
00000100
,  // measure 41
00000010
00000000
00001000
00000000
00000001
00000000
00000010
00000100
00001000
00000000
00000001
00000000
00000100
00001000
00010000
00000000
,  // measure 42
00000000
00000000
00100000
10000000
00010000
00000000
10000000
00000000
01000000
00000000
00000000
00010000
00000000
00000000
01000000
00000000
,  // measure 43
10000000
10000000
00100000
00100000
00010000
00001000
00010000
02000000
,  // measure 44
00000000
00000000
13000000
00000000
00000000
00000000
00010000
01000000
00100000
10000000
00010000
00000000
10000000
00000000
00100000
00000000
,  // measure 45
10000000
01000000
00000000
00100000
00010000
00000000
00010000
00000000
00100000
00001000
00000000
00010000
00000100
00000000
00000100
00000000
,  // measure 46
00001000
00000010
00000000
00000100
00000001
00000000
00000001
00000000
00000000
00000000
00001000
00000001
00000020
00000000
00000000
00000000
,  // measure 47
00000031
00000100
00000000
00000010
00001000
00000000
00001000
00000000
00000100
00000000
00010000
00001000
00000000
00010000
00100000
00000000
,  // measure 48
01000000
00000000
00010000
10000000
00000000
00010000
00100000
00000000
01000000
10000000
01000000
00000000
10000000
00010000
10000000
00010000
,  // measure 49
01000000
00000000
00100000
00000000
00000000
00000000
01000000
00010000
10000000
00000000
01000000
00000000
00100000
00010000
00001000
00000000
,  // measure 50
00000000
00000000
00000100
00000000
00000100
00000010
00000001
00001000
00000010
00000000
00000100
00000000
00001000
00000000
00010000
00000000
,  // measure 51
00100000
10000000
00010000
00000000
00000000
00000000
10000000
00000000
01000000
00010000
00001000
00000000
00010000
00000100
00001000
00000000
,  // measure 52
00000000
00000000
00000100
00000010
00000001
00000000
00000100
00000000
00000110
00000000
00000000
00000000
00001010
00000000
00000000
00000000
,  // measure 53
00001001
00000000
00001000
00000000
00000100
00000000
00001000
00000000
00000010
00000100
00000010
00000100
00000000
00000001
00001000
00000000
,  // measure 54
00000001
00000000
00000100
00000000
00000010
00001000
00000000
00000010
00010000
00000000
00001000
01000000
00000000
00010000
01000000
00000000
,  // measure 55
00100000
00000000
10000000
00000000
00010000
00000000
10000000
00000000
01000000
00100000
01000000
00100000
00000000
00010000
10000000
00000000
,  // measure 56
00100000
00000000
10000000
00000000
01000000
00100000
00000000
00010000
00100000
00000000
00001000
00010000
00000000
00000100
00000010
00000000
,  // measure 57
00000001
00000000
00001000
00000000
00000010
00000000
00000100
00000000
00000010
00001000
00000010
00010000
00000000
00001000
00010000
00000000
,  // measure 58
00000100
00000000
00000010
00000000
00000100
00001000
00000000
00000100
00010000
00000000
00001000
01000000
00000000
00100000
10000000
00000000
,  // measure 59
00010000
00000000
00100000
00000000
10000000
00000000
00100000
00000000
00010000
00100000
00001000
00010000
00000000
00000100
00000010
00000000
,  // measure 60
00000001
00000000
00000100
00000000
00001000
00010000
00000000
00000100
00000020
00000000
00000000
00000000
00000000
00000000
00000000
00000000
,  // measure 61
00000030
00000000
00000000
00000000
;
