#VERSION:0.83;
#TITLE:DA DA DANCE;
#SUBTITLE:(feat. Tak Matsumoto);
#ARTIST:BABYMETAL;
#TITLETRANSLIT:;
#SUBTITLETRANSLIT:;
#ARTISTTRANSLIT:;
#GENRE:Kawaii Metal;
#ORIGIN:;
#CREDIT:;
#BANNER:DA DA DANCE (feat. Tak Matsumoto).png;
#BACKGROUND:DA DA DANCE (feat. Tak Matsumoto)-bg.png;
#PREVIEWVID:;
#JACKET:DA DA DANCE (feat. Tak Matsumoto)-jacket.png;
#CDIMAGE:;
#DISCIMAGE:;
#LYRICSPATH:;
#CDTITLE:cdtitle.png;
#MUSIC:DA DA DANCE (feat. Tak Matsumoto).ogg;
#OFFSET:-0.159540;
#SAMPLESTART:52.758457;
#SAMPLELENGTH:12.468000;
#SELECTABLE:YES;
#DISPLAYBPM:154.000000;
#BPMS:0.000=154.000,
27.000=308.000,
33.000=154.000;
#STOPS:204.000=0.390;
#DELAYS:;
#WARPS:;
#TIMESIGNATURES:0.000=4=4;
#TICKCOUNTS:0.000=4;
#COMBOS:0.000=1;
#SPEEDS:0.000=1.000=0.000=0;
#SCROLLS:0.000=1.000;
#FAKES:;
#LABELS:0.000=Song Start;
#BGCHANGES:;
#KEYSOUNDS:;
#ATTACKS:
;

//---------------dance-single - ----------------
#NOTEDATA:;
#CHARTNAME:;
#STEPSTYPE:dance-single;
#DESCRIPTION:;
#CHARTSTYLE:;
#DIFFICULTY:Beginner;
#METER:2;
#RADARVALUES:0.171954,0.218350,0.058716,0.185934,0.000000,123.000000,117.000000,6.000000,19.000000,0.000000,0.000000,0.000000,0.000000,0.000000,0.171954,0.218350,0.058716,0.185934,0.000000,123.000000,117.000000,6.000000,19.000000,0.000000,0.000000,0.000000,0.000000,0.000000;
#CREDIT:;
#OFFSET:-0.159540;
#BPMS:0.000000=154.000000
;
#STOPS:;
#DELAYS:;
#WARPS:;
#TIMESIGNATURES:0.000000=4=4
;
#TICKCOUNTS:0.000000=4
;
#COMBOS:0.000000=1
;
#SPEEDS:0.000000=1.000000=0.000000=0
;
#SCROLLS:0.000000=1.000000
;
#FAKES:;
#LABELS:0.000000=Song Start
;
#DISPLAYBPM:154.000000;
#NOTES:
0000
0000
0000
0000
,
0000
0000
0000
0000
,
0000
0000
0000
0000
,
0000
0000
0000
0000
,
1000
0000
0000
0001
,
0001
0000
0000
1000
,
1000
0000
0000
1001
,
0000
0000
0000
0001
,
0000
0010
0000
0100
,
0000
0010
0000
0001
,
0001
0001
0000
1000
,
0000
0001
0000
1000
,
0000
0010
0000
0100
,
0000
0010
0000
1000
,
1000
1000
0000
0001
,
0000
1000
0000
2002
,
0000
3003
0000
0020
,
0000
0030
0000
1000
,
0000
1000
0000
1000
,
1000
1000
0000
0001
,
0000
0001
0000
0001
,
0001
0001
0000
0010
,
0000
0010
0000
0010
,
0000
0001
0000
0100
,
0000
0100
0000
0010
,
0010
0010
0000
2000
,
0000
3000
0000
1000
,
0000
0010
0000
0100
,
0000
0100
0000
0001
,
0000
1000
0000
0002
,
0000
0003
0000
0001
,
0000
0010
0000
0200
,
0000
0300
0000
0110
,
0000
0000
0000
1000
,
1000
1000
0000
1000
,
2000
3000
0000
0010
,
0000
1000
0000
0200
,
0000
0300
0000
1000
,
1000
1000
0000
1000
,
2000
3000
0000
0010
,
0000
0100
0000
0220
,
0000
0330
0000
0001
,
0001
0001
0000
0001
,
0002
0003
0000
0010
,
0000
0001
0000
0200
,
0000
0300
0000
0001
,
0001
0001
0000
0001
,
0002
0003
0000
0010
,
0000
0100
0000
0220
,
0000
0330
0000
2002
,
0000
3003
0000
0001
,
0000
0100
0000
0010
,
0000
0100
0000
0001
,
0001
0001
0000
1000
,
0000
0001
0000
1000
,
0000
0100
0000
0010
,
0000
0100
0000
1000
,
1000
1000
0000
0001
,
0000
1000
0000
0010
,
0000
0000
0100
0100
,
0000
0000
0001
0001
,
0000
0000
1000
1000
,
0000
0000
0100
0200
,
0000
0000
0000
0300
;

//---------------dance-single - ----------------
#NOTEDATA:;
#CHARTNAME:;
#STEPSTYPE:dance-single;
#DESCRIPTION:;
#CHARTSTYLE:;
#DIFFICULTY:Easy;
#METER:5;
#RADARVALUES:0.276803,0.282937,0.088074,0.401225,0.000000,198.000000,189.000000,9.000000,41.000000,0.000000,0.000000,0.000000,0.000000,0.000000,0.276803,0.282937,0.088074,0.401225,0.000000,198.000000,189.000000,9.000000,41.000000,0.000000,0.000000,0.000000,0.000000,0.000000;
#CREDIT:;
#OFFSET:-0.159540;
#BPMS:0.000000=154.000000
,27.000000=308.000000
,33.000000=154.000000
;
#STOPS:204.000000=0.390000
;
#DELAYS:;
#WARPS:;
#TIMESIGNATURES:0.000000=4=4
;
#TICKCOUNTS:0.000000=4
;
#COMBOS:0.000000=1
;
#SPEEDS:0.000000=1.000000=0.000000=0
;
#SCROLLS:0.000000=1.000000
;
#FAKES:;
#LABELS:0.000000=Song Start
;
#DISPLAYBPM:154.000000;
#NOTES:
0000
0000
0000
0000
,
0000
0000
0000
0000
,
0000
0000
0000
0000
,
0000
0000
0000
0000
,
1000
1000
0010
0100
,
0001
0001
0010
0100
,
2000
0000
0000
0002
,
0000
0000
0000
0000
,
0000
3003
1000
0010
,
0100
0000
0010
1000
,
0010
1000
0002
0023
,
0032
0003
0002
0203
,
0320
1030
0001
0010
,
0100
0000
0010
0001
,
0010
0001
2000
3020
,
2030
3000
2000
3200
,
0310
0100
2002
3003
,
0220
0330
0001
0100
,
0010
0100
0001
0000
,
0001
0000
0100
0001
,
0100
0010
1000
0000
,
1000
0000
0100
1000
,
0100
0010
0001
0000
,
1000
0000
0001
0100
,
0010
1000
0100
0000
,
0100
0000
0010
0100
,
1000
0001
0200
0000
,
0320
0000
1030
0010
,
0001
0010
1010
0000
,
0011
0000
1000
1000
,
0001
1000
0200
0000
,
0320
0000
0031
0010
,
1000
0010
0001
0001
,
1000
1000
0020
0000
,
0030
0110
1000
0010
,
0010
0000
1000
0010
,
0010
0000
1000
0010
,
1000
0100
0020
0000
,
0031
1000
0001
0100
,
0100
0000
0001
0100
,
0100
0000
0010
0100
,
0001
1000
2002
0000
,
3003
1001
0001
0010
,
0010
0000
0001
0010
,
0010
0000
0001
0010
,
0001
0100
0020
0000
,
1030
0001
1000
0100
,
0100
0000
1000
0100
,
0100
0000
0010
0001
,
0100
0010
0220
0000
,
0330
0110
2000
0000
,
3001
0001
0010
0100
,
0000
0010
0001
0100
,
0010
2000
3002
2003
,
3000
2000
3200
0320
,
0031
1000
0010
0100
,
0000
0010
1000
0100
,
0010
0002
2003
3002
,
0003
0002
0203
0310
,
0100
0001
0001
0010
,
0100
1000
1000
0010
,
0100
0001
0010
0100
,
1000
0010
0100
0001
,
1000
0200
0000
0000
,
0000
0300
0000
0000
;

//---------------dance-single - ----------------
#NOTEDATA:;
#CHARTNAME:;
#STEPSTYPE:dance-single;
#DESCRIPTION:;
#CHARTSTYLE:;
#DIFFICULTY:Medium;
#METER:9;
#RADARVALUES:0.395633,0.440124,0.137004,0.489299,0.102753,283.000000,269.000000,14.000000,50.000000,0.000000,0.000000,0.000000,0.000000,0.000000,0.395633,0.440124,0.137004,0.489299,0.102753,283.000000,269.000000,14.000000,50.000000,0.000000,0.000000,0.000000,0.000000,0.000000;
#CREDIT:;
#OFFSET:-0.159540;
#BPMS:0.000000=154.000000
,27.000000=308.000000
,33.000000=154.000000
;
#STOPS:204.000000=0.390000
;
#DELAYS:;
#WARPS:;
#TIMESIGNATURES:0.000000=4=4
;
#TICKCOUNTS:0.000000=4
;
#COMBOS:0.000000=1
;
#SPEEDS:0.000000=1.000000=0.000000=0
;
#SCROLLS:0.000000=1.000000
;
#FAKES:;
#LABELS:0.000000=Song Start
;
#DISPLAYBPM:154.000000;
#NOTES:
0000
0000
0000
0000
,
0000
0000
0000
0000
,
0000
0000
0000
0000
,
0000
0000
0000
0000
,
0001
0000
0000
0010
0000
0000
0001
0000
0000
0010
0000
0000
0001
0000
0000
0000
,
1000
0000
0000
0010
0000
0000
1000
0000
0000
0010
0000
0000
1000
0000
0000
0000
,
0002
0000
0000
2003
0000
0000
3200
0000
,
0000
0000
0000
0000
,
0000
0000
0300
0000
1000
0100
1000
0000
,
0001
0000
0001
0000
1000
0010
0100
0000
,
0010
0100
0001
0000
2000
0000
0100
0000
,
3002
0000
0100
0000
1003
0100
1000
0100
,
0010
0000
1001
0000
0001
0100
0001
0000
,
1000
0000
1000
0000
0001
0010
0100
0000
,
0010
0100
1000
0000
0002
0000
0100
0000
,
2003
0000
0000
0000
0100
0000
0000
0000
3001
0000
0000
0100
0000
0000
0010
0000
,
1000
0001
2002
3003
,
0220
0330
0001
0010
,
0100
1000
0001
0000
1000
0000
0010
1000
,
0000
0010
0000
0100
0000
0010
0000
1000
,
0001
0000
1001
0000
0001
0000
0010
0001
,
0000
0010
0000
0100
0000
0010
0001
0000
,
1000
0001
1000
0000
2000
0010
3000
0002
,
0010
0003
2000
0010
3000
0001
0000
1000
,
0100
0010
0001
0011
,
1000
1010
0002
0023
,
0230
0000
1300
0001
2000
0000
0010
0000
,
3002
0100
2003
3020
,
0230
0000
0302
0000
1003
0100
0010
0000
,
0001
0100
0010
0000
1000
0001
1000
0001
,
1000
1001
0002
0010
,
2003
0100
3002
0023
,
0230
0000
2300
0000
3010
0000
0100
0001
,
0000
0000
0010
0000
0000
0000
0100
0000
0000
0000
1000
0000
0000
0001
0000
0000
,
2002
3003
1000
0010
,
0200
0000
0000
0000
0310
0000
1000
0000
0000
0010
0000
0000
0200
0000
0000
0000
,
0010
0310
1000
0001
,
1000
0100
0010
0001
2000
0000
0001
0000
,
3010
0100
0001
0010
,
0200
0000
0000
0000
0310
0000
0001
0000
0000
0010
0000
0000
0200
0000
0000
0000
,
1000
1300
0001
0100
,
0010
0000
0000
1000
0000
0000
2002
0000
0000
0000
0000
0000
0000
0000
0000
0000
,
3003
1001
0001
0010
,
0200
0000
0000
0000
1300
0000
0010
0000
0000
0100
0000
0000
0002
0000
0000
0000
,
0010
0013
0001
1000
,
0001
0100
0010
1000
0002
0000
1000
0000
,
0013
0100
1000
0010
,
0200
0000
0000
0000
0301
0000
0010
0000
0000
0100
0000
0000
2000
0000
0000
0000
,
0010
3010
1000
0100
,
0010
0000
0000
0001
0000
0000
2002
0000
0000
0000
0000
0000
0000
0000
0000
0000
,
3003
1001
0001
0100
,
0110
0000
0001
0100
0010
0000
1000
0000
,
1000
0000
0010
1000
0100
0000
0010
0001
,
1000
0002
0100
2003
,
0100
0000
3001
0100
0001
0100
0010
0000
,
1001
0000
1000
0100
0010
0000
0001
0000
,
0001
0000
0010
0001
0100
0000
0010
1000
,
0001
2000
0100
3002
,
0100
0000
0000
0000
1003
0000
0000
0100
0000
0000
0010
0000
0001
0000
0000
0000
,
1000
0000
0000
0000
0001
0000
0000
0100
0000
0000
0001
0000
0000
0100
0000
0000
,
0010
0000
0000
0000
1000
0000
0000
0100
0000
0000
1000
0000
0000
0100
0000
0000
,
0010
0000
0000
0000
0001
0000
0000
0010
0000
0000
0001
0000
0000
0010
0000
0000
,
0100
0000
0000
0000
1000
0000
0000
0010
0000
0000
1000
0000
0000
0010
0000
0000
,
0100
0001
0020
0000
0000
0000
0000
0000
,
0000
0030
0000
0000
;

//---------------dance-single - ----------------
#NOTEDATA:;
#CHARTNAME:;
#STEPSTYPE:dance-single;
#DESCRIPTION:;
#CHARTSTYLE:;
#DIFFICULTY:Hard;
#METER:12;
#RADARVALUES:0.567587,0.660187,0.332723,0.528443,0.288686,406.000000,372.000000,34.000000,54.000000,0.000000,0.000000,0.000000,0.000000,0.000000,0.567587,0.660187,0.332723,0.528443,0.288686,406.000000,372.000000,34.000000,54.000000,0.000000,0.000000,0.000000,0.000000,0.000000;
#CREDIT:;
#OFFSET:-0.159540;
#BPMS:0.000000=154.000000
,27.000000=308.000000
,33.000000=154.000000
;
#STOPS:204.000000=0.390000
;
#DELAYS:;
#WARPS:;
#TIMESIGNATURES:0.000000=4=4
;
#TICKCOUNTS:0.000000=4
;
#COMBOS:0.000000=1
;
#SPEEDS:0.000000=1.000000=0.000000=0
;
#SCROLLS:0.000000=1.000000
;
#FAKES:;
#LABELS:0.000000=Song Start
;
#DISPLAYBPM:154.000000;
#NOTES:
// measure 0
0000
0000
0000
0000
,  // measure 1
0000
0000
0000
0000
,  // measure 2
0000
0000
0000
0000
,  // measure 3
0000
0000
0000
0000
,  // measure 4
0001
0000
0000
0010
0000
0000
0100
0000
0000
0010
0000
0000
0001
0000
0001
0000
,  // measure 5
1000
0000
0000
0010
0000
0000
0100
0000
0000
0010
0000
0000
1000
0000
1000
0000
,  // measure 6
0002
0000
0000
0023
0000
0000
0230
0000
0000
2300
0000
0000
3020
0000
0000
0000
,  // measure 7
0000
0000
0000
0000
,  // measure 8
0000
0000
0030
0000
1000
0010
1000
0010
,  // measure 9
0100
0000
0000
0010
0000
0000
1000
0000
0100
0010
0000
0100
0010
0000
0001
0000
,  // measure 10
1000
0100
0010
0001
2000
0000
0010
0000
,  // measure 11
3002
0000
0000
0010
0000
0000
2003
0000
0000
0000
3001
0000
0100
0000
0010
0000
,  // measure 12
1000
0000
1010
0000
0001
0010
0001
0010
,  // measure 13
0100
0000
0000
0010
0000
0000
0001
0000
0100
0010
0000
0100
0010
0000
1000
0000
,  // measure 14
0001
0100
0010
1000
0002
0000
0010
0000
,  // measure 15
2003
0000
0000
0010
0000
0000
3002
0000
0013
0100
0000
0100
0010
0000
0100
0000
,  // measure 16
1000
0001
2002
3003
,  // measure 17
0220
0000
0330
0001
1000
0100
0010
0001
,  // measure 18
0100
0001
0100
0010
2000
0000
3100
0020
,  // measure 19
0000
0230
0000
0302
0000
0103
0010
0100
,  // measure 20
1000
0000
1001
0000
0002
0000
0103
0020
,  // measure 21
0000
0230
0000
2300
0000
3100
0010
0100
,  // measure 22
0001
0001
1001
0000
0002
0010
0003
2000
,  // measure 23
0010
3000
0002
0010
0003
1000
0010
0100
,  // measure 24
0001
1000
0100
0010
0001
0000
0011
0001
,  // measure 25
1000
0000
1010
1000
0002
0000
0023
0000
,  // measure 26
0031
0010
0100
1000
0002
0100
0100
0000
,  // measure 27
2003
0010
0010
0000
3002
0000
0013
1000
,  // measure 28
0010
0001
0100
0000
0010
0010
1000
0001
,  // measure 29
0010
0000
0010
0000
0001
0000
1000
0000
0000
1010
0000
0000
0001
0000
0000
0011
,  // measure 30
0000
1000
0010
0100
0001
0000
2000
0100
,  // measure 31
0100
0000
3002
0010
0010
0000
1003
0001
,  // measure 32
0100
0010
1000
0000
2010
0000
3001
0010
,  // measure 33
0100
0000
1000
0000
0010
0000
0100
0000
0001
0000
0101
0000
0000
1001
0000
0000
,  // measure 34
0011
0000
0000
0000
2000
3000
0000
0000
0010
0000
1000
0000
0001
0000
1000
0000
,  // measure 35
0200
0000
0000
0000
1300
0000
0010
0000
1000
0001
0000
1000
0200
0000
0000
0000
,  // measure 36
0001
0000
0000
0010
0000
0000
1000
0000
1300
0000
0000
0000
1001
0000
0000
0000
,  // measure 37
1000
0000
0010
0000
1000
0000
0001
0000
0010
0001
0000
0010
0001
0000
1000
0000
,  // measure 38
0010
0100
0001
0000
0010
0001
1000
0001
,  // measure 39
0200
0000
0000
0000
0301
0000
0010
0000
0001
1000
0000
0001
0200
0000
0000
0000
,  // measure 40
1000
0000
0000
0010
0000
0000
0001
0000
0301
0000
0000
0000
0101
0000
0000
0000
,  // measure 41
1001
0000
0000
0011
0000
0000
0110
0000
0100
1000
0000
1000
0001
0000
1000
0000
,  // measure 42
0010
0000
0100
0000
0002
0003
0000
0000
1000
0000
0100
0000
0010
0000
0100
0000
,  // measure 43
0002
0000
0000
0000
0103
0000
0001
0000
0100
0010
0000
0100
2000
0000
0000
0000
,  // measure 44
0100
0000
0000
0001
0000
0000
0010
0000
3010
0000
0000
0000
1001
0000
0000
0000
,  // measure 45
0001
0000
0010
0000
0001
0000
1000
0000
0010
1000
0000
0010
1000
0000
0001
0000
,  // measure 46
0010
0100
1000
0000
0001
0100
0010
0100
,  // measure 47
2000
0000
0000
0000
3100
0000
1000
0000
0100
0010
0000
0100
0002
0000
0000
0000
,  // measure 48
0100
0000
0000
1000
0000
0000
0010
0000
0013
0000
0000
0000
1100
0000
0000
0000
,  // measure 49
1001
0000
0000
1010
0000
0000
0110
0000
0100
0000
0001
0000
1000
0000
0100
0000
,  // measure 50
0010
0000
0001
1000
0001
0000
0000
0000
0202
0000
0000
0000
0303
0000
0000
0000
,  // measure 51
1010
0000
0000
0000
0001
0000
0010
0000
0100
0000
1000
0000
0010
0000
0000
0100
,  // measure 52
0000
0000
0001
0000
1000
0100
0000
0010
0100
0000
0001
0000
0100
0000
1000
0000
,  // measure 53
0010
0000
0100
0000
0002
0000
0000
0000
0010
0000
0000
0000
2003
0000
0000
0010
,  // measure 54
0000
3200
0000
1300
0100
0010
0001
0000
,  // measure 55
0011
0000
0000
0000
1000
0000
0010
0000
0100
0000
0001
0000
0010
0000
0000
0100
,  // measure 56
0000
0000
1000
0000
0001
0100
0000
0010
0100
0000
1000
0000
0100
0000
0001
0000
,  // measure 57
0010
0000
0100
0000
2000
0000
0000
0000
0010
0000
0000
0000
3002
0000
0000
0010
,  // measure 58
0000
0000
0203
0000
0310
0100
0000
0100
0010
0000
0100
0000
0001
0000
0000
0000
,  // measure 59
1001
0000
0000
0000
1000
0000
0000
0100
0000
0000
0010
0000
0000
0100
0000
0000
,  // measure 60
1000
0000
1100
0000
0001
0000
0000
0100
0000
0000
0010
0000
0000
0100
0000
0000
,  // measure 61
0001
0000
0101
0000
1000
0000
0000
1010
0000
0000
0001
0000
0000
0011
0000
0000
,  // measure 62
1000
0000
1001
0000
0001
0000
0000
0100
0010
0000
0100
0010
0000
1000
0001
0000
,  // measure 63
0010
0110
2002
0000
0000
0000
0000
0000
,  // measure 64
0000
3003
0000
0000
;

//---------------dance-single - ----------------
#NOTEDATA:;
#CHARTNAME:;
#STEPSTYPE:dance-single;
#DESCRIPTION:;
#CHARTSTYLE:;
#DIFFICULTY:Challenge;
#METER:15;
#RADARVALUES:0.837400,0.911686,0.479513,0.322937,0.905203,599.000000,550.000000,49.000000,33.000000,0.000000,0.000000,0.000000,0.000000,0.000000,0.837400,0.911686,0.479513,0.322937,0.905203,599.000000,550.000000,49.000000,33.000000,0.000000,0.000000,0.000000,0.000000,0.000000;
#CREDIT:;
#OFFSET:-0.159540;
#BPMS:0.000000=154.000000
,27.000000=308.000000
,33.000000=154.000000
;
#STOPS:204.000000=0.390000
;
#DELAYS:;
#WARPS:;
#TIMESIGNATURES:0.000000=4=4
;
#TICKCOUNTS:0.000000=4
;
#COMBOS:0.000000=1
;
#SPEEDS:0.000000=1.000000=0.000000=0
;
#SCROLLS:0.000000=1.000000
;
#FAKES:;
#LABELS:0.000000=Song Start
;
#DISPLAYBPM:154.000000;
#NOTES:
// measure 0
0000
0000
0000
0000
,  // measure 1
0000
0000
0000
0000
,  // measure 2
0000
0000
0000
0000
,  // measure 3
0000
0000
0000
0000
,  // measure 4
0001
0010
0000
0010
0100
0000
0100
0010
0000
0010
0001
0000
0011
0000
1001
0000
,  // measure 5
1000
0010
0000
0010
0100
0000
0100
0010
0000
0010
1000
0000
1010
0000
1001
0000
,  // measure 6
0011
0000
0000
1001
0000
0000
1010
0000
0000
1100
0000
0000
0220
0000
0000
0000
,  // measure 7
0000
0000
0000
0000
,  // measure 8
0000
0000
0000
0000
0330
0000
0000
0000
0001
0010
0001
0010
0100
1000
0000
0001
,  // measure 9
0100
0000
0010
1000
0000
0010
1000
0001
1000
0100
0000
0010
0001
0000
1000
0100
,  // measure 10
0000
0010
0001
0000
1000
0010
0100
0010
2000
0000
0000
0000
0010
0000
0000
0000
,  // measure 11
3002
0000
0000
0010
0000
0000
2003
0000
0000
0000
3010
1000
0100
0000
1000
0100
,  // measure 12
0010
0000
0001
0000
0011
0000
0000
0000
1000
0010
1000
0010
0100
0001
0000
1000
,  // measure 13
0100
0000
0010
0001
0000
0010
0001
1000
0001
0100
0000
0010
1000
0000
0001
0100
,  // measure 14
0000
0010
1000
0000
0001
0010
0100
0010
0002
0000
0000
0000
0010
0000
0000
0000
,  // measure 15
2003
0000
0000
0010
0000
0000
3002
0000
0013
0100
0000
0100
1000
0000
1000
0001
,  // measure 16
1000
0010
0100
0001
1000
0100
0020
0000
0000
0000
0000
0000
,  // measure 17
0032
0000
0000
0000
0000
0000
1003
0001
0100
0000
0010
1000
0010
1000
0010
1000
,  // measure 18
0001
0000
0010
0100
1000
0010
0100
0001
1000
0000
0100
0000
1000
0000
1000
0000
,  // measure 19
0100
0010
0100
0001
0100
1000
0001
0100
,  // measure 20
0010
1000
1010
0000
0001
0100
0001
0001
,  // measure 21
0100
0000
0010
0000
0100
0000
1000
0000
0100
0000
0001
0000
1000
0000
0100
0010
,  // measure 22
0001
0011
0101
0000
1002
0013
0001
2001
,  // measure 23
3010
1000
1002
0013
0001
1000
0010
0100
,  // measure 24
0001
1000
0100
0010
0001
0000
0011
1000
,  // measure 25
0010
0000
0000
0000
1010
0000
0001
0000
0010
0100
0010
0100
1000
0001
0010
0100
,  // measure 26
1000
0001
1000
0010
0100
0001
0100
0001
2000
0000
0100
0000
3100
0000
0010
0000
,  // measure 27
0002
0100
0103
0010
1000
0010
0100
0010
,  // measure 28
0001
0000
0010
0000
0100
0000
0010
0000
2010
0000
3001
0000
1000
0100
0010
0000
,  // measure 29
0012
0000
1003
0000
0001
0100
0010
0000
0000
1010
0000
0000
1100
0000
0000
0011
,  // measure 30
0000
1001
0001
0100
0001
0010
1000
0010
,  // measure 31
0001
0100
1000
0100
0002
0010
0013
0001
,  // measure 32
2000
0000
0010
0000
3010
0000
1000
0100
0020
0000
0000
0000
0130
0010
0100
0010
,  // measure 33
0001
1000
0001
1000
0010
0100
0001
1000
0100
0000
0110
0000
0000
0011
0000
0000
,  // measure 34
1001
0000
0001
0100
0020
0030
0000
0000
1000
0000
0001
0000
0010
0000
0001
0000
,  // measure 35
0100
0000
0001
0100
0001
0000
1000
0000
0001
0010
0000
0001
0100
0010
0100
0010
,  // measure 36
1000
0000
0000
1001
0000
0000
1001
0000
0001
1000
0010
1000
0200
0000
0010
0000
,  // measure 37
1300
0000
1000
0000
0010
0000
0100
0000
0001
1000
0000
0001
0010
0000
0100
1000
,  // measure 38
0010
0100
0001
0000
1000
0100
0010
0000
0001
0000
1000
0000
0010
0000
1000
0000
,  // measure 39
0100
0000
1000
0100
1000
0000
0001
0000
1000
0010
0000
1000
0100
0010
0100
0010
,  // measure 40
0001
0000
0000
0110
0000
0000
1001
0000
1000
0010
0100
0001
2000
0000
0001
0000
,  // measure 41
3100
0000
0000
0011
0000
0000
1001
0000
1000
0010
0000
0010
0100
0000
0001
0010
,  // measure 42
0100
1000
0010
0100
0002
0003
0000
0000
0001
0000
0010
0000
1000
0000
0010
0000
,  // measure 43
0100
0000
0010
0100
0010
0000
0001
0000
0100
1000
0000
0100
0010
0100
0010
0100
,  // measure 44
0001
0000
0000
1001
0000
0000
1001
0000
1000
0001
0010
0001
0200
0000
0010
0000
,  // measure 45
0301
0000
0001
0000
0010
0000
0100
0000
1000
0001
0000
1000
0010
0000
0100
0001
,  // measure 46
0010
0100
1000
0000
0001
0100
0010
0000
1000
0000
0010
0000
0001
0000
0010
0000
,  // measure 47
0100
0000
0010
0100
0010
0000
1000
0000
0100
0001
0000
0100
0010
0100
0010
0100
,  // measure 48
1000
0000
0000
0110
0000
0000
1001
0000
0001
0010
0100
1000
0002
0000
1000
0000
,  // measure 49
0103
0000
0000
1010
0000
0000
1001
0000
1100
0000
1000
0100
0010
0100
0010
0100
,  // measure 50
0010
0001
0100
0010
1000
0000
0000
0000
1010
0000
0000
0000
0001
0000
0000
0000
,  // measure 51
0011
0000
0000
0000
1000
0010
0100
0001
1000
0100
0000
0010
0001
0000
0100
0010
,  // measure 52
0000
1000
0001
1000
0100
0010
0000
0100
0001
0000
0100
0010
0000
0100
1000
0000
,  // measure 53
0001
0100
0010
0100
0002
0000
0000
0000
0010
0000
0000
0000
2003
0000
0000
0010
,  // measure 54
0000
0000
3200
0000
0000
0000
0310
0001
0100
0000
0001
0100
0010
0000
1000
0000
,  // measure 55
1010
0000
0000
0000
0001
0010
0100
1000
0001
0100
0000
0010
1000
0000
0100
0010
,  // measure 56
0000
0001
1000
0001
0100
0010
0000
0100
1000
0000
0100
0010
0000
0100
0001
0000
,  // measure 57
1000
0100
0010
0100
2000
0000
0000
0000
0010
0000
0000
0000
3002
0000
0000
0010
,  // measure 58
0000
0000
0000
0000
0000
0000
0203
0000
0000
0000
0000
0000
0310
0000
0000
1000
0000
0000
0000
0000
0000
1000
0000
0000
0100
0000
0000
0000
0000
0000
0010
0000
0000
0001
0000
0000
1000
0000
0000
0000
0010
0000
0000
0000
0100
0000
0000
0000
,  // measure 59
0001
0000
0000
0000
1000
0100
0000
0100
0010
0000
0010
0001
0000
0001
0100
0000
,  // measure 60
0101
0000
1010
0000
0001
0100
0000
0100
0010
0000
0010
1000
0000
1000
0100
0000
,  // measure 61
1100
0000
0011
0000
1000
0010
0000
0100
0001
0000
1000
0100
0000
0010
0001
0000
,  // measure 62
0110
0000
1001
0000
1000
0010
1000
0001
0010
0001
1000
0100
1000
0001
0100
0001
,  // measure 63
1000
0100
1000
0100
0020
0000
0000
0000
0000
0000
0000
0000
0000
0000
0000
0000
,  // measure 64
0000
0030
0000
0000
;
