#VERSION:0.83;
#TITLE:Cross Fire;
#SUBTITLE:;
#ARTIST:Hommarju vs RoughSketch;
#TITLETRANSLIT:;
#SUBTITLETRANSLIT:;
#ARTISTTRANSLIT:;
#GENRE:CROSSOVER;
#CREDIT:;
#MUSIC:Cross Fire.ogg;
#BANNER:Cross Fire.png;
#BACKGROUND:Cross Fire-bg.png;
#CDTITLE:./CDTitles/SDVX III GRAVITY WARS.png;
#SAMPLESTART:86.653;
#SAMPLELENGTH:15.000;
#SELECTABLE:YES;
#OFFSET:0.000;
#BPMS:0.000=180.000
,66.000=90.000
,81.000=180.000
,177.000=90.000
,191.000=180.000
,288.000=90.000
,289.000=180.000
;
#STOPS:32.000=0.667
,111.000=0.667
,223.000=0.667
,263.000=0.333
,289.000=0.667
;
#TIMESIGNATURES:0.000=4=4,
32.000=2=4,
34.000=4=4,
78.000=5=4,
83.000=4=4,
111.000=2=4,
113.000=4=4,
189.000=6=4,
195.000=4=4,
223.000=2=4,
225.000=4=4,
261.000=3=4,
264.000=4=4,
288.000=5=4,
293.000=4=4
;
#BGCHANGES:0.000=../BGAs/27hv.mp4=1.000=0=0=0=StretchNoLoop====,
99999.000=-nosongbg-=1.000=0=0=0=StretchNoLoop====
;
#FGCHANGES:;

//--------------- dance-single - forcednature ----------------
#NOTEDATA:;
#STEPSTYPE:dance-single;
#DESCRIPTION:forcednature;
#DIFFICULTY:Beginner;
#METER:5;
#RADARVALUES:0,0,0,0,0;
#CREDIT:forcednature;
#NOTES:
0000
0000
0000
0000
,
0000
0000
0000
0000
,
0000
0000
0000
0000
,
0000
0000
0000
0000
,
0000
0000
0000
0000
,
0001
0000
0001
0000
,
1000
0000
1000
0000
,
0001
0000
1000
0000
,
1001
0000
1000
0000
,
0000
0000
0100
0000
,
0000
0000
0010
0000
,
0000
0000
0001
0001
,
1000
0000
0001
0000
,
0000
0000
0100
0000
,
0000
0000
0010
0000
,
0000
0000
1000
1000
,
0001
0000
2002
0000
,
3003
0000
0002
0000
,
0003
0000
0020
0000
,
0030
0000
0200
0300
,
2000
3000
0000
1001
,
0000
0000
0000
0001
,
0000
0001
0000
0100
,
0000
0100
0000
0010
,
0000
0010
0000
1000
,
0000
0001
0000
1000
,
0000
0001
0000
0020
,
0030
0200
0300
0000
,
0000
1000
1000
1000
,
0000
1000
0000
1000
,
0000
0001
0001
0001
,
0000
0100
0100
0010
,
0000
0010
0010
0010
,
0000
1000
0000
0001
,
0000
0010
0010
0010
,
0000
0200
0000
0000
,
0000
0300
0000
1001
,
0000
1000
1000
1000
,
0000
0001
0001
0001
,
0000
0100
0000
0010
,
0000
0110
0000
0001
,
0001
0001
0000
1000
,
1000
1000
0000
0010
,
0000
2002
0000
0000
,
0000
3003
0000
0001
,
0000
0010
0000
0100
,
0000
1000
0000
0001
,
0000
0200
0000
0300
,
0000
0000
0000
0001
,
0001
0001
0000
0010
,
0010
0010
0000
0100
,
0100
0100
0000
1000
,
1000
1000
0000
0001
,
0000
0010
0000
0100
,
0000
1000
0000
0001
,
0010
0100
1000
0001
,
0000
1001
0000
1000
,
1000
0010
0000
1000
,
1000
0001
0000
1000
,
1000
0100
0000
0110
,
0000
1001
0000
0001
,
0001
0010
0000
0001
,
0001
1000
0000
0001
,
0001
0200
0000
0300
,
0000
0010
0010
0100
,
0100
0000
0001
1000
,
1001
0000
0110
0000
,
1000
1000
2000
3000
,
0001
0010
0001
0000
,
1000
0010
1000
0000
,
0010
0010
0100
0100
,
0020
0000
0030
0000
,
2002
3003
0000
0000
,
0000
1000
1000
0001
,
0001
1000
0001
0100
,
0000
0010
0010
0100
,
0100
0001
0010
0100
,
1000
0002
0000
0000
,
0000
0003
0000
0000
;

//--------------- dance-single - forcednature ----------------
#NOTEDATA:;
#STEPSTYPE:dance-single;
#DESCRIPTION:forcednature;
#DIFFICULTY:Easy;
#METER:9;
#RADARVALUES:0,0,0,0,0;
#CREDIT:forcednature;
#NOTES:
0000
0000
0000
0000
,
0000
0000
0000
0000
,
0000
0000
0000
0000
,
0000
0000
0000
0000
,
0000
0000
0000
0000
,
0001
0001
1000
1000
,
0001
0010
0100
1000
,
0020
0230
0320
0130
,
2002
3003
0000
0000
0000
0000
0000
0000
1000
0000
0000
0000
0100
0000
0000
0000
,
1000
0001
0010
0100
,
0010
0001
1000
0010
,
0100
0010
1000
0001
,
0010
0100
1000
0000
0001
0000
0100
0000
,
0010
0100
0001
1000
,
0010
1000
0001
0010
,
0100
0000
0000
0000
0010
0000
0000
0000
0001
0000
0000
0001
0000
0000
0001
0000
,
0000
0001
1000
0000
2002
0000
3003
0000
,
1000
0010
0220
0330
,
0100
0000
0000
0000
0000
0000
0000
0000
0001
0000
0000
0001
0000
0000
0001
0000
0000
0000
0000
0000
2002
0000
0000
0000
0000
0000
0000
0000
3003
0000
0000
0000
,
0000
0002
0023
0230
,
1300
0000
0000
1000
0000
0000
2000
0000
0000
0000
0000
0000
0000
0000
0000
0000
3000
0000
0000
0000
0000
0000
0000
0000
0001
0000
0000
0000
0000
0000
0000
0000
,
0100
0001
0100
0010
,
1000
0010
1000
0001
,
0010
0100
1000
0010
,
0100
0000
0001
0000
1000
0000
0002
0003
,
0002
0003
0020
0030
0020
0030
0200
0300
,
0200
0300
2000
3000
2000
3000
0002
0003
,
0020
0030
0200
0300
2000
3000
0000
0000
,
0000
1001
1001
1001
,
0000
0110
0110
0110
,
0000
1001
0100
1001
,
0100
0000
0110
0000
0110
0000
0002
0003
,
2000
3000
1100
0000
1100
0000
1100
0000
,
0000
0011
0011
0011
,
0000
1010
0001
0011
,
1000
2002
0000
0000
,
0000
0000
3003
0000
0000
0000
0100
0100
,
0100
0110
0110
0001
,
1000
1001
1001
1000
,
0010
0101
0101
0001
,
0020
0130
1100
2000
,
3010
0100
0101
0002
,
0013
0110
1001
0100
,
0010
2002
0000
0000
,
3003
2000
0000
3020
,
0230
0302
0023
0230
,
2300
3002
0000
0203
,
0320
2030
3001
2002
,
0000
0000
0000
3003
0000
0000
1000
1000
,
1000
0000
2000
0000
3000
0000
0001
0001
,
0001
0000
0002
0000
0003
0000
0100
0100
,
0100
0000
0200
0000
0300
0000
0010
0010
,
0010
0000
0020
0000
0030
0000
2000
3000
,
2000
3000
0200
0300
0200
0300
0020
0030
,
0020
0030
0002
0003
0002
0003
2000
3000
,
0200
0000
0300
0000
0020
0000
0030
0000
0002
0000
0003
0000
2002
3003
0000
0000
,
0000
0000
1000
0100
1000
0100
1000
0000
,
0010
0000
0100
0001
0100
0001
0100
0000
,
0010
1001
0100
0110
,
0010
1001
0010
0220
,
0330
0000
0001
0100
0001
0100
0001
0000
,
0010
0000
0100
1000
0100
1000
0100
0000
,
0010
1001
0010
0110
,
0100
0000
0000
0000
1000
0000
0000
1000
0000
0000
1000
0000
0000
0000
0000
0000
,
0002
0000
1003
1000
0000
0001
0001
0000
,
0100
0000
0100
0000
0000
0000
0010
0000
0010
0000
0000
0000
2002
3003
0000
0000
,
0001
0000
1000
0000
0001
0000
0000
0000
0010
0000
0000
0010
0000
0000
0010
0000
,
0000
0000
0220
0000
0000
0000
0000
0000
0000
0000
0000
0330
0000
0000
0000
0000
,
1000
0001
1000
0001
1000
0001
0000
0000
,
0100
0100
0100
0100
0100
0100
0000
0000
,
0101
1000
1100
0001
,
2002
3003
0010
0100
,
0220
0330
0000
0000
,
0000
0000
0001
0001
0001
0000
1000
1000
,
1000
0000
0002
0003
0020
0030
0200
0300
,
2000
3000
0010
0010
0010
0000
0100
0100
,
0100
0002
0023
2030
,
3020
0032
0000
0000
,
0000
0003
0000
0000
;

//--------------- dance-single - forcednature ----------------
#NOTEDATA:;
#STEPSTYPE:dance-single;
#DESCRIPTION:forcednature;
#DIFFICULTY:Medium;
#METER:12;
#RADARVALUES:0,0,0,0,0;
#CREDIT:forcednature;
#NOTES:
0000
0000
0000
0000
,
0000
0000
0000
0000
,
0000
0000
0000
0000
,
0000
0000
0000
0000
,
0000
0000
0000
0000
,
1000
0100
0001
0100
,
1000
0010
0001
0010
,
1000
0001
1000
0100
0010
0001
1000
0000
,
2002
3003
0000
0000
0000
0000
0000
0000
0001
0000
0100
0000
0001
0000
0200
0000
,
0000
1300
0100
0010
1000
0001
1000
0002
,
0000
0013
0100
1000
0010
0100
0010
0200
,
0000
0301
1000
0100
0010
0001
0010
0000
,
0011
0000
1100
0000
0001
1000
0001
2000
,
0000
3010
0100
1000
0100
0001
0100
0002
,
0000
1003
0100
0010
0001
1000
0001
2000
,
0000
0000
3010
0000
0100
0000
0001
0000
0010
0000
0000
0010
0000
0000
0010
0000
,
0000
0001
1000
0000
2002
0000
3003
0000
,
1000
0100
0010
0001
2000
0000
3000
0000
,
0001
0000
0000
0000
0100
0000
0000
0000
0010
0000
0000
0010
0000
0000
0010
0000
0000
0000
0000
0000
2002
0000
0000
0000
0000
0000
0000
0000
3003
0000
0000
0000
,
0001
0010
0100
1000
0002
0203
0320
2030
,
3010
0000
0000
0010
0000
0000
0020
0000
0000
0000
0000
0000
0000
0000
0000
0000
0030
0000
0000
0000
0000
0000
0000
0000
1000
0000
0000
0000
0000
0000
0000
0000
,
0100
0001
0100
1000
,
0010
0001
0010
1000
,
0100
0010
0001
0100
,
1000
0000
0100
0000
0001
0000
0010
0001
,
0010
0000
0100
1000
0100
0000
1000
0001
,
1000
0000
0010
0100
0010
0000
1000
0100
,
0010
0001
1000
0010
0100
0001
0000
0000
,
0000
0000
1000
1000
1000
0001
0001
0001
,
1000
0001
0100
0010
0100
0001
0010
0100
,
2000
0000
3010
0010
0010
0100
0100
0100
,
0010
1000
0100
0001
0100
1000
0100
0010
,
0100
0010
0001
0001
0001
1000
1000
1000
,
0001
0100
0010
1000
0010
1000
0100
0010
,
0002
0000
0103
0100
0010
0010
1000
1000
,
0001
0000
0010
0000
0000
0000
0001
0100
0001
0000
0000
0000
1000
0100
1000
0000
,
0000
0000
0010
0000
0200
0300
0000
0000
0200
0300
0000
0000
0001
0000
1000
0001
,
2000
0000
3001
0001
0001
0010
0100
1000
,
0020
0000
0130
0100
0100
0001
0100
0010
,
1000
0000
1100
0000
0011
0000
0001
1000
,
0002
0000
0103
0100
0100
0000
1000
0100
,
0002
0000
0000
0000
0013
0000
0010
0000
0010
0000
0000
0000
0100
0000
0000
0100
,
0000
1000
0001
1000
0001
0100
0000
0001
,
0010
0100
2000
0000
0001
0000
3002
0000
,
0103
2002
3003
2000
,
3200
0000
0310
0001
0010
0100
2000
0000
,
3001
0001
0002
0000
0100
0000
2003
0000
,
0100
0000
3002
0023
0230
2300
3200
0000
,
0000
0000
0000
0000
0000
0000
0300
0000
0000
0000
0000
0000
1000
0000
0000
0010
,
0000
0010
0000
0100
0000
0100
0000
0000
0000
0000
0000
0000
0001
0000
0000
0010
,
0000
0010
0000
0100
0000
0100
0000
0000
0000
0000
0000
0000
1000
0000
0000
0001
,
0000
0100
0000
1000
0000
0100
0000
0000
0000
0000
0000
0000
0001
0000
0000
1000
,
0000
0100
0000
0001
0000
0100
0000
0000
0000
0000
0000
0000
1000
0000
0000
0010
,
0000
0010
0000
0000
0100
0000
0000
0001
0000
0001
0000
0000
0010
0000
0000
0100
,
0000
1000
0000
0000
0001
0000
0000
0100
0000
0010
0000
0000
1000
0000
0001
0000
,
1000
0000
0001
0000
1000
0000
0100
0000
0010
0000
0001
0000
2002
3003
0000
0000
,
0000
0000
1000
0010
1000
0010
0100
0001
,
0010
0100
1000
0001
1000
0001
0100
0010
,
1000
0100
0001
0100
1000
0100
0010
0001
,
0100
0010
1000
0010
0001
0010
1000
0001
,
0010
0100
1000
0001
1000
0001
0100
0010
,
0001
0010
1000
0010
1000
0010
0100
0001
,
0010
0100
1000
0100
1000
0100
0001
0100
,
1000
0000
0100
0000
0010
0000
0000
0010
0000
0000
0010
0000
0000
0000
0001
0000
,
2000
0000
0000
0000
3001
0000
1000
0010
1000
0000
0000
0000
0001
0010
0001
0000
,
0000
0000
0100
0000
0000
0000
0010
0000
0010
0000
0000
0000
2002
3003
0000
0000
,
0001
0000
0100
0000
1000
0000
0100
0000
0001
0000
0000
0001
0000
0000
0001
0000
,
0010
0000
0000
0100
0000
0100
0000
1000
0000
0001
0000
0200
0000
0000
0000
0000
,
0310
1000
0010
1000
0100
0001
0200
0000
,
0310
0010
0010
0001
0100
0100
0200
0000
,
0310
1000
0010
0100
0001
0010
0100
0010
,
0002
0000
0000
0100
0000
0103
0000
0001
0000
0000
0010
0000
0100
0000
1000
0000
,
2002
3003
0000
0000
,
0000
0000
1000
0010
1000
0010
0001
0010
,
0001
0010
1000
0100
0001
0100
1000
0100
,
0020
0000
0031
0001
0001
0100
0010
0010
,
1000
0001
1000
0100
0010
0001
1000
0010
,
0001
0010
2000
0000
0000
0000
0000
0000
,
0000
3000
0000
0000
;

//--------------- dance-single - forcednature ----------------
#NOTEDATA:;
#STEPSTYPE:dance-single;
#DESCRIPTION:forcednature;
#DIFFICULTY:Hard;
#METER:16;
#RADARVALUES:0,0,0,0,0;
#CREDIT:forcednature;
#NOTES:
0000
0000
0000
0000
,
0000
0000
0000
0000
,
0000
0000
0000
0000
,
0000
0000
0000
0000
,
0000
0000
0000
0000
,
0001
0100
0001
0100
0010
1000
0010
1000
,
0001
0010
0001
0010
0100
1000
0001
0100
,
0010
0100
0010
0000
1000
0001
1000
0000
0010
0100
0010
0100
0001
0100
0001
0100
,
0020
0030
0000
0000
0000
0000
0000
0000
1000
0000
0001
0000
0010
0000
0100
0000
,
0010
0000
0001
0000
0100
0001
0100
0010
1000
0000
0001
0000
0100
0000
0001
0000
,
1000
0000
0100
0000
0010
0001
1000
0001
0010
0000
0100
0000
1000
0000
0010
0000
,
0100
0000
0010
0000
1000
0001
0100
0010
1000
0000
0001
0000
0010
0000
1000
0000
,
0010
0000
0001
0000
0010
0100
0010
0100
1000
0000
0001
0000
1000
0000
0010
0000
,
0100
0000
0010
0000
1000
0001
1000
0100
0010
0000
0001
0000
0100
0000
0010
0000
,
1000
0000
0100
0000
1000
0001
0010
0001
1000
0000
0100
0000
1000
0000
0010
0000
,
0100
0000
0001
0000
0100
0010
1000
0010
0100
0000
0000
0100
0000
0000
0001
0000
,
0010
0000
0100
0000
1000
0001
1000
0010
0200
0000
0000
0000
0001
0000
0000
0000
,
0310
1000
0100
0010
0002
0000
0100
0000
,
1003
0000
0000
0000
0100
0000
0000
0000
0010
0000
0000
0010
0000
0000
0010
0000
0000
0000
0000
0000
2002
0000
0000
0000
0000
0000
3003
0000
0000
0000
0000
0000
,
0001
0100
0010
2000
3002
0023
0230
2300
,
0001
0000
0000
3001
0000
0000
2002
0000
0000
0000
0000
0000
0000
0000
0000
0000
3003
0000
0000
0000
0000
0000
0000
0000
2200
0000
0000
0000
3300
0000
0000
0000
,
2200
3300
0022
0033
0022
0033
0202
0303
,
0220
0330
2020
3030
2002
3003
0022
0033
,
0022
0033
2200
3300
2200
3300
1000
0010
,
0100
0000
0001
0000
0100
0010
0100
0010
0100
0000
0001
0000
2000
0000
3100
0000
,
2000
3100
0002
0103
2000
3100
0020
0031
,
0200
0000
0310
0000
2000
0000
3100
0000
0020
0000
0031
0000
1000
0001
1000
0001
,
1000
0001
1000
0001
0100
0010
0100
0010
0100
0010
0100
0010
0000
0000
0000
0000
,
0000
0000
0000
0000
1000
0000
0100
1000
0100
0000
0001
0000
0100
0010
0001
0000
,
0100
0001
0100
0000
0001
1000
0000
1000
0001
0000
0010
0000
1000
0000
0010
0000
,
0001
0010
0100
1000
0001
0000
0100
0001
0100
0000
1000
0000
0100
0010
1000
0000
,
0001
1000
0001
0010
0200
0000
2300
0000
3020
0000
0032
0000
2003
0000
3200
0000
,
0302
0000
0023
0000
0130
0000
1000
0001
0100
0000
1000
0000
0100
0010
0100
0000
,
0002
0000
0023
0000
0130
1000
0100
0010
0100
0000
1000
0000
0010
0100
0001
0000
,
0202
0000
0303
0000
1000
0000
0010
0000
0100
0010
0100
0000
0001
0010
0100
0000
,
1000
0010
0100
0000
0001
1000
0001
1000
0100
0000
1000
0001
1000
0001
0100
0000
,
0010
1000
0001
0000
0200
0300
0000
0000
0020
0030
0000
0000
0110
0000
0110
0000
,
0002
0000
2003
0000
3001
0010
0100
0000
1000
0000
0100
0000
0001
0100
1000
0000
,
0020
0000
0000
0000
0130
0001
0100
0001
1000
0000
0100
0000
0110
0000
0110
0000
,
2002
0000
3003
0000
0001
0010
0100
0000
1000
0010
0100
0000
0001
0000
0100
0010
,
2000
0000
0000
0000
3100
0010
0100
0010
0100
0000
0001
0000
0200
0000
2300
0000
,
3020
0000
0000
0030
1000
0001
0100
0000
1000
0000
0100
0010
0100
0000
0001
0010
,
0000
0100
1000
0000
0001
0000
0100
0000
0010
1000
0010
0100
0000
0001
0010
0000
,
0100
1000
0001
0000
0200
0000
0300
0000
0020
0000
0030
0000
1000
0001
0010
0100
,
1000
2002
3000
0203
,
0320
2030
3002
0000
0023
0000
0230
0000
,
2300
0000
0000
0000
3001
0100
0001
0100
0010
1000
0010
1000
0001
0010
0001
0010
,
1000
0010
0001
0100
0010
1000
0010
0100
1000
0100
0001
0010
0200
0000
0000
0000
,
0000
0000
0000
0000
0000
0000
0300
0000
0000
0000
0000
0000
1000
0000
1000
0010
,
0000
0001
0000
0010
0000
1000
0010
0000
0200
0000
0000
0300
0001
0000
0001
0010
,
0000
1000
0000
0010
0000
0001
0010
0000
0200
0000
0000
0300
0001
0000
0001
0100
,
0000
1000
0000
0010
0000
0001
0010
0000
0200
0000
0000
0300
1000
0000
1000
0100
,
0000
0001
0000
0010
0000
1000
0010
0000
0002
0000
0000
0003
1000
0000
0010
1000
,
0000
0010
0000
0010
0100
0000
0001
0010
0000
0100
0000
0100
1000
0000
0001
0100
,
0000
0001
0000
1000
0100
0000
0010
0001
0000
0100
0000
0010
2000
0000
3200
0000
,
0320
0000
0032
0000
1003
0100
0010
0001
1000
0010
0100
0001
0200
0300
0000
0000
,
0000
0000
0000
0000
0001
0000
1000
0100
1000
0001
1000
0100
0000
0010
0001
0000
,
1000
0000
0010
0000
1000
0000
0001
0100
0001
1000
0001
0100
0000
0010
1000
0000
,
0001
1000
0001
0000
0100
0000
1000
0100
0000
0001
0000
0010
0000
0100
1000
0100
,
1000
0000
0001
0000
0010
0000
1000
0010
0000
0001
0000
0100
0000
0010
1000
0000
,
0010
0100
0010
0100
0001
0000
1000
0010
1000
0001
1000
0010
0000
0100
0001
0000
,
0010
0000
0100
0000
1000
0000
0001
0010
0001
1000
0001
0010
0000
0100
1000
0000
,
0010
1000
0010
0000
0100
0000
0001
0100
0000
1000
0000
0100
0000
0001
0010
0000
,
0100
1000
0100
0010
0001
0000
0000
0011
0000
0000
1100
0000
0000
1000
0001
0000
,
0200
0000
0000
0000
0310
1000
0010
1000
0100
0000
0010
0001
0010
0001
0100
0000
,
0010
1000
0100
0000
0000
0000
0110
0000
0110
0000
0000
0000
2002
3003
0000
0000
,
1000
0000
0010
0000
0001
0000
0010
0000
1010
0000
0000
0110
0000
0000
0101
0000
,
0001
0000
0001
0010
0000
1000
0000
0001
0000
0100
0000
2000
0000
0000
0000
3000
,
0010
0000
0100
0000
0110
0000
0010
0000
1001
0000
0001
0000
0200
0000
0000
0300
,
0001
1000
0001
1000
0100
1000
0100
1000
0001
0100
0001
1000
0020
0000
0000
0000
,
0130
0000
0001
0010
0000
0100
1000
0100
0010
0000
0001
1000
0000
0010
0100
0001
,
0200
0000
0000
1300
0000
0100
0000
0001
0000
0010
0100
1000
0100
0000
0010
0000
,
2002
3003
0000
0000
,
0000
0000
0000
0000
1000
0100
0010
0000
0001
0100
0010
0000
1000
0001
1000
0001
,
1000
0000
0010
0000
0110
0000
0110
0000
0000
0000
0001
1000
0001
0010
0100
1000
,
0200
0000
0000
0000
0310
0001
0010
0001
0010
0000
0100
0000
1000
0010
0100
0001
,
0200
0000
0320
0000
1030
0001
1000
0100
0010
0001
1000
0001
0100
0010
0100
0010
,
1000
0001
2002
0000
0000
0000
0000
0000
,
0000
3003
0000
0000
;

//--------------- dance-double - forcednature ----------------
#NOTEDATA:;
#STEPSTYPE:dance-double;
#DESCRIPTION:forcednature;
#DIFFICULTY:Easy;
#METER:9;
#RADARVALUES:0,0,0,0,0;
#CREDIT:forcednature;
#NOTES:
00000000
00000000
00000000
00000000
,
00000000
00000000
00000000
00000000
,
00000000
00000000
00000000
00000000
,
00000000
00000000
00000000
00000000
,
00000000
00000000
00000000
00000000
,
00010000
00010000
00001000
00001000
,
00010000
00100000
10000000
01000000
,
00200000
02300000
03200000
00301000
,
00022000
00033000
00000000
00000000
00000000
00000000
00000000
00000000
00001000
00000000
00000000
00000000
00010000
00000000
00000000
00000000
,
00000100
00010000
00000010
00001000
,
00000010
00010000
00000100
00001000
,
00000100
00000010
00000001
00000100
,
00001000
00010000
00001000
00000000
00010000
00000000
00100000
00000000
,
10000000
00100000
01000000
00010000
,
10000000
01000000
00100000
00001000
,
00000010
00000000
00000000
00000000
00000001
00000000
00000000
00000000
00000100
00000000
00000000
00000100
00000000
00000000
00000100
00000000
,
00000000
00000100
00000010
00000000
00002002
00000000
00003003
00000000
,
00000001
00000100
00002000
00003000
,
00010000
00000000
00000000
00000000
00000000
00000000
00000000
00000000
00100000
00000000
00000000
00100000
00000000
00000000
00100000
00000000
00000000
00000000
00000000
00000000
02200000
00000000
00000000
00000000
00000000
00000000
00000000
00000000
03300000
00000000
00000000
00000000
,
00000000
20000000
32000000
03020000
,
00031000
00000000
00000000
00001000
00000000
00000000
00002000
00000000
00000000
00000000
00000000
00000000
00000000
00000000
00000000
00000000
00003000
00000000
00000000
00000000
00000000
00000000
00000000
00000000
00010000
00000000
00000000
00000000
00000000
00000000
00000000
00000000
,
00000100
00010000
00001000
01000000
,
00001000
00010000
00000010
00010000
,
00001000
00100000
00001000
00010000
,
00000100
00000000
00001000
00000000
00000001
00000000
00000200
00000300
,
00000200
00000300
00002000
00003000
00002000
00003000
00020000
00030000
,
00020000
00030000
00200000
00300000
00200000
00300000
20000000
30000000
,
02000000
03000000
00200000
00300000
00020000
00030000
00000000
00000000
,
00000000
10010000
10010000
10010000
,
00000000
10000000
01000000
00010000
,
00000000
00011000
00011000
00011000
,
00000000
00000000
00001000
00000000
00000010
00000000
00000002
00000003
,
00002000
00003000
00001001
00000000
00001001
00000000
00001001
00000000
,
00000000
00000010
00000100
00001000
,
00000000
00011000
00011000
00011000
,
00100000
02000000
00000000
00100000
,
00100000
00000000
03000000
00000000
00000000
00000000
01000000
01000000
,
01000000
01100000
01100000
00010000
,
00000000
00011000
00011000
00001000
,
00000010
00000110
00000110
00000100
,
00002000
00003001
00001001
00002000
,
00003010
00010000
00011000
00002000
,
00103000
00010000
10010000
01000000
,
00100000
20020000
00000000
00000000
,
30030000
20000000
00000000
30200000
,
00320000
00032000
00003200
00000302
,
00000023
00000230
00000000
00002300
,
00003020
00020030
00031000
00022000
,
00000000
00000000
00000000
00033000
00000000
00000000
00001000
00001000
,
00001000
00000000
00002000
00000000
00003000
00000000
00010000
00010000
,
00010000
00000000
00020000
00000000
00030000
00000000
00100000
00100000
,
00100000
00000000
00200000
00000000
00300000
00000000
10000000
10000000
,
10000000
00000000
20000000
00000000
30000000
00000000
02000000
03000000
,
02000000
03000000
00020000
00030000
00020000
00030000
00002000
00003000
,
00002000
00003000
00000020
00000030
00000020
00000030
00000002
00000003
,
00000200
00000000
00000300
00000000
00000020
00000000
00000030
00000000
00002000
00000000
00003000
00000000
00002002
00003003
00000000
00000000
,
00000000
00000000
00000001
00000100
00000001
00000100
00000001
00000000
,
00000010
00000000
00000100
00001000
00000100
00001000
00000100
00000000
,
00010000
00011000
00001000
00011000
,
01000000
01100000
00100000
20020000
,
30030000
00000000
00010000
01000000
00010000
01000000
00010000
00000000
,
00100000
00000000
01000000
10000000
01000000
10000000
01000000
00000000
,
00100000
00011000
00001000
00011000
,
00000100
00000000
00000000
00000000
00001000
00000000
00000000
00001000
00000000
00000000
00001000
00000000
00000000
00000000
00000000
00000000
,
00000002
00000000
00000103
00000100
00000000
00001000
00001000
00000000
,
00010000
00000000
00010000
00000000
00000000
00000000
00100000
00000000
00100000
00000000
00000000
00000000
02200000
03300000
00000000
00000000
,
01000000
00000000
00010000
00000000
01000000
00000000
00000000
00000000
00100000
00000000
00000000
00100000
00000000
00000000
00100000
00000000
,
00000000
00000000
20020000
00000000
00000000
00000000
00000000
00000000
00000000
00000000
00000000
30030000
00000000
00000000
00000000
00000000
,
10000000
00010000
10000000
00010000
10000000
00000000
01000000
00000000
,
00010000
00001000
00010000
00001000
00010000
00000000
00001000
00000000
,
00000010
00000001
00000100
00000010
,
00000220
00000330
00001000
00010000
,
00022000
00033000
00000000
00000000
,
00000000
00000000
00010000
00010000
00010000
00000000
00100000
00100000
,
00100000
00000000
20000000
30000000
00200000
00300000
00020000
00030000
,
00002000
00003000
00010000
00010000
00010000
00000000
00001000
00001000
,
00001000
00000020
00000032
00000203
,
00002300
00023000
00000000
00000000
,
00000000
00030000
00000000
00000000
;

//--------------- dance-double - forcednature ----------------
#NOTEDATA:;
#STEPSTYPE:dance-double;
#DESCRIPTION:forcednature;
#DIFFICULTY:Medium;
#METER:13;
#RADARVALUES:0,0,0,0,0;
#CREDIT:forcednature;
#NOTES:
00000000
00000000
00000000
00000000
,
00000000
00000000
00000000
00000000
,
00000000
00000000
00000000
00000000
,
00000000
00000000
00000000
00000000
,
00000000
00000000
00000000
00000000
,
00001000
00010000
00100000
10000000
,
00100000
00010000
00001000
00000010
,
00000001
00001000
00000001
00000100
00000010
00001000
00000001
00000000
,
00002002
00003003
00000000
00000000
00000000
00000000
00000000
00000000
00001000
00000000
00000100
00000000
00001000
00000000
00000200
00000000
,
00000000
00000301
00000100
00001000
00000100
00000010
00000100
00000020
,
00000000
00000031
00000010
00000100
00010000
00001000
00010000
00002000
,
00000000
00103000
00010000
10000000
00100000
10000000
00100000
00000000
,
01010000
00000000
10100000
00000000
00010000
10000000
00010000
20000000
,
00000000
31000000
00100000
00010000
01000000
00001000
01000000
00002000
,
00000000
00013000
00000010
00001000
00000001
00000010
00000001
00000020
,
00000000
00000000
00000130
00000000
00001000
00000000
00000010
00000000
00010000
00000000
00000000
00010000
00000000
00000000
00010000
00000000
,
00000000
00001000
00010000
00000000
00022000
00000000
00033000
00000000
,
00010000
00001000
00010000
00100000
20000000
00000000
30000000
00000000
,
00010000
00000000
00000000
00000000
01000000
00000000
00000000
00000000
00100000
00000000
00000000
00100000
00000000
00000000
00100000
00000000
00000000
00000000
00000000
00000000
20020000
00000000
00000000
00000000
00000000
00000000
00000000
00000000
30030000
00000000
00000000
00000000
,
00010000
10000000
01000000
00010000
00002000
00023000
00032000
00003020
,
00000031
00000000
00000000
00000001
00000000
00000000
00000002
00000000
00000000
00000000
00000000
00000000
00000000
00000000
00000000
00000000
00000003
00000000
00000000
00000000
00000000
00000000
00000000
00000000
00001000
00000000
00000000
00000000
00000000
00000000
00000000
00000000
,
00000010
00001000
00000010
00000100
,
00000001
00000100
00000001
00001000
,
00000100
00010000
00001000
00100000
,
00010000
00000000
10000000
00000000
01000000
00000000
00100000
00010000
,
00100000
00000000
00001000
00010000
00001000
00000000
01000000
00010000
,
01000000
00000000
00001000
00010000
00001000
00000000
00000010
00000001
,
00000100
00000010
00010000
00001000
00010000
00000010
00000000
00000000
,
00000000
00000000
00001000
00001000
00001000
00000001
00000001
00000001
,
00001000
00000001
00000010
00000100
00000010
00000001
00000100
00001000
,
00020000
00000000
00031000
00001000
00001000
00010000
00010000
00010000
,
00001000
00100000
00010000
10000000
01000000
00010000
01000000
10000000
,
00010000
00100000
00001000
00001000
00001000
00010000
00010000
00010000
,
00000010
00001000
00000100
00000001
00000001
00000100
00001000
00000100
,
00000020
00000000
00000031
00000001
00001000
00001000
00000001
00000010
,
00001000
00000000
00000010
00000000
00000000
00000000
00000100
00001000
00000100
00000000
00000000
00000000
00010000
00001000
00010000
00000000
,
00000000
00000000
00000010
00000000
00002000
00003000
00000000
00000000
00000002
00000003
00000000
00000000
00001000
00000000
00000001
00001000
,
00000002
00000000
00000103
00000100
00000100
00001000
00010000
00010000
,
00002000
00000000
00013000
00010000
00010000
00100000
10000000
00100000
,
01000000
00000000
01010000
00000000
10100000
00000000
00010000
10000000
,
00020000
00000000
00130000
00100000
00100000
00000000
10000000
00100000
,
00020000
00000000
00000000
00000000
01030000
00000000
01000000
00000000
01000000
00000000
00000000
00000000
00001000
00000000
00000000
00001000
,
00000000
00010000
00000100
00001000
00000100
00000010
00000000
00000001
,
00000010
00000100
00002000
00000000
00000001
00000000
00003002
00000000
,
00000103
00002002
00003003
00000002
,
00000023
00002030
00023000
02030000
,
13000000
10000000
20000000
00000000
01000000
00000000
30020000
00000000
,
01000000
00000000
20030000
30200000
02300000
03002000
00023000
00000000
,
00000000
00000000
00000000
00000000
00000000
00000000
00030000
00000000
00000000
00000000
00000000
00000000
00000010
00000000
00000000
00000100
,
00000000
00000100
00000000
00001000
00000000
00001000
00000000
00000000
00000000
00000000
00000000
00000000
00010000
00000000
00000000
00100000
,
00000000
00100000
00000000
01000000
00000000
01000000
00000000
00000000
00000000
00000000
00000000
00000000
00010000
00000000
00000000
10000000
,
00000000
10000000
00000000
01000000
00000000
00010000
00000000
00000000
00000000
00000000
00000000
00000000
00001000
00000000
00000000
00000010
,
00000000
00000010
00000000
00000001
00000000
00000100
00000000
00000000
00000000
00000000
00000000
00000000
00000010
00000000
00000000
00001000
,
00000000
00001000
00000000
00000000
00000100
00000000
00000000
00000010
00000000
00000010
00000000
00000000
00000100
00000000
00000000
00010000
,
00000000
00001000
00000000
00000000
00100000
00000000
00000000
00001000
00000000
00010000
00000000
00000000
00000010
00000000
00001000
00000000
,
00000010
00000000
00001000
00000000
00000001
00000000
00000100
00000000
00001000
00000000
00000000
00000000
00022000
00033000
00000000
00000000
,
00000000
00000000
00010000
00100000
00010000
00100000
10000000
00100000
,
01000000
00010000
10000000
01000000
10000000
01000000
00100000
00010000
,
00100000
01000000
00010000
00001000
00001000
00010000
00000010
00000100
,
00000010
00010000
00001000
00010000
00010000
00001000
00100000
01000000
,
10000000
00100000
01000000
00010000
01000000
00010000
10000000
00100000
,
00010000
00100000
10000000
00010000
10000000
00010000
00100000
01000000
,
00100000
00001000
00010000
00001000
00010000
00000010
00001000
00000010
,
00000100
00000000
00000001
00000000
00000010
00000000
00000000
00000010
00000000
00000000
00000010
00000000
00000000
00000000
00001000
00000000
,
00020000
00000000
00000000
00000000
00030000
00000000
00001000
00100000
00001000
00000000
00000000
00000000
00010000
00001000
00010000
00000000
,
00000000
00000000
01000000
00000000
00000000
00000000
00100000
00000000
00100000
00000000
00000000
00000000
20020000
30030000
00000000
00000000
,
10000000
00000000
01000000
00000000
00010000
00000000
01000000
00000000
10000000
00000000
00000000
10000000
00000000
00000000
10000000
00000000
,
00100000
00000000
00000000
00010000
00000000
00010000
00000000
00001000
00000000
00010000
00000000
00002000
00000000
00000000
00000000
00000000
,
00003010
00000001
00000010
00000001
00000100
00001000
00000200
00000000
,
00000301
00000001
00000001
00000010
00001000
00001000
00002000
00000000
,
00013000
00000000
00000000
01000000
00000000
00000000
10000000
00000000
01000000
00000000
00100000
00000000
00010000
00000000
00100000
00000000
,
02000000
00000000
13000000
01000000
00010000
00001000
00010000
00000000
,
00022000
00033000
00000000
00000000
,
00000000
00000000
00000010
00001000
00000010
00001000
00010000
00001000
,
00010000
00001000
00000010
00000010
00000000
00000100
00000001
00000010
,
00000200
00000000
00010300
00010000
00010000
00001000
00000010
00001000
,
00010000
00001000
01000000
00100000
00010000
00001000
00010000
00010000
,
00100000
10000000
02000000
00000000
00000000
00000000
00000000
00000000
,
00000000
03000000
00000000
00000000
;

//--------------- dance-double - forcednature ----------------
#NOTEDATA:;
#STEPSTYPE:dance-double;
#DESCRIPTION:forcednature;
#DIFFICULTY:Hard;
#METER:17;
#RADARVALUES:0,0,0,0,0;
#CREDIT:forcednature;
#NOTES:
00000000
00000000
00000000
00000000
,
00000000
00000000
00000000
00000000
,
00000000
00000000
00000000
00000000
,
00000000
00000000
00000000
00000000
,
00000000
00000000
00000000
00000000
,
00001000
00010000
00001000
00010000
00001000
00000010
00000001
00000010
,
00001000
00010000
01000000
10000000
01000000
00010000
00001000
00010000
,
00000100
00001000
00000100
00000000
00000010
00000001
00000010
00000000
00000001
00001000
00000001
00001000
00000010
00000100
00000001
00000100
,
00000020
00000030
00000000
00000000
00000000
00000000
00000000
00000000
00000100
00000000
00000001
00000000
00000100
00000000
00001000
00000000
,
00010000
00000000
00001000
00000000
01000000
00010000
01000000
00100000
10000000
00000000
00010000
00000000
00100000
00000000
00010000
00000000
,
10000000
00000000
01000000
00000000
00100000
00010000
00100000
00001000
00010000
00000000
00001000
00000000
00000010
00000000
00000100
00000000
,
00000010
00000000
00000001
00000000
00001000
00000010
00000100
00000001
00000100
00000000
00000010
00000000
00001000
00000000
00010000
00000000
,
01000000
00000000
00010000
00000000
00100000
01000000
00100000
01000000
10000000
00000000
00010000
00000000
10000000
00000000
01000000
00000000
,
00010000
00000000
00001000
00000000
00100000
00010000
00100000
01000000
10000000
00000000
00010000
00000000
01000000
00000000
00100000
00000000
,
01000000
00000000
00001000
00000000
00010000
00000010
00001000
00000010
00010000
00000000
00001000
00000000
00010000
00000000
00000100
00000000
,
00000010
00000000
00000100
00000000
00001000
00000001
00000100
00000001
00001000
00000000
00000000
00001000
00000000
00000000
00000010
00000000
,
00000001
00000000
00000010
00000000
00001000
00000010
00010000
00001000
00020000
00000000
00000000
00000000
00000100
00000000
00000000
00000000
,
00031000
00000010
00001000
00010000
02000000
00000000
10000000
00000000
,
03100000
00000000
00000000
00000000
00001000
00000000
00000000
00000000
00010000
00000000
00000000
00010000
00000000
00000000
00010000
00000000
00000000
00000000
00000000
00000000
00002200
00000000
00000000
00000000
00000000
00000000
00003300
00000000
00000000
00000000
00000000
00000000
,
00000001
00000100
00000001
00000020
00002030
00023000
02030000
23000000
,
00010000
00000000
00000000
30010000
00000000
00000000
20020000
00000000
00000000
00000000
00000000
00000000
00000000
00000000
00000000
00000000
30030000
00000000
00000000
00000000
00000000
00000000
00000000
00000000
20200000
00000000
00000000
00000000
30300000
00000000
00000000
00000000
,
20200000
30300000
02020000
03030000
02020000
03030000
20000000
30000000
,
00020000
00030000
00002000
00003000
00000002
00000003
00000022
00000033
,
00000022
00000033
00002200
00003300
00002200
00003300
00000001
00001000
,
00000010
00000000
00000100
00000000
00000001
00001000
00000001
00001000
00000001
00000000
00000010
00000000
00002000
00000000
00000000
00000000
,
00200000
00300000
02000000
03000000
00020000
00030000
00000200
00000300
,
00020000
00030000
02000000
03000000
00200000
00300000
00003020
00000230
,
00000320
00000000
00000032
00000000
00000103
00000001
00000100
00000010
00001000
00000010
00010000
00001000
00000000
00000000
00000000
00000000
,
00000000
00000000
00000000
00000000
00010000
00000000
00001000
00010000
00001000
00000000
00000010
00000000
00001000
00010000
00000100
00000000
,
00001000
00000100
00010000
00000000
01000000
00000000
00100000
01000000
10000000
00000000
00100000
00000000
01000000
00000000
00100000
00000000
,
10000000
01000000
00100000
00010000
01000000
00000000
00001000
00010000
00001000
00000000
00100000
00000000
01000000
00100000
00010000
00000000
,
01000000
00010000
01000000
00100000
20000000
00000000
30200000
00000000
00320000
00000000
00032000
00000000
00003200
00000000
00000302
00000000
,
00000023
00000000
00000230
00000000
00001300
00000000
00000100
00000010
00000001
00000000
00000100
00000000
00000010
00001000
00000010
00000000
,
00000100
00000000
00001000
00000000
00010000
00001000
00010000
00001000
00100000
00000000
00001000
00000000
00000010
00000100
00000010
00000000
,
00000220
00000000
00000330
00000000
00000100
00000000
00010000
00000000
00001000
00000010
00001000
00000000
00000010
00000001
00000010
00000000
,
00000001
00000000
00000100
00000000
00001000
00010000
00001000
00010000
00000010
00000000
00010000
00001000
00010000
00001000
00100000
00000000
,
00001000
00010000
00001000
00000000
02000000
03000000
00000000
00000000
00000200
00000300
00000000
00000000
00011000
00000000
00011000
00000000
,
00002000
00000000
00023000
00000000
00031000
00100000
00001000
00000000
00010000
00000000
01000000
00000000
10000000
01000000
10000000
00000000
,
00200000
00000000
00000000
00000000
01300000
00010000
01000000
00010000
10000000
00000000
01000000
00000000
01100000
00000000
01100000
00000000
,
20000000
00000000
30020000
00000000
00130000
00001000
00100000
00000000
00010000
00100000
01000000
00000000
00020000
00000000
00032000
00000000
,
00003020
00000000
00000000
00000000
00000031
00001000
00000001
00001000
00000001
00000000
00000100
00000000
00002000
00000000
00023000
00000000
,
00230000
00000000
00000000
00300000
10000000
00010000
01000000
00000000
00100000
00000000
10000000
00100000
10000000
00000000
00010000
00100000
,
00000000
01000000
10000000
00000000
01000000
00000000
00010000
00000000
00001000
00010000
00001000
00010000
00000000
00001000
00000010
00000000
,
00000001
00000010
00000100
00000000
00002000
00000000
00003000
00000000
00000002
00000000
00000003
00000000
00001000
00000010
00010000
00001000
,
00010000
00000000
00022000
00000000
00003000
00000000
02000000
03000000
,
00032000
00003020
00000032
00000000
00002003
00000000
00023000
00000000
,
20030000
00000000
00000000
00000000
30100000
01000000
00100000
01000000
00100000
00010000
00100000
10000000
00100000
01000000
00001000
00010000
,
00000010
00000100
00000001
00001000
00000100
00000010
00000001
00000010
00001000
00010000
00001000
00000100
00000020
00000000
00000000
00000000
,
00000000
00000000
00000000
00000000
00000000
00000000
00000030
00000000
00000000
00000000
00000000
00000000
00001000
00000000
00000001
00000100
,
00000000
00001000
00000000
00001000
00000000
00010000
00100000
00000000
02000000
00000000
00000000
03000000
00010000
00000000
10000000
01000000
,
00000000
00010000
00000000
00010000
00000000
00001000
00000010
00000000
00000200
00000000
00000000
00000300
00001000
00000000
00000001
00000010
,
00000000
00001000
00000000
00001000
00000000
00010000
00100000
00000000
02000000
00000000
00000000
03000000
00010000
00000000
00010000
10000000
,
00000000
00100000
00000000
00010000
00000000
00010000
00001000
00000000
00000020
00000000
00000000
00000030
00000001
00000000
00000010
00000001
,
00000000
00000100
00000000
00000100
00000010
00000000
00001000
00000001
00000000
00001000
00000000
00001000
00000100
00000000
00010000
00001000
,
00000000
00100000
00000000
00100000
00001000
00000000
01000000
00010000
00000000
01000000
00000000
00100000
20000000
00000000
32000000
00000000
,
03200000
00000000
00320000
00000000
00032000
00000000
00003100
00000010
00000001
00000010
00000001
00001000
00000020
00000030
00000000
00000000
,
00000000
00000000
00000000
00000000
00010000
00000000
00000010
00001000
00000010
00001000
00000010
00000100
00000000
00000001
00000010
00000000
,
00000100
00000000
00010000
00000000
00001000
00000000
01000000
00010000
01000000
00010000
01000000
00100000
00000000
10000000
01000000
00000000
,
10000000
00010000
10000000
00000000
00100000
00000000
01000000
00100000
00000000
00010000
00000000
00001000
00000000
00010000
00100000
00000000
,
10000000
00100000
10000000
00000000
01000000
00000000
00100000
00010000
00000000
00001000
00000000
00000100
00000000
00001000
00000001
00000000
,
00000100
00000010
00000100
00000010
00001000
00000000
00000001
00000010
00000001
00000010
00000100
00000010
00000000
00000001
00000100
00000000
,
00000010
00001000
00000010
00000000
00010000
00000000
00001000
00100000
00001000
00100000
00010000
00100000
00000000
01000000
10000000
00000000
,
00100000
10000000
00100000
00000000
01000000
00000000
00100000
10000000
00000000
00100000
00000000
00010000
00000000
00001000
00010000
00000000
,
00001000
00000000
00000010
00000000
00000001
00000000
00000000
00000011
00000000
00000000
00001100
00000000
00000000
00001000
00000001
00000000
,
00000200
00000000
00000000
00000000
00000301
00000000
00000001
00000010
00001000
00000000
00010000
00000000
00010000
01000000
10000000
00000000
,
01000000
00100000
01000000
00000000
00000000
00000000
01100000
00000000
01100000
00000000
00000000
00000000
20020000
30030000
00000000
00000000
,
10000000
00000000
00100000
00000000
00010000
00000000
00010000
00000000
00011000
00000000
00000000
00010100
00000000
00000000
00001100
00000000
,
00000001
00000000
00000010
00001000
00000000
00010000
00000000
00100000
00000000
10000000
00000000
02000000
00000000
00000000
00000000
03000000
,
00100000
00000000
00110000
00000000
00010000
00000000
01010000
00000000
01000000
00000000
01001000
00000000
00002000
00000000
00000000
00003000
,
00010000
00001000
00010000
00001000
00010000
00000100
00001000
00000100
00010000
00001000
00010000
00000010
00002000
00000000
00000000
00000000
,
00003001
00000000
00000100
00000010
00000100
00000000
00000010
00001000
00000100
00000000
00010000
00001000
00010000
00000000
00100000
00000000
,
01100000
00000000
00000000
01000000
00000000
10000000
00000000
01000000
00000000
00010000
01000000
00001000
00010000
00000000
00000010
00000000
,
00002020
00003030
00000000
00000000
,
00000000
00000000
00000000
00000000
00000001
00000100
00000010
00000000
00001000
00000100
00000010
00000000
00000001
00001000
00000001
00001000
,
00000001
00000000
00000010
00000000
00001000
00000000
00022000
00000000
00033000
00000000
00010000
00001000
00100000
00010000
00100000
01000000
,
20000000
00000000
00000000
00000000
30100000
01000000
00100000
01000000
00100000
00000000
10000000
00000000
01000000
00100000
00010000
00100000
,
00002000
00000000
00023000
00000000
00030010
00001000
00000010
00000100
00000001
00000100
00000010
00001000
00000100
00010000
00001000
00010000
,
00001000
00100000
00022000
00000000
00000000
00000000
00000000
00000000
,
00000000
00033000
00000000
00000000
;
