#VERSION:0.83;
#TITLE:Club classics;
#SUBTITLE:;
#ARTIST:Charli xcx;
#TITLETRANSLIT:;
#SUBTITLETRANSLIT:;
#ARTISTTRANSLIT:;
#GENRE:BUBBLEGUM BASS;
#ORIGIN:;
#CREDIT:;
#BANNER:Club classics.png;
#BACKGROUND:Club classics-bg.png;
#PREVIEWVID:;
#JACKET:Club classics-jacket.png;
#CDIMAGE:;
#DISCIMAGE:;
#LYRICSPATH:;
#CDTITLE:cdtitle.png;
#MUSIC:Club classics.ogg;
#OFFSET:-0.020000;
#SAMPLESTART:72.847000;
#SAMPLELENGTH:15.000000;
#SELECTABLE:YES;
#DISPLAYBPM:145.000000;
#BPMS:0.000=145.000;
#STOPS:;
#DELAYS:;
#WARPS:;
#TIMESIGNATURES:0.000=4=4;
#TICKCOUNTS:0.000=4;
#COMBOS:0.000=1;
#SPEEDS:0.000=1.000=0.000=0;
#SCROLLS:0.000=1.000;
#FAKES:;
#LABELS:0.000=Song Start;
#BGCHANGES:-0.250=Club classics.avi=1.000=0=0=0=StretchNoLoop==CrossFade_Fastest==,
99999=-nosongbg-=1.000=0=0=0 // don't automatically add -songbackground-
;
#KEYSOUNDS:;
#ATTACKS:
;

//---------------dance-single - Daff_4K----------------
#NOTEDATA:;
#CHARTNAME:Daff_4K;
#STEPSTYPE:dance-single;
#DESCRIPTION:Daff_4K;
#CHARTSTYLE:;
#DIFFICULTY:Beginner;
#METER:4;
#RADARVALUES:0.177297,0.200198,0.033771,0.000000,0.000000,147.000000,143.000000,4.000000,0.000000,0.000000,0.000000,0.000000,0.000000,0.000000,0.177297,0.200198,0.033771,0.000000,0.000000,147.000000,143.000000,4.000000,0.000000,0.000000,0.000000,0.000000,0.000000,0.000000;
#CREDIT:Daff_4K;
#DISPLAYBPM:145.000000;
#NOTES:
0000
0000
0000
0000
,
0000
0000
0000
0000
,
0000
0000
0000
0000
,
0000
0000
0000
0000
,
1000
0000
0001
0000
,
1000
1000
1000
0000
,
0000
0010
0010
0000
,
0100
0100
0100
0000
,
0001
0000
1000
0000
,
0001
0001
0001
0000
,
0000
0010
0010
0000
,
0100
0100
0100
0000
,
0000
1000
1000
0000
,
0001
0001
0000
0010
,
0010
0000
0100
0100
,
0000
1000
1000
0000
,
0001
0000
1000
0000
,
1001
0000
0001
0000
,
0100
0000
1000
0000
,
0100
0000
0010
0010
,
0000
1000
0000
0001
,
0000
1000
0000
0001
,
0000
0010
0000
0100
,
0000
0010
0000
0100
,
0000
1000
0000
0001
,
0000
1000
0000
0001
,
0000
0100
0000
0010
,
0000
0100
0000
0010
,
0010
0000
0100
0000
,
0010
0010
0010
0010
,
0000
0000
1001
0000
,
0001
0000
1000
0000
,
0100
0000
0010
0000
,
0100
0100
0100
0100
,
0000
0000
1001
0000
,
1000
0000
0001
0000
,
1000
0000
0010
0000
,
0100
0100
0100
0000
,
0001
0000
0010
0000
,
0100
0100
0100
0000
,
0010
0000
0001
0000
,
1000
1000
1000
0000
,
0010
0000
1000
0000
,
0001
0001
0001
0000
,
0010
0000
0100
0000
,
0010
0010
0010
0010
,
0000
0000
1001
0000
,
0001
0000
1000
0000
,
0010
0000
0000
0000
,
0100
0000
0000
0000
,
0001
0000
1000
0000
,
0100
0100
0100
0100
,
0100
0000
0010
0000
,
0001
0001
0001
0000
,
0100
0000
0010
0000
,
1000
1000
1000
0000
,
0001
0000
1000
0000
,
0100
0100
0100
0000
,
1000
0000
0001
0000
,
0100
0100
0100
0000
,
0001
0000
0000
0000
,
0010
0000
0100
0000
,
1000
0000
0000
0000
,
1000
0000
0001
0000
,
1000
0000
0000
0000
,
0010
0000
0100
0000
,
0001
0000
0000
0000
,
0001
0000
0010
0010
;

//---------------dance-single - Daff_4K----------------
#NOTEDATA:;
#CHARTNAME:Daff_4K;
#STEPSTYPE:dance-single;
#DESCRIPTION:Daff_4K;
#CHARTSTYLE:;
#DIFFICULTY:Easy;
#METER:6;
#RADARVALUES:0.260519,0.314597,0.101313,0.211068,0.000000,216.000000,204.000000,12.000000,25.000000,0.000000,0.000000,0.000000,0.000000,0.000000,0.260519,0.314597,0.101313,0.211068,0.000000,216.000000,204.000000,12.000000,25.000000,0.000000,0.000000,0.000000,0.000000,0.000000;
#CREDIT:Daff_4K;
#DISPLAYBPM:145.000000;
#NOTES:
0000
0000
0000
0000
,
0000
0000
0000
0000
,
0000
0000
0000
0000
,
0000
0000
0000
0000
,
1000
0010
1000
1000
,
0001
2000
3100
0000
,
1000
0002
0103
0000
,
0002
2003
3100
0010
,
0001
0010
0001
0001
,
1000
0002
0103
0000
,
0001
2000
3100
0000
,
2000
3002
0103
0010
,
1000
0100
0001
1000
,
0010
0001
0100
0010
,
1001
0001
0100
1000
,
0001
0010
1000
0001
,
0010
0010
0100
1000
,
0001
0100
0100
0010
,
1000
0100
0001
0100
,
0010
0001
1001
1001
,
1000
0100
0000
1000
,
0000
0001
0000
1000
,
0010
0100
0000
0010
,
0000
1000
0000
0001
,
0000
0010
0000
0001
,
0000
1000
0000
0001
,
0100
0010
0000
0100
,
0000
0001
0000
1000
,
0200
0000
0310
0000
,
0001
1000
0001
1000
,
0000
0000
1001
0000
,
0001
0001
1000
0001
,
0200
0000
0310
0000
,
1000
0001
1000
0001
,
0000
0000
1001
0000
,
1000
0001
0100
0010
,
1000
0001
0020
0100
,
0100
0100
0130
1000
,
0010
0100
0002
1000
,
1000
1000
1003
1001
,
0001
1000
0020
0100
,
0100
0100
0130
0001
,
0010
0100
2000
0001
,
0001
0001
3001
1001
,
1000
0001
0200
0000
,
0301
1000
0100
0020
,
0030
0000
1001
0000
,
1000
0001
0100
0010
,
2000
0000
0000
0000
,
3002
0000
0000
0000
,
0203
0000
0000
0000
,
0310
1000
0100
0010
,
0001
0100
0010
0100
,
0001
1000
1001
0000
,
0001
0010
0100
0010
,
0002
1000
1003
0001
,
1000
0100
0010
0100
,
1000
0001
1001
0000
,
1000
0010
0100
0010
,
2000
0001
3001
1000
,
0200
0000
0310
0000
,
0001
1000
1001
0000
,
0002
0000
1003
0000
,
0010
0010
0100
0001
,
0200
0000
0310
0000
,
1000
0001
1001
0000
,
2000
0000
3001
0000
,
0010
0100
1000
0001
;

//---------------dance-single - Daff_4K----------------
#NOTEDATA:;
#CHARTNAME:Daff_4K;
#STEPSTYPE:dance-single;
#DESCRIPTION:Daff_4K;
#CHARTSTYLE:;
#DIFFICULTY:Medium;
#METER:8;
#RADARVALUES:0.337709,0.371797,0.151969,0.270168,0.000000,280.000000,262.000000,18.000000,32.000000,0.000000,0.000000,0.000000,0.000000,0.000000,0.337709,0.371797,0.151969,0.270168,0.000000,280.000000,262.000000,18.000000,32.000000,0.000000,0.000000,0.000000,0.000000,0.000000;
#CREDIT:Daff_4K;
#DISPLAYBPM:145.000000;
#NOTES:
0000
0000
0000
0000
,
0000
0000
0000
0000
,
0000
0000
0000
0000
,
0000
0000
0000
0000
,
1000
0000
0010
0000
0001
0000
0010
0100
,
0010
2000
0002
3003
,
0000
0020
0200
0330
,
1001
0110
2002
3003
,
0001
0000
0010
0000
1000
0000
0010
0100
,
0010
0002
2000
3003
,
0000
0020
0200
0330
,
1001
0110
2002
3003
,
0001
0000
0100
0010
0100
0000
0001
0000
,
1000
0100
1000
0000
0010
0000
0100
0000
,
1001
0000
1000
0000
0100
0010
0100
0000
,
1000
0000
0001
0100
0001
0000
1000
0000
,
0001
0010
0001
0000
1000
0010
1000
0000
,
1001
0000
0001
0000
0010
0100
0010
0000
,
0001
1000
1001
0001
,
1000
0000
0010
0000
0100
0100
0100
0000
,
0001
0100
0001
0000
0000
1000
0001
0000
,
0000
0010
0001
0000
0000
1000
0001
0000
,
1000
0100
1000
0000
0000
0001
1000
0000
,
0000
0010
1000
0000
0000
0001
1000
0000
,
0100
0010
0100
0000
0000
1000
0100
0000
,
0000
0010
0100
0000
0000
1000
0001
0000
,
0100
0010
0100
0000
0000
0001
0100
0000
,
0000
0010
0100
0000
0000
0001
1000
0000
,
0002
0000
0010
0000
,
1000
1000
1000
2000
,
3003
0000
0000
0010
0200
0000
0300
0000
,
0001
0000
1000
0000
0100
0010
0100
0000
,
2000
0000
0010
0000
,
0001
0001
0001
0002
,
3003
0000
0000
0010
0200
0000
0300
0000
,
1000
0001
1000
0000
0010
0100
0010
0000
,
1000
0001
0020
0100
,
0001
0100
0001
0130
,
1000
0001
0200
0010
,
0001
0000
0010
0000
0301
0000
0001
1000
,
0001
1000
0020
0100
,
1000
0100
1000
0130
,
0001
1000
0200
0010
,
1000
0010
1300
1001
,
0001
0100
1000
0100
,
0001
0000
1000
0000
0010
0100
0020
0000
,
0130
0000
0001
1000
0002
0000
1003
0000
,
0001
0010
1000
0010
,
0002
0000
1000
0000
,
2003
0000
0010
0000
,
3020
0000
0100
0000
,
0130
0000
0001
0000
1000
0001
1000
0000
,
0001
0000
0010
0000
1000
0000
0010
0100
,
0010
0001
1001
1000
,
0001
0000
0100
0010
0100
0000
0001
0000
,
0010
0100
0010
0000
0100
0010
0100
0000
,
1000
0000
0010
0000
0001
0000
0010
0100
,
0010
1000
1001
0001
,
1000
0000
0100
0010
0100
0000
1000
0000
,
0010
0100
0010
0000
0100
0010
0100
0000
,
0002
0010
1000
0103
,
0101
1001
1100
0000
,
0020
0001
0100
0031
,
1000
0001
0100
0010
,
2000
0010
0001
3100
,
1100
1001
0101
0000
,
0020
1000
0100
1030
,
0001
1000
0001
0000
0020
0000
0130
0000
;

//---------------dance-single - Daff_4K----------------
#NOTEDATA:;
#CHARTNAME:Daff_4K;
#STEPSTYPE:dance-single;
#DESCRIPTION:Daff_4K;
#CHARTSTYLE:;
#DIFFICULTY:Hard;
#METER:12;
#RADARVALUES:0.499328,0.515746,0.177297,0.396809,0.130862,414.000000,393.000000,21.000000,47.000000,0.000000,0.000000,0.000000,0.000000,0.000000,0.499328,0.515746,0.177297,0.396809,0.130862,414.000000,393.000000,21.000000,47.000000,0.000000,0.000000,0.000000,0.000000,0.000000;
#CREDIT:Daff_4K;
#DISPLAYBPM:145.000000;
#NOTES:
// measure 0
0000
0000
0000
0000
,  // measure 1
0000
0000
0000
0000
,  // measure 2
0000
0000
0000
0000
,  // measure 3
0000
0000
0000
0000
0000
0000
0000
1000
,  // measure 4
0001
0100
0010
0100
1000
0100
0001
1000
,  // measure 5
0100
0010
0002
0000
0103
0010
1000
0000
,  // measure 6
1001
0000
2100
0000
3010
0100
0001
0000
,  // measure 7
0110
0000
1001
0000
1000
0010
0100
0001
,  // measure 8
1000
0100
0010
0100
0001
0100
1000
0001
,  // measure 9
0100
0010
2000
0000
3100
0010
0001
0000
,  // measure 10
1001
0000
0102
0000
0013
0100
1000
0000
,  // measure 11
0110
0000
1001
0000
0001
0010
0100
1000
,  // measure 12
0001
0100
1000
0100
0002
0000
1003
0100
,  // measure 13
0001
0100
2000
0000
3010
0100
0001
1000
,  // measure 14
1001
0000
0001
0010
1000
0010
0002
0000
,  // measure 15
1003
0010
0001
0010
2000
0000
3100
0001
,  // measure 16
0100
1000
0020
0000
0130
0001
1000
0000
,  // measure 17
1001
0000
0001
0010
1000
0010
0002
0000
,  // measure 18
0103
1000
0100
0001
0020
0000
0130
1000
,  // measure 19
0010
0100
0010
0000
0100
0010
0100
0000
0001
0000
1000
0000
1001
0000
0000
0000
,  // measure 20
0001
0010
0100
0000
0001
0010
0100
0000
,  // measure 21
0001
0010
0100
0000
0001
0010
0100
0000
,  // measure 22
0001
1000
0010
0000
0001
1000
0010
0000
,  // measure 23
0001
1000
0010
0000
0001
1000
0010
0000
,  // measure 24
1000
0100
0010
0000
1000
0100
0010
0000
,  // measure 25
1000
0100
0010
0000
1000
0100
0010
0000
,  // measure 26
1000
0001
0100
0000
1000
0001
0100
0000
,  // measure 27
1000
0001
0100
0000
1000
0001
0100
0000
,  // measure 28
2002
3000
0020
0003
,  // measure 29
0100
0000
0100
0000
0100
0100
0200
0000
,  // measure 30
0330
0000
0000
2000
0002
0000
3003
0000
,  // measure 31
1000
0010
0001
0010
1000
0100
0010
0000
,  // measure 32
2002
0003
0020
3000
,  // measure 33
0100
0000
0100
0000
0100
0100
0200
0000
,  // measure 34
0330
0000
0000
0002
2000
0000
3003
0000
,  // measure 35
0001
0010
1000
0001
0100
1000
0010
0100
,  // measure 36
0001
0000
0010
0000
0100
0000
1000
0000
0001
0000
0000
0001
0100
0000
0000
0100
,  // measure 37
1000
0000
0000
1000
0100
0000
0000
0100
0010
0000
0000
0010
1000
0000
0001
0000
,  // measure 38
0010
0000
1000
0000
0010
0000
0100
0000
1000
0000
0000
1000
0001
0000
0000
0001
,  // measure 39
0100
0000
0000
0100
0010
0000
0000
0010
1000
0000
0000
1000
0001
0000
1001
0000
,  // measure 40
1000
0000
0010
0000
0100
0000
0001
0000
1000
0000
0000
1000
0100
0000
0000
0100
,  // measure 41
0001
0000
0000
0001
0100
0000
0000
0100
0010
0000
0000
0010
0001
0000
1000
0000
,  // measure 42
0010
0000
0001
0000
0010
0000
0100
0000
0001
0000
0000
0001
1000
0000
0000
1000
,  // measure 43
0100
0000
0000
0100
0010
0000
0000
0010
0001
0000
0000
0001
2000
0000
0000
0000
,  // measure 44
3001
0100
0010
0100
2000
0000
3100
0001
,  // measure 45
0010
0000
0100
0010
0100
0000
1000
0000
0010
0000
0001
0000
0020
0000
0000
0000
,  // measure 46
0130
0000
0001
1000
0200
0000
0310
0000
,  // measure 47
0001
0100
1000
0001
0010
1000
0001
0000
,  // measure 48
2002
0003
0020
3000
,  // measure 49
0200
0030
0002
0300
,  // measure 50
0020
0003
0200
0030
,  // measure 51
1300
0010
0001
1000
0100
0001
2000
0000
,  // measure 52
3001
1000
0200
0000
0310
0000
0100
1000
,  // measure 53
0001
0000
0000
0001
0100
0000
0000
0100
0010
0000
0000
0010
1000
0000
0001
0000
,  // measure 54
0020
0000
0000
0000
0130
0010
0100
0000
1000
0000
1010
0000
0000
0000
0101
0000
,  // measure 55
0000
0001
0010
1000
0010
0001
0010
0100
,  // measure 56
1000
0001
0200
0000
0310
0000
0100
0001
,  // measure 57
1000
0000
0000
1000
0100
0000
0000
0100
0010
0000
0000
0010
0001
0000
1000
0000
,  // measure 58
0020
0000
0000
0000
0130
0010
0100
0000
0002
0000
0000
0000
1003
0000
0001
0000
,  // measure 59
0010
0100
0010
0001
1000
0010
0100
0010
,  // measure 60
2000
0000
0100
0000
0001
0000
3010
1000
,  // measure 61
0100
0000
0110
0000
1001
0000
1000
0100
,  // measure 62
0002
0000
0103
1000
0020
0100
0000
0100
,  // measure 63
0000
0130
0001
1000
0001
0010
0100
1000
,  // measure 64
0002
0000
0100
0000
1000
0000
0013
0001
,  // measure 65
0100
0000
0110
0000
1001
0000
0001
0100
,  // measure 66
2000
0000
3100
0001
0020
0000
0130
1000
,  // measure 67
0010
0001
1000
0100
0002
0000
1000
1003
;

//---------------dance-single - I wanna dance to Daff_4K----------------
#NOTEDATA:;
#CHARTNAME:I wanna dance to Daff_4K;
#STEPSTYPE:dance-single;
#DESCRIPTION:I wanna dance to Daff_4K;
#CHARTSTYLE:;
#DIFFICULTY:Challenge;
#METER:15;
#RADARVALUES:0.631999,0.716313,0.371480,0.987800,0.350374,524.000000,480.000000,44.000000,117.000000,0.000000,0.000000,0.000000,0.000000,0.000000,0.631999,0.716313,0.371480,0.987800,0.350374,524.000000,480.000000,44.000000,117.000000,0.000000,0.000000,0.000000,0.000000,0.000000;
#CREDIT:I wanna dance to Daff_4K;
#DISPLAYBPM:145.000000;
#NOTES:
// measure 0
0000
0000
0000
0000
,  // measure 1
0000
0000
0000
0000
,  // measure 2
0000
0000
0000
0000
,  // measure 3
0000
0000
0000
0000
0000
0000
0000
1000
,  // measure 4
0001
0100
0100
0010
1000
0001
0010
0100
,  // measure 5
0010
0001
2001
0000
3010
0200
0001
0300
,  // measure 6
0110
0000
2001
0000
3100
0020
0001
0030
,  // measure 7
0220
0330
2002
3003
1000
0010
0100
0001
,  // measure 8
1000
0100
0100
0010
0001
1000
0010
0100
,  // measure 9
0010
1000
1002
0000
0013
0200
1000
0300
,  // measure 10
0110
0000
1002
0000
0103
0020
1000
0030
,  // measure 11
0220
0000
0000
0330
0000
0000
2002
0000
0000
3003
0000
0000
1000
0000
0000
0001
1000
0001
1000
0000
0100
0000
0010
0000
,  // measure 12
0001
0000
0100
0010
1000
0000
0001
0000
2002
0000
3003
0000
1000
0000
0100
0010
,  // measure 13
0001
0000
1000
0000
2002
0000
3003
0000
0001
0000
0100
0010
0100
0000
1000
0000
,  // measure 14
0220
0000
0330
0000
0001
0000
1000
0001
0010
0000
0100
0000
2200
0000
3300
0000
,  // measure 15
1000
0000
0001
1000
0010
0000
0100
0000
0202
0000
0303
0000
0001
1000
0001
0000
,  // measure 16
0011
0000
0110
0000
2200
0000
3300
0000
1000
0001
1000
0000
0010
0000
0110
0000
,  // measure 17
2002
0000
3003
0000
0001
0000
1000
0000
0100
0010
0100
0000
2002
0000
3003
0000
,  // measure 18
1010
0000
0110
0000
0101
0000
0001
1000
0200
0000
0000
0000
0310
0000
0001
0000
,  // measure 19
1000
0001
1000
0000
0001
0100
1000
0100
0001
0000
1001
0000
2002
0000
3003
0000
,  // measure 20
1000
0000
0100
0010
0002
0000
0000
0000
1003
0000
0100
0010
0002
0000
0000
0000
,  // measure 21
1003
0000
0010
0100
0002
0000
0000
0000
1003
0000
0010
0100
0001
0000
1000
0000
,  // measure 22
0001
0000
0010
0100
2000
0000
0000
0000
3001
0000
0010
0100
2000
0000
0000
0000
,  // measure 23
3001
0000
0100
0010
2000
0000
0000
0000
3001
0000
0100
0010
1000
0000
1001
0000
,  // measure 24
0001
0000
0010
0100
0002
0000
0000
0000
0103
0000
0010
0001
2000
0000
0000
0000
,  // measure 25
3001
0000
0100
0010
0002
0000
0000
0000
0013
0000
0100
0001
1000
0000
0001
0000
,  // measure 26
1000
0000
0100
0010
2000
0000
0000
0000
3010
0000
0100
1000
0002
0000
0000
0000
,  // measure 27
1003
0000
0000
0000
0000
0000
0010
0000
0000
0100
0000
0000
2000
0000
0000
0000
0000
0000
0000
0000
0000
0000
0000
0000
3100
0000
0000
0000
0000
0000
0001
0000
1000
0000
0001
0000
1000
0000
0000
0000
0100
0000
0000
0000
0010
0000
0000
0000
,  // measure 28
0001
0000
0100
0010
0000
0010
1000
0000
2200
0000
0000
0000
3000
0000
0000
0000
,  // measure 29
0010
0000
0010
0000
0010
0010
0020
0000
,  // measure 30
0330
0000
0000
0002
2000
0000
3003
0000
,  // measure 31
0001
0000
0100
0001
0100
0000
0010
1000
0010
0000
1000
0000
0002
0000
0000
0000
,  // measure 32
1003
0000
0100
0010
0000
0010
0001
0000
0202
0000
0000
0000
0003
0000
0000
0000
,  // measure 33
0010
0000
0010
0000
0010
0010
0020
0000
,  // measure 34
0330
0000
0000
2000
0002
0000
3003
0000
,  // measure 35
1000
0000
0000
0000
0000
0000
0100
0000
0000
1000
0000
0000
0100
0000
0000
0000
0000
0000
0010
0000
0000
0001
0000
0000
0010
0000
0000
0000
0000
0000
0001
0000
1000
0000
0001
0000
1000
0000
0000
0000
0010
0000
0000
0000
0100
0000
0000
0000
,  // measure 36
0001
0000
0010
0100
0010
0000
0001
0000
2000
0000
0010
0000
3200
0000
0010
0000
,  // measure 37
2300
0010
3002
0010
0203
0010
0301
1000
,  // measure 38
0100
0110
0001
1001
2000
0010
3002
0010
,  // measure 39
2003
0100
3002
0100
2003
0010
3001
1001
,  // measure 40
1000
0000
0010
0100
0010
0000
1000
0000
0002
0000
0010
0000
0203
0000
0010
0000
,  // measure 41
0302
0000
0010
0000
2003
0000
0010
0000
3100
0000
0010
0100
0010
0000
0001
0000
,  // measure 42
0100
0110
1000
1001
0002
0010
2003
0010
,  // measure 43
3002
0100
2003
0100
3002
0010
1003
1001
,  // measure 44
0001
0000
0100
0010
0000
0010
1000
0000
1200
0000
0000
0000
0301
0000
0100
0000
,  // measure 45
0010
0000
0001
1000
0001
0000
0100
0000
1000
0000
0100
0000
0120
0000
0000
0000
,  // measure 46
1030
0000
0001
0020
1000
0000
0130
0000
,  // measure 47
1000
0000
0001
0100
0001
0000
1000
0100
1000
0000
0001
0000
2002
0000
3003
0000
,  // measure 48
2020
3000
0002
0003
,  // measure 49
0100
0000
0100
0000
0130
0002
2000
0000
,  // measure 50
3003
0000
0000
0200
0020
0000
0330
0000
,  // measure 51
0001
0000
0000
0000
0000
0000
1000
0000
0000
0010
0000
0000
1000
0000
0000
0000
0000
0000
0001
0000
0000
0010
0000
0000
0001
0000
0000
0000
0000
0000
1000
0000
0001
0000
1000
0000
0001
0000
0000
0000
0100
0000
0000
0000
0010
0000
0000
0000
,  // measure 52
1000
0000
0001
0010
0100
0000
1000
0000
1020
0000
0000
0000
0130
0000
0001
0000
,  // measure 53
2000
0100
0000
0000
3200
0010
0000
0000
0320
0001
0000
0000
0031
0000
1000
0000
,  // measure 54
0010
0000
0001
0000
0010
0100
0010
0000
2000
0000
0100
0000
3002
0000
0100
0000
,  // measure 55
1003
0200
0010
2300
0010
3002
0010
1003
,  // measure 56
0001
0000
1000
0000
0010
0100
0001
0000
0021
0000
0000
0000
0130
0000
1000
0000
,  // measure 57
0002
0100
0000
0000
0203
0010
0000
0000
0320
1000
0000
0000
1030
0000
0001
0000
,  // measure 58
0010
0000
1000
0000
0010
0100
0010
0000
0002
0000
0000
0000
0103
0000
0010
0000
,  // measure 59
1000
0000
0000
0002
0000
0000
0010
0000
0000
2003
0000
0000
0010
0000
0000
3001
1000
0001
1000
0000
0010
0000
0100
0000
,  // measure 60
0002
0000
0010
0000
1000
0000
0103
0010
,  // measure 61
2000
0100
0000
0000
3200
0010
0000
0000
0320
0001
0000
0000
0031
0000
1000
0000
,  // measure 62
2001
0000
0000
0000
3010
0100
0001
0000
0020
0000
0100
0000
0000
0000
0100
0000
,  // measure 63
0000
0130
1000
0010
0001
0010
1000
0001
,  // measure 64
2001
0000
0010
0000
0001
0000
3100
0010
,  // measure 65
0002
0100
0000
0000
0203
0010
0000
0000
0320
1000
0000
0000
1030
0000
0001
0000
,  // measure 66
1002
0000
0000
0000
0013
0100
1000
0000
0020
0000
0000
0000
0130
0000
0001
0000
,  // measure 67
0010
1000
0001
0100
1000
0010
0100
0001
;
