#VERSION:0.83;
#TITLE:Chronoslip;
#SUBTITLE:;
#ARTIST:Feris;
#TITLETRANSLIT:;
#SUBTITLETRANSLIT:;
#ARTISTTRANSLIT:;
#GENRE:PROGPIANO;
#ORIGIN:;
#CREDIT:;
#BANNER:Chronoslip.png;
#BACKGROUND:Chronoslip-bg.png;
#PREVIEWVID:;
#JACKET:Chronoslip-jacket.png;
#CDIMAGE:;
#DISCIMAGE:;
#LYRICSPATH:;
#CDTITLE:;
#MUSIC:Chronoslip.ogg;
#OFFSET:-0.217000;
#SAMPLESTART:55.913120;
#SAMPLELENGTH:15.239999;
#SELECTABLE:YES;
#BPMS:0.000=140.000;
#STOPS:;
#DELAYS:;
#WARPS:;
#TIMESIGNATURES:0.000=4=4;
#TICKCOUNTS:0.000=4;
#COMBOS:0.000=1;
#SPEEDS:0.000=1.000=0.000=0;
#SCROLLS:0.000=1.000;
#FAKES:;
#LABELS:0.000=Song Start;
#BGCHANGES:;
#KEYSOUNDS:;
#ATTACKS:
;

//---------------dance-single - ----------------
#NOTEDATA:;
#CHARTNAME:;
#STEPSTYPE:dance-single;
#DESCRIPTION:;
#CHARTSTYLE:;
#DIFFICULTY:Hard;
#METER:16;
#RADARVALUES:0.814521,0.924117,0.367309,0.325570,1.177060,683.000000,639.000000,44.000000,39.000000,15.000000,0.000000,0.000000,0.000000,0.000000,0.814521,0.924117,0.367309,0.325570,1.177060,683.000000,639.000000,44.000000,39.000000,15.000000,0.000000,0.000000,0.000000,0.000000;
#CREDIT:BlindedVanguard573;
#NOTES:
0000
0000
0000
0000
,
0000
0000
0000
0000
,
0000
0000
0000
0000
0000
0000
0000
0000
1001
0000
0002
0010
0000
1000
0000
0013
,
0000
1001
0000
2000
0010
0000
0001
0000
0010
0000
3001
0000
1001
0000
0002
0100
,
0000
1000
0000
0103
0000
1001
0000
0001
1000
0010
0100
0001
1000
0100
0010
0001
,
1000
0000
0010
0100
0000
0010
0000
1000
0000
0100
0000
0010
0100
0000
1000
0000
,
0001
0000
0010
0000
0001
0000
0100
0010
0000
0100
0000
0001
0000
0010
0000
0100
,
1000
0001
0010
0100
1000
0001
0100
0010
1000
0000
0100
0010
0000
0100
0000
1000
,
0000
0010
0000
0100
0010
0000
1000
0000
0001
0000
0100
0000
0001
0000
0010
0100
,
0000
0010
0000
0001
0000
0100
0000
0010
1000
0001
0100
0010
1000
0001
0010
0100
,
1000
0000
0000
1000
0000
0000
1000
0000
0000
1000
0000
0000
0001
0000
0001
0000
,
0001
0001
0200
0010
0000
0001
0000
0310
,
0100
0000
0000
0001
0000
0000
0010
0000
0200
0000
0010
0000
0000
0000
1000
0000
,
0000
0000
0310
0000
0100
0000
0000
1000
0000
0000
0010
0000
2000
0000
0100
0000
,
0000
0000
0001
0000
0000
0000
3010
0000
1000
0000
0000
0100
0000
0000
0010
0000
,
0002
0100
0000
1000
0000
0013
0001
1000
,
0001
0000
0100
0001
2000
0000
3001
0000
1000
0010
1000
0000
0001
0010
0001
0000
,
1000
0000
0000
0100
0010
0000
0001
0000
1000
0000
0001
0000
1000
0100
1000
0000
,
0001
0100
0001
0000
1000
0000
0000
0100
0010
0000
0100
0000
0001
0000
0100
0000
,
0010
0000
0001
0000
0100
0000
0010
0000
0001
0000
0000
0010
0100
0000
0001
0000
,
1000
0000
0001
0000
0010
0100
0010
0000
0001
1000
0001
0000
0101
0000
0000
0000
,
1010
0000
0000
0000
0000
0000
0000
0000
1001
0000
0000
0000
0002
0000
1000
0000
0000
0000
0010
0000
0000
0000
1003
0000
0000
0000
0010
0M00
0010
0000
0001
0000
,
1000
0000
0010
0000
1000
0000
0001
0000
1001
0000
2000
0001
0000
0010
0000
3001
,
0000
0000
0010
0M00
0010
0000
1000
0000
0001
0000
0000
0000
0010
0000
0001
0000
2000
0000
0000
0000
3000
0000
0000
0000
1001
0000
0000
0000
0002
0000
1000
0000
,
0000
0000
0100
0000
0000
0000
1003
0000
0000
0000
0100
00M0
0100
0000
0001
0000
1000
0000
0000
0000
0100
0000
0000
0000
1000
0000
0000
0000
0001
0000
0000
0000
,
0010
0M00
0010
1000
0000
0010
0000
1000
0000
0100
00M0
0100
0001
0000
1000
0000
,
0002
0000
0000
0000
0003
0000
0000
0000
1100
0000
0000
0000
0200
0000
1000
0000
0000
0000
0010
0000
0000
0000
1300
0000
0000
0000
0100
00M0
0100
0000
0001
0000
,
1000
0000
0010
0000
1000
0000
0001
0000
0101
0000
0200
0001
0000
0010
0000
0301
,
0000
0000
0100
00M0
0100
0000
1000
0000
0001
0000
0000
0000
0010
0000
0001
0000
1000
0000
0010
0000
1000
0000
0000
0000
1100
0000
0000
0000
0000
0000
0011
0000
,
0000
0000
1100
0000
0000
0011
0000
0000
0101
0000
0000
1010
0000
0000
0101
0000
,
0000
1010
0000
0000
1002
0000
0000
0000
0103
0000
1000
0000
0100
0000
0000
0000
,
2001
0000
0000
0000
3100
0000
1000
0001
0000
1000
0000
1000
0000
0100
0010
0001
,
1000
0000
0000
0000
2002
0000
3003
0000
2010
0000
3002
0010
0000
2003
0010
0000
,
3002
0010
0000
1003
0001
0010
0100
1000
0001
0100
0010
1000
0002
0000
2003
0100
,
0000
3002
0100
0000
2003
0100
0000
3001
0100
0010
1000
0001
0010
0100
1000
0001
,
2000
0000
3002
0100
0000
2003
0010
0000
3002
0100
0000
1003
0001
0010
0100
1000
,
0001
0100
0010
1000
0100
0000
0000
0100
0000
0000
0100
0000
0000
0010
0000
0000
,
0001
0000
0000
0000
1000
0000
0010
0000
0200
0000
0000
0000
0300
0000
0000
0000
0001
0000
0000
0000
0010
0000
0000
0000
0001
0000
0000
0000
0010
0M00
0010
0000
,
1000
0010
0100
0001
1000
0010
1000
0100
,
1000
0000
0000
0000
0100
00M0
0100
0000
0001
0000
0000
0000
1000
0000
0000
0000
0010
0000
0000
0000
1000
0000
0000
0000
1000
0000
0000
0000
0001
0000
0000
0000
,
1000
0000
0000
0000
0010
0000
0000
0000
1000
0000
0000
0000
0010
0M00
0010
0000
0001
0000
0000
0000
0010
0000
0000
0000
1000
0000
0000
0000
0010
0000
0000
0000
,
0001
0000
0000
0000
1000
0000
0000
0000
0001
0000
0000
0000
0100
0000
0000
0000
0001
0000
0000
0000
0100
00M0
0100
0000
1000
0000
0000
0000
0001
0000
0000
0000
,
1000
0010
0100
0001
1001
0000
0000
0000
,
0000
0000
0000
0000
1001
0000
0001
1000
0020
0000
0030
0000
1010
0000
2000
0010
,
0000
0001
0000
3010
0M00
0011
0000
0002
0010
0000
1000
0000
0010
0000
1003
0000
,
1100
0000
2000
0100
0000
0001
0000
3100
00M0
0101
0000
0001
1000
0010
0100
0001
,
1000
0100
0010
0001
1000
0000
0002
0100
0000
1000
0000
0103
00M0
1100
0000
2000
,
0100
0000
0001
0000
0100
0000
3001
0000
0011
0000
0002
0010
0000
1000
0000
0013
,
0M00
1010
0000
1000
0001
0100
0010
1000
0001
0010
0100
1000
0001
0000
0010
0100
,
0000
0010
0000
0001
0000
0100
0000
0010
0100
0000
0001
0000
1000
0000
0010
0000
,
1000
0000
0100
0010
0000
0100
0000
1000
0000
0010
0000
0100
0001
1000
0010
0100
,
0001
1000
0100
0010
0001
0000
0100
0010
0000
0100
0000
0001
0000
0010
0000
0100
,
0010
0000
0001
0000
1000
0000
0100
0000
1000
0000
0010
0100
0000
0010
0000
1000
,
0000
0100
0000
0010
0001
1000
0100
0010
0001
1000
0010
0100
0001
0010
0001
1000
,
0000
0001
1000
0010
1000
0001
0000
1000
0001
0100
0010
0000
0100
0001
0010
0000
,
0001
0100
0001
1000
0000
0001
1000
0100
1000
0001
0000
1000
0001
0010
0100
0000
,
0010
0001
0100
0010
1000
0010
1000
0001
0000
1000
0001
0010
0001
1000
0000
0001
,
1000
0100
0010
0000
0100
1000
0010
0000
1000
0100
1000
0001
0000
1000
0001
0100
,
0001
1000
0000
0001
1000
0010
0100
0000
0010
1000
0100
0010
0001
1000
0010
0100
,
0001
1000
0100
0010
0001
1000
0010
0100
0010
1000
0100
0000
1000
0001
0010
0001
,
1000
0001
0010
0100
1000
0001
0100
0010
1000
0001
0010
0100
0010
0001
0100
0000
,
0001
1000
0010
1000
0001
1000
0100
0010
0001
1000
0010
0100
0001
1000
0100
0010
,
0100
1000
0010
0000
1000
0001
0100
0001
1000
0001
0100
0010
1000
0001
0010
0100
,
1000
0001
0100
0010
1000
0100
0010
0001
0100
0010
1000
0000
1001
0000
0000
0000
,
0000
0000
0000
0000
0000
1100
0000
0000
0000
0000
0000
0000
0011
0000
1001
0000
,
0101
0000
0000
0000
0000
0000
0000
0000
0000
1010
0000
0000
0000
0000
0000
0000
,
1000
0001
1000
0001
1001
0000
0000
0000
0000
0000
0000
0000
0000
0011
0000
0000
,
0000
0000
1100
1001
1010
0000
0000
0000
,
0000
0101
0000
0001
1000
0010
1000
0100
0010
0001
0100
0010
1000
0100
1000
0010
,
0100
0001
0010
0100
0000
0000
0000
0000
0000
0000
0000
0000
0000
0000
0000
0000
;

//---------------dance-single - ----------------
#NOTEDATA:;
#CHARTNAME:;
#STEPSTYPE:dance-single;
#DESCRIPTION:;
#CHARTSTYLE:;
#DIFFICULTY:Medium;
#METER:12;
#RADARVALUES:0.533076,0.519816,0.317222,0.075131,0.496703,447.000000,409.000000,38.000000,9.000000,0.000000,0.000000,0.000000,0.000000,0.000000,0.533076,0.519816,0.317222,0.075131,0.496703,447.000000,409.000000,38.000000,9.000000,0.000000,0.000000,0.000000,0.000000,0.000000;
#CREDIT:BlindedVanguard573;
#NOTES:
0000
0000
0000
0000
,
0000
0000
0000
0000
,
0000
0000
0000
0000
0000
0000
0000
0000
0001
0000
0000
0100
0000
0010
0000
1000
,
0000
0001
0000
0000
1000
0000
0100
0000
0010
0000
0100
0000
1000
0000
0000
0001
,
0000
0100
0000
0010
0000
1000
0000
0000
0001
0000
0010
0000
1000
0000
0010
0000
,
0001
0000
0000
0010
0000
0100
0000
1000
0000
0001
0000
0000
1000
0000
0010
0000
,
0100
0000
0010
0000
1000
0000
0000
0001
0000
0010
0000
0100
0000
1000
0000
0000
,
0001
0000
0100
0000
1000
0000
0100
0000
0001
0000
0000
0100
0000
0010
0000
1000
,
0000
0001
0000
0000
1000
0000
0100
0000
0010
0000
0100
0000
1000
0000
0000
0001
,
0000
0100
0000
0010
0000
1000
0000
0000
0001
0000
0010
0000
1000
0000
0010
0000
,
0001
0000
0000
0000
,
0000
2000
0100
0001
,
3100
0000
0000
1000
0000
0000
0001
0000
0020
0000
0000
0000
0001
0000
0000
0000
,
0100
0000
0000
0000
0031
0000
0000
1000
0000
0000
0010
0000
0200
0000
0000
0000
,
0010
0000
0000
0000
0001
0000
0000
0000
0310
0000
0000
0100
0000
0000
0001
0000
,
0002
0000
0010
0000
1000
0000
0013
0001
,
1000
0001
1000
0000
1010
0000
0001
0000
,
0011
0000
0000
0001
0000
0000
1000
0000
0100
0000
0000
0000
1100
0000
0000
0000
,
1000
0000
0000
0000
1001
0000
0000
0001
0000
0000
0100
0000
1000
0000
0000
0000
,
0100
0000
0010
0000
0000
0000
0100
0000
0001
0000
0000
0010
0000
0000
0100
0000
,
1000
0000
0001
0100
0010
0000
0110
0000
,
1001
0000
0000
0000
2100
0000
0000
0001
0000
0001
0000
3001
0000
0000
1000
0000
,
0100
0000
0001
0000
0100
0000
0010
0000
0002
0000
0000
1000
0000
1000
0000
1003
,
0000
0000
0001
0000
0100
0000
1000
0000
1000
0000
0000
0000
0210
0000
0000
0010
,
0000
0010
0000
0310
0000
0000
0100
0000
0010
0000
1000
0000
0100
0000
0010
0000
,
1000
0000
0000
1000
0000
0010
0000
0001
0000
1000
0000
0000
0010
0000
0100
0000
,
0001
0000
0000
0000
2010
0000
0000
0001
0000
0001
0000
3001
0000
0000
1000
0000
,
0010
0000
0001
0000
0010
0000
0100
0000
0002
0000
0000
1000
0000
1000
0000
1003
,
0000
0000
0001
0000
0010
0000
1000
0000
1000
0000
0000
0000
0110
0000
0000
0010
,
0000
0000
0001
0000
0000
0100
0000
0000
0010
0000
0000
1000
0000
0000
0100
0000
,
0000
0010
0000
0000
0001
0000
0000
0000
0100
0000
0010
0000
0100
0000
0000
0000
,
0001
0000
0000
0000
0010
0000
0000
0100
0000
1000
0000
0001
0000
0000
0100
0000
,
0010
0000
0000
0000
1001
0000
0000
0000
1100
0000
0000
0100
0000
0000
0001
0000
,
0000
0100
0000
0000
1000
0000
0010
0000
0100
0000
0001
0000
1000
0000
0000
0010
,
0000
0000
0001
0000
0000
0010
0000
0000
0100
0000
0001
0000
1000
0000
0000
0000
,
0001
0000
0000
0010
0000
0000
1000
0000
0000
0010
0000
0000
0100
0000
1000
0000
,
0010
0000
0001
0000
1000
0000
0000
0100
0000
0000
0010
0000
0000
1000
0000
0000
,
0001
0010
0100
0000
1000
0100
0001
0100
,
0010
0001
1000
0010
0001
0010
0100
0001
,
0010
0001
0100
1000
0100
0010
1000
0000
,
0001
0100
1000
0100
0010
1000
0001
0010
,
1000
0010
0100
1000
0010
1000
0100
0001
,
0100
0010
0001
1000
0001
0000
0000
0000
,
0000
0000
0000
0000
1001
0000
0000
0000
1001
0000
0000
0000
1000
0000
0000
0100
,
0000
0010
0000
0001
0000
1000
0000
0000
0001
0000
0100
0000
0010
0000
0100
0000
,
0001
0000
0000
1000
0000
0100
0000
0010
0000
0001
0000
0000
1000
0000
0010
0000
,
0001
0000
0010
0000
1000
0000
0000
0010
0000
0100
0000
0001
0000
1000
0000
0000
,
0001
0000
0010
0000
0100
0000
0010
0000
0001
0000
0000
1000
0000
0010
0000
0100
,
0000
0001
0000
0000
1000
0000
0100
0000
0001
0000
0100
0000
1000
0000
0000
0010
,
0000
0100
0000
1000
0000
0100
0000
0000
0001
0000
0010
0000
0100
0000
1000
0000
,
0001
0000
0000
0010
0000
0100
0000
0001
0000
0100
0000
0000
1000
0000
0010
0000
,
0001
0000
0010
0000
1000
0000
0000
0100
0000
0010
0000
1000
0000
0010
0000
0000
,
0001
0000
0100
0000
0010
0000
1000
0000
0001
0000
0000
0100
0000
0010
0000
0001
,
0000
0010
0000
0000
1000
0000
0100
0000
0001
0000
0100
0000
1000
0000
0000
1010
,
0000
0000
0001
0000
0000
0011
0000
0000
1000
0000
0010
0000
0100
0000
0001
0000
,
1000
0000
0000
1100
0000
0000
0001
0000
0000
0101
0000
0000
1000
0000
0100
0000
,
0010
0000
0001
0000
0100
0000
0000
1001
0000
0000
0010
0000
0000
1001
0000
0000
,
1000
0000
0001
0000
0010
0000
0100
0000
0010
0000
0000
1001
0000
0000
0100
0000
,
0000
1001
0000
0000
1000
0000
0001
0000
0010
0000
0100
0000
1000
0000
0000
0101
,
0000
0000
0001
0000
0000
1100
0000
0000
1000
0000
0100
0000
0001
0000
0100
0000
,
1000
0000
0000
0011
0000
0000
0001
0000
0000
1010
0000
0000
1000
0000
0010
0000
,
0001
0000
0010
0000
1000
0000
0000
0011
0000
0000
0001
0000
0000
1100
0000
0000
,
0001
0000
0100
0000
1000
0000
0001
0000
0010
0000
0000
0101
0000
0000
0010
0000
,
0000
1100
0000
0000
0001
0000
0010
0000
1000
0000
0010
0000
1001
0000
0000
0000
,
0000
0000
0000
0000
0000
0110
0000
0000
0000
0000
0000
0000
1000
0000
0100
0000
,
1100
0000
0000
0000
0000
0000
0000
0000
0000
0011
0000
0000
0000
0000
0000
0000
,
0001
0000
1000
0000
1001
0000
0000
0000
0000
0000
0000
0000
0000
0101
0000
0000
,
0000
0000
1000
0010
1010
0000
0000
0000
,
0000
1001
0000
0001
1000
0000
0100
0000
0001
0000
1000
0000
0010
0000
0001
0000
,
1000
0001
1000
0100
0000
0000
0000
0000
0000
0000
0000
0000
0000
0000
0000
0000
;

//---------------dance-single - ----------------
#NOTEDATA:;
#CHARTNAME:;
#STEPSTYPE:dance-single;
#DESCRIPTION:;
#CHARTSTYLE:;
#DIFFICULTY:Easy;
#METER:7;
#RADARVALUES:0.288600,0.289048,0.108523,0.091827,0.041740,242.000000,229.000000,13.000000,11.000000,0.000000,0.000000,0.000000,0.000000,0.000000,0.288600,0.289048,0.108523,0.091827,0.041740,242.000000,229.000000,13.000000,11.000000,0.000000,0.000000,0.000000,0.000000,0.000000;
#CREDIT:BlindedVanguard573;
#NOTES:
0000
0000
0000
0000
,
0000
0000
0000
0000
,
0000
0000
0001
0000
,
0000
0010
0000
0000
0000
0000
0000
0000
0000
0000
0000
0000
0100
0000
0000
0000
,
0000
0000
0000
0000
0000
1000
0000
0000
0001
0000
0000
0000
1000
0000
0000
0000
,
0001
0100
0010
1000
,
0010
1000
0100
0010
,
0001
0010
0001
0100
,
1000
0100
0010
1000
,
0100
0001
0100
0010
,
0001
0000
0000
0000
,
0000
2000
0000
3000
,
0001
0100
0020
0000
,
0030
0100
0001
2000
,
0000
3000
0100
0010
,
0200
0000
0300
1000
,
0001
1001
0001
0100
,
0010
1000
0001
0010
,
0100
1000
0001
0010
,
0001
0100
0010
1000
,
0100
1000
0001
1000
,
1001
0002
1000
1003
,
0001
0100
0020
1000
,
1030
0100
0010
0200
,
0001
0301
0100
0010
,
0001
0001
0001
1000
,
1001
0002
0100
0103
,
0001
0010
0200
1000
,
1300
0001
1000
1001
,
0000
0001
0000
0000
0100
0000
0000
0010
,
0000
1000
0100
1000
,
2002
3003
0000
0000
,
0000
0000
0001
0100
,
1000
0100
0010
1000
,
0100
0001
0100
0010
,
0001
0100
0010
0001
,
0010
1000
1000
1000
,
0001
1001
1000
0100
,
0001
0100
0010
0001
,
0100
1000
0100
0010
,
1000
0100
0010
1000
,
0010
0001
0001
0001
,
1000
0001
1001
0000
,
0000
1001
1001
1000
,
0000
0000
0000
0000
0000
0010
0000
0000
0000
0000
0000
0000
0000
0000
0000
0000
,
0100
0000
0000
0000
0000
0000
0000
0000
0000
0001
0000
0000
1000
0000
0000
0000
,
0001
0000
0000
0000
1000
0000
0000
0000
0000
0000
0000
0000
0000
0010
0000
0000
,
0000
0000
0100
0000
,
0000
0001
0000
0000
1000
0000
0000
0000
0001
0000
0000
0000
1000
0000
0000
0000
,
0100
0010
0001
0010
,
0001
0100
0010
1000
,
0010
1000
0100
0001
,
0100
0010
0001
0100
,
1000
0100
0010
1000
,
1000
1000
0100
0010
,
0001
0001
0001
0100
,
0010
0100
0100
0100
,
0001
1000
0010
0010
,
0010
1000
0001
1000
,
0100
0001
0100
0010
,
0001
0100
1000
0100
,
0010
1000
0100
0010
,
1000
0010
0001
0100
,
0010
0001
0010
1000
,
0000
0000
0000
0000
0000
0001
0000
0000
0000
0000
0000
0000
0010
0000
0000
0000
,
0010
0000
0000
0000
0000
0000
0000
0000
0000
0100
0000
0000
1000
0000
0000
0000
,
0001
0000
0000
0000
1001
0000
0000
0000
0000
0000
0000
0000
0000
0101
0000
0000
,
0000
1000
1010
0000
,
0000
1001
0000
0000
0001
0000
0000
0000
0100
0000
0000
0000
1000
0000
0000
0000
,
0010
0001
0000
0000
;

//---------------dance-single - ----------------
#NOTEDATA:;
#CHARTNAME:;
#STEPSTYPE:dance-single;
#DESCRIPTION:;
#CHARTSTYLE:;
#DIFFICULTY:Beginner;
#METER:3;
#RADARVALUES:0.168151,0.172802,0.008348,0.000000,0.000000,141.000000,140.000000,1.000000,0.000000,0.000000,0.000000,0.000000,0.000000,0.000000,0.168151,0.172802,0.008348,0.000000,0.000000,141.000000,140.000000,1.000000,0.000000,0.000000,0.000000,0.000000,0.000000,0.000000;
#CREDIT:BlindedVanguard573;
#NOTES:
0000
0000
0000
0000
,
0000
0000
0000
0000
,
0000
0000
0000
0000
,
0000
0000
0000
0000
,
0000
0000
0000
0000
,
0001
0000
0000
0010
,
0010
0010
0000
0000
,
0100
0100
0100
0000
,
0000
1000
1000
1000
,
0000
0000
0001
0001
,
0001
0000
0000
0000
,
0000
0100
0000
0000
,
0010
0010
0010
0000
,
0000
1000
1000
1000
,
0000
0000
0001
0001
,
0001
0000
0000
0000
,
0000
0010
0000
0000
,
0100
0100
0100
0000
,
0000
1000
1000
1000
,
0000
0000
0001
0001
,
0001
0000
0000
0000
,
0000
0010
0010
0010
,
0000
0000
0100
0100
,
0100
0000
0000
1000
,
1000
1000
0000
0000
,
0010
0010
0010
0000
,
0000
0100
0100
0100
,
0000
0000
0001
0001
,
0001
0000
0000
0010
,
0000
0000
0100
0000
,
0000
1000
0000
0000
,
1001
0000
0000
0000
,
0000
0000
1000
0000
,
0000
0010
0010
0010
,
0000
0000
0100
0100
,
0100
0000
0000
0001
,
0001
0001
0000
0000
,
0010
0010
0010
0000
,
0000
0100
0100
0100
,
0000
0000
1000
1000
,
1000
0000
0000
0001
,
0001
0001
0000
0000
,
0100
0100
0100
0000
,
0000
0010
0010
0010
,
0000
0000
0000
1000
,
1000
0000
0000
0100
,
0100
0100
0000
0000
,
0000
0010
0010
0000
,
0000
0001
0001
0001
,
0000
0000
0100
0100
,
0100
0000
0000
0010
,
0010
0010
0000
0000
,
1000
1000
1000
0000
,
0000
0001
0001
0001
,
0000
0000
0010
0010
,
0010
0000
0000
0100
,
0100
0100
0000
0000
,
1000
1000
1000
0000
,
0000
0010
0010
0010
,
0000
0000
0100
0100
,
0100
0000
0000
0001
,
0001
0001
0000
0000
,
0010
0010
0010
0000
,
0000
0100
0100
0100
,
0000
0000
0000
1000
,
1000
0000
0000
0001
,
0001
0001
0000
0000
,
0000
0100
0100
0000
,
0000
0010
0010
0010
,
0010
0000
0000
0000
;
