#TITLE:Caldwell 99;
#SUBTITLE:;
#ARTIST:BlackY;
#TITLETRANSLIT:;
#SUBTITLETRANSLIT:;
#ARTISTTRANSLIT:;
#GENRE:;
#CREDIT:valgrind;
#MUSIC:caldwell99.ogg;
#BANNER:caldwell99-bn.png;
#BACKGROUND:caldwell99-bg.png;
#CDTITLE:;
#SAMPLESTART:0.000;
#SAMPLELENGTH:0.000;
#SELECTABLE:YES;
#OFFSET:-0.001;
#BPMS:0.000=142.000;
#STOPS:;
#BGCHANGES:;
#FGCHANGES:;

//--------------- dance-single - ----------------
#NOTES:
     dance-single:
     :
     Medium:
     12:
     0,0,0,0,0:
0000
0000
0000
0000
,
0000
0000
0000
0000
,
0000
0000
0000
0000
,
0000
0000
0000
0000
,
0000
0000
0000
0000
,
0001
1000
0001
0100
,
0010
1000
0010
0100
,
0001
0010
0001
1000
,
2002
0000
0000
3003
0220
0000
0000
0330
,
1000
0000
0001
0010
0001
0000
1000
0010
,
1000
0000
0001
0100
0001
0000
1000
0100
,
1000
0010
0100
0001
1000
0100
0010
0001
,
1000
0000
0000
0000
0000
0000
0020
0030
,
1001
0000
2000
3000
2000
3000
2000
3100
,
0010
0001
0001
1000
0010
0100
0001
0010
,
0001
0000
0100
0000
0010
0000
0002
0003
0010
0000
0100
0000
0001
0000
0001
0000
,
2000
0000
3000
0200
0000
0300
0020
0000
0031
0000
0000
0100
0000
0000
0010
0000
,
1000
0001
0010
0100
1000
0001
0100
0010
,
1000
0001
0010
0001
0100
0010
0001
0010
,
2000
0000
3000
0020
0000
0030
0200
0000
0302
0000
0003
2000
0000
3000
0200
0000
,
1300
0001
1000
0110
,
2002
0000
0000
3003
,
0001
0100
0010
0001
0010
0100
0001
0000
,
1000
0100
0010
1000
0010
0100
1000
0000
,
0002
0000
0003
0020
0000
0030
0200
0000
1300
0000
0000
0010
0000
0000
0100
0000
,
0001
1000
0100
0001
0100
0010
0001
0000
,
1000
0001
0100
1000
0100
0010
1000
0000
,
0001
0010
0100
0001
1000
0010
0001
0000
,
2002
0000
0000
3003
,
1000
0000
0000
0001
0000
0000
1000
0000
0000
0100
0000
0000
0010
0000
0001
0000
,
0200
0000
0000
0320
0000
0000
0032
0000
0000
0000
0023
0000
0000
0000
2030
0000
,
3001
1000
0010
0100
0001
0010
0100
1000
,
0001
1000
0010
0200
0000
0310
1000
0100
,
0010
0000
0000
0011
0000
0000
1001
0000
0000
0000
0002
0000
0000
0000
0103
0000
,
0010
0000
0000
1010
0000
0000
1001
0000
0000
0000
2000
0000
0000
0000
3200
0000
,
0310
0001
1000
0010
1000
0100
0010
0001
,
0000
2002
0000
0000
0000
0000
3003
0000
,
2000
0000
3020
0000
,
0230
0000
0000
0000
,
0302
0000
2003
0000
,
3200
0000
0000
0000
,
2300
0000
3020
0000
,
0230
0000
0000
0000
,
0302
0000
0000
0000
,
0023
0000
0000
0000
0130
1000
0001
0000
,
1000
0001
1000
0100
,
0010
0001
1000
0001
,
0100
0001
1000
0001
,
0010
0100
1000
0100
,
0220
0330
0220
0330
,
2000
3000
2000
3000
0002
0003
0002
0003
,
1000
0010
1000
0010
0100
0001
0100
0001
,
2000
0000
0000
3000
,
0100
0000
0000
0010
0000
0000
0100
0000
1000
0000
0000
0010
0000
0000
0100
0000
,
0001
0010
0001
0000
1000
0010
1000
0001
,
0010
0000
0000
0100
0000
0000
0010
0000
0001
0000
0000
0100
0000
0000
2000
0000
,
0000
0000
3001
0000
0010
0000
0001
0000
0010
0000
0000
1000
0000
0000
0001
0000
,
0010
0100
1000
0010
0100
0001
1000
0100
,
0010
0000
0100
0000
1000
0000
0010
0000
0001
0000
0000
0010
0000
0000
1000
0000
,
2002
0000
0000
3003
0220
0000
0000
0330
,
1000
0000
0000
0001
0000
0000
0010
0000
0100
0000
1000
0000
0010
0000
0100
0000
,
0001
0000
1000
0000
0100
0000
0010
0000
2000
0000
0000
3002
0000
0000
0203
0000
,
0310
0100
1000
0010
0100
0010
1000
0100
,
1000
0000
0001
0000
0100
0000
0010
0000
0002
0000
0000
2003
0000
0000
3200
0000
,
0301
0010
0100
0010
1000
0001
0100
1000
,
0001
0010
0001
0100
0010
1000
0100
1000
,
0001
0100
1000
0001
0010
0100
0001
0010
,
0100
0000
0000
1100
0000
0000
0011
0000
0000
1010
0000
0000
0220
0000
0000
0000
,
0000
0000
0000
0000
,
0330
0000
0000
0000
0000
0000
0000
0000
0000
0000
0202
0000
0303
2200
0000
3300
,
2002
0000
3003
2002
0000
3003
0000
0000
0000
0000
0000
0000
0000
0000
0000
0000
;

//--------------- dance-single - ----------------
#NOTES:
     dance-single:
     :
     Hard:
     15:
     0,0,0,0,0:
0000
0000
0000
0000
,
0000
0000
0000
0000
,
0000
0000
0000
0000
,
0000
0000
0000
0000
,
0000
0000
0000
0000
,
0001
0000
0000
1000
0000
0000
0010
0000
0000
1000
0000
0000
0001
0000
0000
0000
,
0010
0000
0000
0100
0000
0000
1000
0000
0000
0100
0000
0000
0010
0000
0000
0000
,
0001
0000
0000
0100
0000
0000
0010
0000
0000
0100
0000
0000
0001
0000
0000
0000
,
2002
0000
0000
3003
0220
0000
0000
0330
,
1000
0000
0001
0100
0001
0000
0001
0010
,
0001
0000
1000
0100
1000
0000
1000
0010
,
1000
0001
0010
0100
1000
0000
0001
0000
1000
0001
0100
0010
1000
0000
0001
0000
,
0010
0000
0000
0000
0000
0000
0220
0330
,
2002
0000
3003
0000
0002
0000
0003
0000
0002
0000
0003
0000
1000
0000
0010
0100
,
0010
0000
1000
0000
1000
0000
0001
0000
0010
0100
1000
0100
0000
0010
0001
0010
,
0001
0000
0100
0000
0010
0000
0002
0000
0013
0000
0100
0000
0002
0003
0002
0003
,
1000
0000
0001
0010
0000
0100
1000
0000
0001
0000
0100
0010
0000
0010
1000
0000
,
0002
0000
0000
1003
0100
0010
0100
0010
0002
0000
0000
1003
0010
0100
0010
0000
,
2000
0000
3000
0001
0010
0001
1000
0000
0020
0000
0000
0130
0001
1000
0100
0000
,
0010
0000
0000
0100
0000
0100
1000
0000
0001
0000
0000
0100
0000
0100
0010
0000
,
1000
0000
0001
0000
0010
0000
0100
0000
1000
0100
0000
0010
0001
0000
1000
0000
,
2002
0000
0000
3003
,
0001
0000
0100
0000
0001
1000
0100
1000
0000
0001
0100
0001
1000
0000
0010
0000
,
1000
0000
0100
0000
1000
0001
0100
0001
0000
1000
0100
1000
0000
0001
0010
0001
,
1000
0000
0001
0100
0000
0010
1000
0000
0001
0000
0010
0100
0000
0100
1000
0000
,
0002
0000
0003
1000
0100
0010
0100
1000
0000
0001
0000
1000
0000
0100
0010
0001
,
2000
0000
3000
0001
0100
0010
0100
0001
0000
1000
0000
0100
0000
0010
0001
1000
,
0002
0000
0003
1000
0010
0100
0010
1000
0000
0100
0000
1000
0000
0010
0100
0001
,
2000
0000
0000
3002
0000
0000
0003
0000
,
1000
0000
0001
0010
0000
0001
1000
0000
0100
1000
0000
0000
0001
0010
0100
1000
,
0020
0000
0000
0230
0000
0000
2300
0000
0000
0000
3200
0000
0000
0000
0302
0000
,
1003
0000
0001
0100
0000
0001
1000
0000
0010
1000
0200
0000
0310
0000
0001
0000
,
1000
0000
0001
0010
0000
0001
0100
0000
0010
1000
0000
0000
0001
0100
0010
1000
,
0100
0000
0000
0011
0000
0000
1010
0000
0000
0000
0002
0000
0000
0000
0203
0000
,
0310
0000
0000
0101
0000
0000
2100
0000
0000
0000
3002
0000
1003
0000
0200
0000
,
0310
0000
0000
1100
0000
0000
0102
0000
0000
1003
0100
0000
1000
0000
0010
0000
,
0000
0220
0000
0000
0000
0000
0000
0330
,
2000
0000
3002
0000
,
0023
0000
0000
0000
,
0230
0000
2300
0000
,
3020
0000
0230
0000
,
0301
0000
0000
1000
0000
0000
0100
0000
0010
0000
0000
0001
0000
0000
0100
0000
,
0010
0000
0000
1000
0000
0000
0100
0000
0000
0000
1000
0000
0000
0001
0000
0000
,
1000
0000
0000
0010
0000
0000
0100
0000
0000
0000
0002
0000
0000
0000
1003
0000
,
1100
0000
0000
0011
0000
0000
1001
0000
0000
0000
0001
0000
0100
0000
0001
0000
,
1000
0000
0000
0100
0000
0000
0010
0000
0000
0100
0000
0000
1000
0000
0000
0000
,
0001
0000
0000
0100
0000
0000
0010
0000
0000
0100
0000
0000
0001
0000
0000
0000
,
1000
0000
0000
0010
0000
0000
0100
0000
0000
0010
0000
0000
1000
0000
0000
0000
,
0001
0000
0000
0010
0000
0000
0100
0000
0000
0010
0000
0000
0001
0000
0100
0000
,
0220
0330
0220
0330
,
2002
3003
0220
0330
2002
3003
0220
0330
,
0001
0000
0001
0000
1000
0000
1000
0000
0001
0100
0001
0100
0010
1000
0010
1000
,
0002
0000
0000
0000
0000
0000
0000
0000
0000
0000
0013
0000
0000
0100
0000
0000
,
1000
0000
1000
0010
0M00
0010
0001
0000
1000
0000
0001
0100
00M0
0100
1000
0000
,
0000
0000
0001
0100
0000
0010
0000
1000
0000
0100
1000
0001
0010
0000
0100
1000
,
0001
0000
0001
0100
00M0
0100
1000
0000
0001
0000
1000
0010
0M00
0010
0001
0000
,
0000
0000
0100
0010
0100
0010
0100
0010
1000
0000
0000
0100
0000
0000
0010
0000
,
0001
0000
1000
0100
1000
0001
0000
0100
0000
0010
1000
0000
0001
0100
0001
0000
,
1000
0100
1000
0000
0001
0010
0001
0000
0100
0000
0000
0010
0000
1000
0000
0000
,
2002
0000
3003
0010
0220
0000
0330
1000
,
0001
0000
0000
0010
0000
0000
0001
0000
1000
0000
0000
0010
1000
0001
0100
0001
,
1000
0000
0001
1000
0100
0000
0010
0001
0200
0000
0000
1300
0000
0100
0001
0000
,
1000
0000
0100
1000
0000
0010
0000
0200
0000
0301
1000
0010
1000
0000
0100
1000
,
0001
0000
1000
0001
0100
0000
0010
1000
0200
0000
0000
0301
0000
0100
1000
0000
,
0001
0000
0010
0000
0001
0100
0000
2000
0000
3100
0000
0020
0000
0130
0001
0000
,
1000
0000
0001
0010
0100
0000
1000
0001
0100
0000
0010
1000
0100
0000
0010
1000
,
0010
0000
0100
1000
0001
0000
1000
0010
0001
0010
0000
0100
0000
0001
1000
0000
,
1010
0000
0000
0011
0000
0000
1100
0000
0000
0101
0000
0000
2002
0000
0000
0000
,
0000
0000
0000
0000
0000
0000
0000
0000
0000
0000
0000
3003
0000
1000
0100
1000
,
0001
0010
0000
0001
0000
1000
0000
0020
0000
0030
0202
0000
0303
2200
0000
3300
,
2002
0000
3003
2002
0000
3003
0000
0000
0000
0000
0000
0000
0000
0000
0000
0000
;

//--------------- dance-single - ----------------
#NOTES:
     dance-single:
     :
     Challenge:
     17:
     0,0,0,0,0:
0000
0000
0000
0000
,
0000
0000
0000
0000
,
0000
0000
0000
0000
,
0000
0000
0000
0000
,
0000
0000
0000
0000
,
0001
0100
0000
0010
1000
0000
0001
0100
0000
0010
1000
0000
0001
0000
0100
0010
,
1000
0100
0000
0010
0001
0000
1000
0100
0000
1000
0020
0000
0130
0001
0100
0010
,
1000
0001
0000
0010
0100
0000
1000
0001
0000
0010
0100
0000
2000
0000
3001
0000
,
0102
0000
0000
1003
0000
0000
0100
0000
1100
0000
1000
0001
1000
0010
0000
1000
,
0001
1000
0000
0100
0000
0010
0001
0000
1000
0001
0000
0100
0000
0001
0010
0000
,
0001
1000
0000
0010
0000
0100
0001
0000
1000
0001
0000
0010
0000
0001
0100
0000
,
0000
0010
1000
0100
0010
0001
1000
0100
0000
0010
0001
0100
0001
1000
0010
0100
,
0001
1000
0001
0010
0100
1000
0001
0100
1000
0100
0010
1000
0100
0010
0001
1000
,
0200
0000
0300
0000
0020
0000
0000
0030
0020
0000
0000
0030
0001
0000
0001
1000
,
0001
0100
0010
0000
0010
0000
1000
0000
0001
0100
0100
1000
0000
0010
0010
0001
,
1000
0100
0010
0001
0100
0000
2000
0000
3100
0000
0010
0000
2000
3000
2000
3000
,
0100
00M0
0200
0001
0000
0310
1000
0000
0001
0010
0100
1000
0000
1000
0020
0000
,
0130
0010
1000
0100
0010
0001
1000
0010
0M00
0010
0001
0100
0010
1000
0001
0010
,
0M00
0000
0010
0000
1000
0000
0100
0000
0010
0000
0001
0000
1000
0000
0010
0000
1000
0000
0200
0000
0000
0300
0001
0000
0100
0000
0010
0000
0001
0000
2000
0000
,
0010
0000
0000
0100
0000
0000
3002
0000
0010
0000
0000
0100
0000
0000
1003
0000
,
0001
0000
0000
0000
0000
0000
1000
0000
0000
0100
0000
0000
1000
0000
0000
0000
0000
0000
0001
0000
0000
0100
0000
0000
0010
0000
1000
0000
0010
0000
1000
0000
0000
0000
0000
0000
0100
0000
0000
0000
0000
0000
0010
0000
0000
0000
0000
0000
,
0120
0000
0000
0000
0000
0000
0130
0000
0000
1000
0100
0010
0001
0000
1000
0000
0001
0000
0100
0000
0010
0000
1000
0000
,
0100
0000
0000
1000
0000
0000
0002
0000
0000
0000
0000
0000
1003
0000
0000
0100
0000
0000
0100
0000
0000
0010
0000
0000
0000
0000
0000
0100
0000
0000
0100
0000
0000
0010
0000
0000
0001
0000
0000
0000
1000
0000
0000
0000
0010
0000
0000
0000
,
0100
0000
0000
0001
0000
0000
2000
0000
0000
0000
0000
0000
3001
0000
0000
0100
0000
0000
0100
0000
0000
0010
0000
0000
0000
0000
0000
0100
0000
0000
0100
0000
0000
0010
0000
0000
1000
0000
0000
0000
0001
0000
0000
0000
0100
0000
0000
0000
,
0010
M000
0020
0001
0000
0130
1000
0000
0001
0100
0010
1000
0000
1000
0200
0000
,
0320
0000
0000
0000
0000
0000
0031
0000
0000
0000
0000
0000
1000
0000
0000
0001
0000
0000
0100
0000
0000
0001
0000
0000
0000
0000
0000
0100
0000
0000
0100
0000
0000
1000
0000
0000
0001
0000
0000
0000
0010
0000
0000
0000
0001
0000
0000
0000
,
0200
0000
0000
0310
1000
0010
0010
0100
0000
0010
0010
0100
0001
1000
0100
0000
,
0010
0000
0001
1000
0000
0010
0010
0100
0000
0010
0010
0100
0000
0010
0010
0001
,
2000
0000
0000
0000
3000
0001
0010
0001
1000
0100
0000
0010
0001
0000
0100
0000
,
0101
0000
0000
0000
0000
0000
0000
0000
0000
0001
0000
0000
0000
0000
0000
0000
0000
0000
1100
0000
0000
0000
0000
0000
0000
0000
0000
1000
0000
0000
0000
0000
0000
0000
0000
0000
0001
0000
1000
0000
0100
0000
0010
0000
0001
0000
1000
0000
,
0020
0000
0000
0230
0000
0000
2300
0000
0000
0000
3200
0000
0000
0000
0302
0000
,
1003
0000
0100
1000
0001
0100
0001
1000
0100
0010
1000
0010
0100
1000
0010
1000
,
0000
0000
0000
0001
0000
0000
0000
0000
0000
0100
0000
0000
0010
0000
0000
1000
0000
0000
0100
0000
0000
0010
0000
0000
0000
0000
0000
0001
0000
0000
0000
0000
0000
0000
0000
0000
1000
0000
0100
0000
0010
0000
0001
0000
1000
0000
0001
0000
,
0100
0000
0010
0100
0000
0000
0110
0000
0000
0010
2000
0000
0000
0000
3002
0000
,
0013
0000
0100
0010
0000
0000
2100
0000
0000
3001
0010
0000
0001
0000
0200
0000
,
0301
0000
1000
0010
1000
0001
0000
0010
0100
1000
0001
0100
0010
1000
0100
0000
,
0010
0000
0000
0001
0100
0001
1000
0000
0010
0000
1000
0000
0100
0000
0010
0000
0001
0000
1000
0000
0010
0000
0100
0000
,
0001
0000
0000
1000
0000
0000
0100
0000
0010
0000
0000
0001
0000
1000
0000
0000
,
2001
0000
0000
3010
0000
0000
0200
0000
0000
0000
0301
0010
0000
0100
0000
1000
,
0001
0000
0100
0010
0000
0100
0000
0001
1000
0100
1000
0001
0010
0100
0000
1000
,
0000
0000
0000
0010
0000
0000
1000
0000
0000
0000
0000
0000
0001
0000
0000
0000
0010
0000
0000
0000
0100
0000
0000
0000
1000
0000
0000
0000
0000
0000
0001
0000
0000
1000
0000
0000
0000
0000
0000
0002
0000
0000
0010
0000
0000
0000
0000
0000
,
1003
0000
0000
0001
0000
0000
0100
0000
0010
0000
1000
0100
0000
0000
0010
0000
,
0120
0000
0000
0031
0000
0000
0200
0000
0300
0000
2010
0000
0000
3001
0000
0100
,
0001
0000
1000
0000
0100
0000
0000
0010
0000
0000
0200
0000
0000
0000
1300
0000
,
1010
0000
0000
0000
0000
0000
0000
0000
0000
0101
0000
0000
0000
0000
0000
0000
0000
0000
1001
0000
0000
0000
0000
0000
1000
0000
0000
0000
0000
0000
0001
0000
0010
0000
0100
0000
1000
0000
0000
0001
0000
0000
0100
0000
0000
0000
0000
0000
,
0001
0010
0000
0100
1000
0000
0001
0010
0000
0100
1000
0000
0001
0000
0010
0001
,
1000
0010
0000
0100
0001
0000
1000
0010
0000
0100
0001
0000
1000
0001
0100
0010
,
1000
0100
0000
0010
0001
0000
1000
0100
0000
0010
0001
0000
1000
0000
0100
1000
,
0001
0100
0000
0010
1000
0000
0001
0100
0000
0010
1000
0000
0001
0000
0010
0000
,
0012
0000
0000
0000
0000
0000
0000
0000
0000
1003
0000
0000
0000
0000
0000
0200
0000
0000
0000
0000
0000
0300
0000
0000
2100
0000
0000
0000
0000
0000
0000
0000
0000
3001
0000
0000
0100
0000
0000
0000
0010
0000
0000
0000
0100
0000
0000
0000
,
0020
0000
0030
0010
2000
0000
3000
1000
0002
0000
0003
0001
0020
0000
0030
0010
,
0001
0000
0001
0000
1000
0000
1000
0000
0010
0100
0010
0100
0010
0100
0010
0100
,
0001
0000
0000
0000
0000
0000
1000
0000
0000
0100
0000
0000
0010
0000
0000
0000
0000
0000
0001
0000
0000
0010
0000
0000
0100
0000
1000
0000
0100
0000
0010
0000
0000
0000
0000
0000
0001
0000
0000
2000
0000
0000
0000
0000
0000
0000
0000
0000
,
3001
0000
0001
0100
00M0
0100
1000
0000
0001
0000
0010
0100
M000
0100
0001
0000
,
1000
0000
0100
1000
0000
0010
0000
0200
0000
0301
1000
0100
1000
0001
0010
0001
,
1000
0000
1000
0010
000M
0010
0001
0000
1000
0000
0001
0010
M000
0010
0100
0000
,
0001
0000
0000
0000
0000
0000
0100
0000
0000
0001
0000
0000
0100
0000
0010
0000
0100
0000
0001
0000
0100
0000
0001
0000
1000
0000
0000
0000
0000
0000
0001
0000
0000
0010
0000
0000
0000
0000
0000
0100
0000
0000
1000
0000
0000
0000
0000
0000
,
0001
0000
0100
0010
0100
0001
0000
0010
0000
0100
1000
0001
0100
0010
1000
0100
,
0010
0100
1000
0001
0010
0001
1000
0010
0002
0000
0013
0200
0000
0310
0000
1000
,
1002
0000
0000
1003
0010
0100
0100
1000
0001
0010
0020
1000
0000
0130
0001
0000
,
0102
0000
0000
0013
0100
0000
1000
0000
2001
0000
0000
0000
3001
0010
0100
1000
,
0010
000M
0010
0001
1000
0000
0100
1000
0020
0000
0130
1000
0000
0100
0002
0000
,
1003
0000
0100
2000
0000
3020
0000
1030
0001
0100
0010
1000
0001
0100
0001
0010
,
0100
000M
0100
0001
1000
0000
0010
1000
0200
0000
0310
1000
0000
0010
0002
0000
,
1003
0000
0020
0000
1030
0200
0000
0302
0000
0103
0000
0020
0000
0031
0100
0010
,
2000
0000
3010
0100
0001
1000
0100
1000
0010
1000
0001
0100
0001
1000
0010
0001
,
0020
0000
0130
0001
0010
0100
0010
1000
0001
0100
1000
0002
0000
0103
0010
0100
,
0002
0000
0003
2200
0000
3300
0022
0000
0033
2020
0000
3030
2002
0000
0000
0000
,
0000
0000
0000
0000
0000
0000
0000
0000
0000
0000
3003
0000
0000
0001
1000
0001
,
0100
0010
0000
0100
0000
0001
0000
0020
0000
0030
2200
0000
3300
0202
0000
0303
,
2002
0000
3003
2002
0000
3003
0000
0000
0000
0000
0000
0000
0000
0000
0000
0000
;
