#VERSION:0.83;
#TITLE:By Chance;
#SUBTITLE:;
#ARTIST:Baby V.O.X;
#TITLETRANSLIT:;
#SUBTITLETRANSLIT:;
#ARTISTTRANSLIT:;
#GENRE:K-POP;
#ORIGIN:;
#CREDIT:MILEN;
#BANNER:By Chance.png;
#BACKGROUND:By Chance-bg.png;
#PREVIEWVID:;
#JACKET:By Chance-jacket.png;
#CDIMAGE:;
#DISCIMAGE:;
#LYRICSPATH:;
#CDTITLE:;
#MUSIC:By Chance.ogg;
#OFFSET:-0.033000;
#SAMPLESTART:61.813995;
#SAMPLELENGTH:11.980000;
#SELECTABLE:YES;
#BPMS:0.000=127.000;
#STOPS:;
#DELAYS:;
#WARPS:;
#TIMESIGNATURES:0.000=4=4;
#TICKCOUNTS:0.000=2;
#COMBOS:0.000=1;
#SPEEDS:0.000=1.000=0.000=0;
#SCROLLS:0.000=1.000;
#FAKES:;
#LABELS:0.000=Song Start;
#LASTSECONDHINT:115.345589;
#BGCHANGES:0.000=By Chance.avi=1.000=1=0=0=StretchNoLoop==CrossFade==,
99999=-nosongbg-=1.000=0=0=0 // don't automatically add -songbackground-
;
#KEYSOUNDS:;
#ATTACKS:
;

//---------------dance-single - ----------------
#NOTEDATA:;
#CHARTNAME:;
#STEPSTYPE:dance-single;
#DESCRIPTION:;
#CHARTSTYLE:;
#DIFFICULTY:Beginner;
#METER:2;
#RADARVALUES:0.109595,0.155612,0.008718,0.008718,0.000000,88.000000,87.000000,1.000000,1.000000,0.000000,0.000000,0.000000,0.000000,0.000000,0.109595,0.155612,0.008718,0.008718,0.000000,88.000000,87.000000,1.000000,1.000000,0.000000,0.000000,0.000000,0.000000,0.000000;
#CREDIT:MILEN;
#NOTES:
0000
0000
0000
0000
,
0000
0000
0000
0000
,
0000
0000
0000
0000
,
0000
0000
0000
0000
,
0000
0000
0000
0000
,
1000
0000
1000
0000
,
1000
0000
0000
0000
,
0001
0000
0001
0000
,
0001
0000
0000
0000
,
1000
0000
0000
0000
,
0100
0000
0000
0000
,
0010
0000
0000
0000
,
0001
0000
0001
0000
,
0001
0000
0000
0000
,
0100
0000
0000
0000
,
0010
0000
0000
0000
,
1000
0000
1000
0000
,
1000
0000
0001
0000
,
1000
0000
0001
0000
,
0100
0000
0010
0000
,
0100
0000
0010
0000
,
1000
0000
0001
0000
,
0100
0000
0010
0000
,
1000
0000
0001
0000
,
0010
0000
0100
0000
,
1000
0000
0000
0000
,
0010
0000
0000
0000
,
0100
0000
0000
0000
,
0001
0000
0001
0000
,
0001
0000
0000
0000
,
0010
0000
0000
0000
,
0100
0000
0000
0000
,
1000
0000
1000
0000
,
1000
0000
0010
0000
,
1000
0000
0010
0000
,
0100
0000
0001
0000
,
0100
0000
0001
0000
,
0010
0000
0001
0000
,
0010
0000
0001
0000
,
1000
0000
0100
0000
,
1000
0000
0100
0000
,
0010
0000
0010
0000
,
0001
0000
0000
0000
,
0001
0000
0001
0000
,
0100
0000
0000
0000
,
0100
0000
0100
0000
,
0010
0000
0000
0000
,
0010
0000
0010
0000
,
1000
0000
0001
0000
,
1001
0000
0000
0000
,
0000
0000
0000
0000
,
1000
0000
1000
0000
,
1000
0000
0000
0000
,
0001
0000
0001
0000
,
0001
0000
0000
0000
,
1000
0000
1000
0000
,
0001
0000
0001
0000
,
1000
0000
0001
0000
,
0010
0000
0100
0000
,
2000
0000
3000
0000
;

//---------------dance-single - ----------------
#NOTEDATA:;
#CHARTNAME:;
#STEPSTYPE:dance-single;
#DESCRIPTION:;
#CHARTSTYLE:;
#DIFFICULTY:Easy;
#METER:5;
#RADARVALUES:0.214208,0.259354,0.095896,0.209227,0.000000,172.000000,161.000000,11.000000,24.000000,0.000000,0.000000,0.000000,0.000000,0.000000,0.214208,0.259354,0.095896,0.209227,0.000000,172.000000,161.000000,11.000000,24.000000,0.000000,0.000000,0.000000,0.000000,0.000000;
#CREDIT:MILEN;
#NOTES:
0000
0000
0000
0000
,
0000
0000
0000
0000
,
0000
0000
0000
0000
,
0000
0000
0000
0000
,
0000
0000
0000
0000
,
1000
0001
1000
0001
,
0100
0200
0300
0000
,
0001
1000
0001
1000
,
0010
0020
0030
0000
,
1000
0100
1000
0000
,
0001
0010
0001
0000
,
1000
0100
0010
0001
,
0100
0010
0110
0000
,
0001
0100
0001
0000
,
1000
0010
1000
0000
,
0001
0100
0010
1000
,
0001
1000
1001
0000
,
0001
0010
0100
0010
,
0001
0010
0100
0000
,
1000
0010
0100
0010
,
1000
0010
0100
0000
,
0001
1000
0100
1000
,
0001
1000
0100
0000
,
1000
0001
0100
0001
,
1000
0001
0200
0300
,
0010
1000
0010
0000
,
0100
0001
0100
0000
,
0010
1000
0100
0010
,
0001
0010
0011
0000
,
0010
0001
0010
0000
,
0100
1000
0100
0000
,
0010
0001
0100
0010
,
1000
0010
1010
0000
,
2000
3000
0002
0003
,
0020
0030
0200
0300
,
2000
3000
0020
0030
,
0100
0100
0100
0000
,
0002
0003
2000
3000
,
0200
0300
0020
0030
,
0002
0003
0200
0300
,
0010
0010
0010
0000
,
0110
0000
1000
0000
,
0001
0000
1000
0010
,
0110
0000
0001
0000
,
1000
0000
0001
0100
,
0110
0000
1000
0000
,
1001
0000
0001
0000
,
0100
0010
1000
0010
,
0100
0001
0100
0010
,
0220
0000
0000
0330
,
2002
0000
0000
3003
,
1000
0001
1000
0001
,
0010
0020
0030
0000
,
0001
1000
0001
1000
,
0100
0200
0300
0000
,
1000
0010
1000
0010
,
0001
0020
0030
0000
,
0001
0010
0001
0010
,
1000
0010
0100
0001
,
2002
0000
3003
0000
;

//---------------dance-double - ----------------
#NOTEDATA:;
#CHARTNAME:;
#STEPSTYPE:dance-double;
#DESCRIPTION:;
#CHARTSTYLE:;
#DIFFICULTY:Easy;
#METER:6;
#RADARVALUES:0.222926,0.259354,0.078460,0.156920,0.000000,179.000000,170.000000,9.000000,18.000000,0.000000,0.000000,0.000000,0.000000,0.000000,0.222926,0.259354,0.078460,0.156920,0.000000,179.000000,170.000000,9.000000,18.000000,0.000000,0.000000,0.000000,0.000000,0.000000;
#CREDIT:MILEN;
#NOTES:
00000000
00000000
00000000
00000000
,
00000000
00000000
00000000
00000000
,
00000000
00000000
00000000
00000000
,
00000000
00000000
00000000
00000000
,
00000000
00000000
00000000
00000000
,
00001000
00010000
00001000
00010000
,
00000010
00000020
00000030
00000000
,
00010000
00001000
00010000
00001000
,
00100000
00200000
00300000
00000000
,
00001000
00010000
00100000
00000000
,
01000000
00100000
00010000
00000000
,
00001000
00010000
00100000
01000000
,
00100000
00010000
00011000
00000000
,
00010000
00001000
00000010
00000000
,
00000100
00000010
00001000
00000000
,
00010000
00001000
00000010
00000100
,
00000010
00001000
00011000
00000000
,
00010000
00100000
10000000
00100000
,
00010000
00100000
10000000
00000000
,
01000000
00010000
00001000
00010000
,
01000000
00010000
00001000
00000000
,
00010000
00001000
00000100
00001000
,
00010000
00001000
00000100
00000000
,
00000001
00000010
00001000
00000010
,
00000001
00000010
00002000
00003000
,
00010000
00001000
00000010
00000000
,
00001000
00010000
00100000
00000000
,
00010000
00001000
00000010
00000001
,
00000100
00001000
00011000
00000000
,
00001000
00010000
00100000
00000000
,
00010000
00001000
00000010
00000000
,
00001000
00010000
00100000
10000000
,
01000000
00010000
00011000
00000000
,
00200000
00300000
02000000
03000000
,
00010000
00001000
00011000
00000000
,
00000200
00000300
00000020
00000030
,
00001000
00010000
00011000
00000000
,
02000000
03000000
00200000
00300000
,
00010000
00001000
00011000
00000000
,
00000020
00000030
00000200
00000300
,
00001000
00010000
00011000
00000000
,
00001000
00010000
01000000
00010000
,
00001000
00010000
01000000
00000000
,
10000000
00100000
00010000
00100000
,
10000000
00100000
00010000
00000000
,
00001000
00000010
00000001
00000010
,
00001000
00000010
00000001
00000000
,
00000100
00001000
00010000
00001000
,
00000100
00001000
00010000
00100000
,
20000000
00000000
00000000
00000000
,
00020000
00000000
00000000
30030000
,
00010000
01000000
00001000
00010000
,
00000100
00000200
00000300
00000000
,
00001000
00000010
00010000
00001000
,
00100000
00200000
00300000
00000000
,
00010000
10000000
01000000
00010000
,
00001000
00002000
00003000
00000000
,
00001000
00000010
00000001
00001000
,
00000100
00000010
00001000
00010000
,
00022000
00000000
00033000
00000000
;

//---------------dance-single - ----------------
#NOTEDATA:;
#CHARTNAME:;
#STEPSTYPE:dance-single;
#DESCRIPTION:;
#CHARTSTYLE:;
#DIFFICULTY:Medium;
#METER:9;
#RADARVALUES:0.336258,0.414967,0.183074,0.479478,0.026153,270.000000,249.000000,21.000000,55.000000,0.000000,0.000000,0.000000,0.000000,0.000000,0.336258,0.414967,0.183074,0.479478,0.026153,270.000000,249.000000,21.000000,55.000000,0.000000,0.000000,0.000000,0.000000,0.000000;
#CREDIT:MILEN;
#NOTES:
0000
0000
0000
0000
,
0000
0000
0000
0000
,
0000
0000
0000
0000
,
0000
0000
0000
0000
,
2002
0000
0000
3003
,
1000
0010
0100
0001
,
1000
0000
0000
1000
0000
0000
0000
0000
1100
0000
0000
0000
1001
0000
0000
0000
,
0001
0010
0100
1000
,
0001
0000
0000
0001
0000
0000
0000
0000
0001
0000
0100
0000
0001
0000
0000
0000
,
1000
0100
1000
0000
1010
0000
0000
0010
,
0100
0001
0101
0000
,
0200
0302
0023
0230
,
1300
0001
1000
0001
1000
0000
0000
0000
,
0001
0010
0100
0000
0010
0000
0011
0000
,
1100
0000
1000
0100
0010
0000
0000
0100
,
2000
3002
0023
0230
,
1300
0001
1000
0001
1000
0000
0000
0000
,
1001
0001
0100
0010
,
1000
0000
0100
0000
0010
0000
0001
1000
,
0001
0010
0100
1000
,
0010
0000
0100
0000
0001
0000
1000
0100
,
1000
0010
0001
0010
,
1000
0000
0100
0000
0010
0000
0001
0100
,
0001
0010
1000
0010
,
0001
0100
0010
1000
0010
1000
0001
0000
,
1000
0100
0010
0000
0100
0200
0300
0000
,
0010
0001
0100
0000
0010
0010
0000
0010
,
0200
0302
0023
0230
,
1300
0001
0100
0010
1000
1000
0000
0000
,
0001
0100
0010
0000
0100
0200
0300
0000
,
0010
1000
0100
1000
0020
0030
0000
0100
,
0002
2003
3200
0320
,
0031
0100
0010
1000
0001
0000
0010
0100
,
2000
3020
0230
0302
,
2003
0000
3200
0000
0320
0000
0030
0001
,
2000
3002
0203
0320
,
2030
0000
3002
0000
0023
0000
0130
0100
,
2000
3020
0032
0023
,
2030
0000
3200
0000
0320
0000
0031
1000
,
0002
0023
2030
3020
,
0032
0203
0020
0330
,
0110
0010
1000
0100
,
0001
0000
1000
0000
0010
0000
0001
0100
,
0110
0100
0001
0010
,
1000
0000
0001
0000
0100
0000
1000
0010
,
0110
0010
1000
0100
,
0001
0000
0010
0000
1000
0000
0001
1000
,
1001
0000
0001
0100
0010
0000
1000
0100
,
0010
0000
0001
0010
0100
1000
0010
0100
,
0220
0000
0000
0330
,
2002
0000
0000
3003
,
1000
0100
0001
0100
,
1000
0000
0000
1000
0000
0000
0000
0000
1010
0000
0000
0000
1001
0000
0000
0000
,
0001
0010
1000
0010
,
0001
0000
0000
0001
0000
0000
0000
0000
0101
0000
0000
0000
1001
0000
0000
0000
,
1000
0000
0010
0000
0001
0010
0100
0010
,
1000
0000
0000
1000
0000
0000
0000
0000
1100
0000
0000
0000
0011
0000
0000
0000
,
0001
0000
0100
0000
1000
0100
0010
0100
,
0001
0000
0000
0001
0000
0000
0000
0000
0100
0000
0010
0000
1000
0000
0001
0000
,
2002
0000
3003
0000
;

//---------------dance-double - ----------------
#NOTEDATA:;
#CHARTNAME:;
#STEPSTYPE:dance-double;
#DESCRIPTION:;
#CHARTSTYLE:;
#DIFFICULTY:Medium;
#METER:9;
#RADARVALUES:0.320067,0.389031,0.139485,0.296405,0.026153,257.000000,241.000000,16.000000,34.000000,0.000000,0.000000,0.000000,0.000000,0.000000,0.320067,0.389031,0.139485,0.296405,0.026153,257.000000,241.000000,16.000000,34.000000,0.000000,0.000000,0.000000,0.000000,0.000000;
#CREDIT:MILEN;
#NOTES:
00000000
00000000
00000000
00000000
,
00000000
00000000
00000000
00000000
,
00000000
00000000
00000000
00000000
,
00000000
00000000
00000000
00000000
,
00022000
00000000
00000000
00033000
,
00010000
00001000
00000010
00000001
,
00000100
00000000
00000000
00000100
00000000
00000000
00000000
00000000
00002000
00000000
00000000
00000000
00013000
00000000
00000000
00000000
,
00001000
00010000
00100000
10000000
,
01000000
00000000
00000000
01000000
00000000
00000000
00000000
00000000
00010000
00000000
00001000
00000000
00010000
00000000
00000000
00000000
,
00000100
00001000
00000010
00000000
00010010
00000000
00000000
00010000
,
00001000
00100000
00101000
00000000
,
00002000
00023000
00230000
02300000
,
03010000
10000000
00010000
00000000
10010000
00000000
00000000
00000000
,
10000000
00100000
00010000
00000000
00001000
00000000
01001000
00000000
,
00010100
00000000
00000100
00001000
00000010
00000000
00000000
00000010
,
00020000
00030200
00002300
00003020
,
00000130
00000001
00000100
00000000
00000110
00000000
00000000
00000000
,
00001001
00000001
00000010
00000100
,
00001000
00000000
00010000
00000000
00001000
00000000
00000100
00000010
,
00000100
00001000
00010000
00100000
,
01000000
00000000
10000000
00000000
01000000
00000000
00100000
00010000
,
00100000
01000000
10000000
01000000
,
00100000
00000000
00010000
00000000
00001000
00000000
00000100
00000010
,
00000100
00001000
00000100
00000010
,
00000001
00000000
00000100
00000010
00000100
00000010
00000100
00000000
,
00000001
00000010
00001000
00000000
00010000
00020000
00030000
00000000
,
00001000
00010000
01000000
00000000
10000000
10000000
00000000
00010000
,
02000000
03200000
00320000
00032000
,
00003100
00000010
00000100
00000000
00000001
00001000
00000000
00000000
,
00000010
00000100
00001000
00000000
00010000
00020000
00030000
00000000
,
00001000
00010000
00100000
01000000
00200000
00300000
00000000
01000000
,
00002000
00023000
00030200
00000320
,
00000031
00000100
00001000
00000000
00011000
00000000
00010000
00001000
,
00200000
00010000
01000000
10000000
,
01000000
00000000
00010000
00000000
00301000
00000000
00000000
00001000
,
00020000
00100000
00001000
00000010
,
00001000
00000000
00100000
00000000
00031000
00000000
00001000
00010000
,
00000020
00001000
00000100
00000001
,
00000100
00001000
00010030
00011000
,
00002000
00000010
00010000
00100000
,
00010000
00000010
00020000
00033000
,
00011000
00001000
00010000
01000000
,
00001000
00000000
00000100
00000000
00010000
00000000
00001000
00010000
,
00011000
00010000
00001000
00000100
,
00010000
00000000
01000000
00000000
00001000
00000000
00010000
00001000
,
00011000
00001000
00000100
00001000
,
00010000
00000000
01000000
00000000
00010000
00000000
00001000
00010000
,
00011000
00000000
00001000
00000010
00000001
00000000
00000100
00001000
,
00010000
00000000
00100000
10000000
01000000
00100000
01000000
00000000
,
00020000
00000000
00000000
00000000
,
00002000
00000000
00000000
00033000
,
00010000
01000000
10000000
00010000
,
00100000
00000000
00000000
00100000
00000000
00000000
00000000
00000000
00002000
00000000
00000000
00000000
00013000
00000000
00000000
00000000
,
00001000
00000100
00000001
00001000
,
00000010
00000000
00000000
00000010
00000000
00000000
00000000
00000000
00020000
00000000
00000000
00000000
00031000
00000000
00000000
00000000
,
00001000
00000000
00100000
00000000
00010000
01000000
10000000
01000000
,
00100000
00000000
00000000
00100000
00000000
00000000
00000000
00000000
00120000
00000000
00000000
00000000
00031000
00000000
00000000
00000000
,
00010000
00000000
00000010
00000000
00001000
00000100
00000001
00000100
,
00000010
00000000
00000000
00000010
00000000
00000000
00000000
00000000
00000010
00000000
00001000
00000000
00010000
00000000
00000000
00000000
,
00022000
00000000
00033000
00000000
;

//---------------dance-single - ----------------
#NOTEDATA:;
#CHARTNAME:;
#STEPSTYPE:dance-single;
#DESCRIPTION:;
#CHARTSTYLE:;
#DIFFICULTY:Hard;
#METER:12;
#RADARVALUES:0.536767,0.570579,0.322558,0.557938,0.231021,431.000000,394.000000,37.000000,64.000000,0.000000,0.000000,0.000000,0.000000,0.000000,0.536767,0.570579,0.322558,0.557938,0.231021,431.000000,394.000000,37.000000,64.000000,0.000000,0.000000,0.000000,0.000000,0.000000;
#CREDIT:MILEN;
#NOTES:
0000
0000
0000
0000
,
0000
0000
0000
0000
,
0000
0000
0000
0000
,
0000
0000
0000
0000
,
2002
0000
0000
3003
,
1000
0000
0000
1000
0000
0000
0100
0000
0000
0010
0000
0001
0010
0000
0001
0000
,
0101
0000
0000
0101
0000
0000
0000
0000
2020
3030
0000
0000
2002
0000
3003
0000
,
0001
0000
0000
0100
0000
0000
0010
0000
0000
1000
0000
0010
1000
0000
0100
0000
,
1100
0000
0000
1100
0000
0000
0000
0000
1000
0000
0100
0000
0010
0000
0001
0000
,
0100
0001
0100
0000
0010
0000
0010
0000
1000
0000
0000
0000
1000
0000
0010
1000
,
0010
0100
0100
0001
0010
0000
0010
0100
,
2000
3010
0002
0013
2000
3010
0002
0013
,
1000
0001
1000
0001
1000
0000
0100
0000
0010
0000
0000
0000
0110
0000
0000
0000
,
0100
1000
0100
0000
0010
0000
0010
0000
0001
0000
0000
0000
0010
0000
0001
0100
,
0001
0010
0010
0100
1000
0000
0100
0010
,
0002
0103
2000
3100
0002
0103
2000
3100
,
0001
1000
0001
0000
0100
0000
0010
0000
0200
0000
0000
0000
0300
0000
0000
0000
,
1001
0001
0100
0010
0100
0001
0010
0100
,
0010
0001
0100
0010
0100
0000
0110
0010
,
1000
0100
0010
0100
1000
0010
0100
0010
,
1000
0100
0010
0100
1000
0000
1001
0001
,
0100
0000
0010
1000
0000
1000
0010
0000
0100
0000
0001
0000
0010
0000
1000
0000
,
0010
0001
0100
0010
0100
0000
0110
0010
,
0100
0000
0001
0010
0000
0010
0001
0000
0100
0000
0010
0000
1000
0000
0100
0000
,
0001
0100
1000
0001
2000
0000
0001
3001
,
0001
0100
0010
0000
0100
0000
0100
0000
0010
0000
1000
0000
0000
0000
0100
1000
,
0001
0010
0010
0001
0100
0010
0000
1000
,
0002
0013
2000
3010
0002
0013
2000
3010
,
0001
0100
0001
0100
0001
0000
0010
0000
0100
0000
1100
0000
0000
0000
0000
0000
,
1000
0010
0100
0000
0001
0000
0001
0000
1000
0000
0100
0000
0000
0000
0010
0001
,
0100
0010
0010
1000
0001
0000
0100
0010
,
2000
3100
0002
0103
2000
3100
0002
0103
,
1000
0100
1000
0000
0010
0000
0100
0000
0101
0000
0000
0000
0001
0000
1000
0000
,
0002
0100
0203
0010
0320
1000
2030
0100
,
3200
0010
0320
0001
0031
0000
0001
1000
,
0020
0100
0230
0001
0302
0010
0023
0100
,
0230
1000
2300
0010
3010
0000
0010
0100
,
0020
1000
2030
0001
3002
0100
0203
0010
,
0320
1000
2030
0100
3100
0000
0100
0010
,
0002
0100
0203
0010
0320
1000
2030
0001
,
3002
0010
0023
0100
0230
1000
2300
0001
,
3001
0000
0001
0100
1000
0100
0001
0010
,
0100
0010
0001
1000
0100
0000
0010
0100
,
1100
0000
1000
0100
0001
0100
1000
0010
,
0100
0010
1000
0001
0100
0000
0010
0100
,
0101
0000
0001
0010
0000
0010
0001
0000
0010
0000
0100
1000
0000
1000
0100
0000
,
1000
0000
0010
0100
0000
0100
0010
0000
0100
0000
0000
0000
0101
0000
0100
0000
,
1010
0000
1000
0001
0000
0001
1000
0000
0010
0000
0001
0000
0010
0000
1000
0000
,
0100
0000
0010
0100
0010
0000
0001
1000
0001
0000
0100
0000
1000
0000
0100
0000
,
0220
0000
0000
0330
,
2002
0000
0000
3003
,
0001
0000
0000
0100
0000
0000
1000
0000
0000
0100
0000
0001
0010
0000
0001
0000
,
0101
0000
0000
1100
0000
0000
0000
0000
0022
0033
0000
0000
2002
0000
3003
0000
,
1000
0000
0000
0100
0000
0000
0001
0000
0000
0100
0000
1000
0010
0000
1000
0000
,
1100
0000
0000
0101
0000
0000
0000
0000
0001
0000
0001
0000
1000
0000
1000
0000
,
1010
0000
0000
0011
0000
0000
1010
0000
0000
1000
0000
0001
0010
0000
0001
0000
,
0101
0000
0000
1100
0000
0000
0000
0000
2020
3030
0000
0000
0220
0330
0000
0000
,
0101
0000
0000
1100
0000
0000
0101
0000
0000
0001
0000
1000
0100
0000
1000
0000
,
0010
0000
0001
0000
1000
0000
0100
0000
0001
0010
0001
0000
1000
0010
1000
0000
,
2002
0000
3003
0000
;

//---------------dance-single - ----------------
#NOTEDATA:;
#CHARTNAME:;
#STEPSTYPE:dance-single;
#DESCRIPTION:;
#CHARTSTYLE:;
#DIFFICULTY:Challenge;
#METER:15;
#RADARVALUES:0.698668,0.726192,0.802036,0.828190,0.566656,561.000000,469.000000,92.000000,95.000000,0.000000,0.000000,2.000000,0.000000,0.000000,0.698668,0.726192,0.802036,0.828190,0.566656,561.000000,469.000000,92.000000,95.000000,0.000000,0.000000,2.000000,0.000000,0.000000;
#CREDIT:MILEN;
#OFFSET:-0.033000;
#BPMS:0.000000=126.999992
;
#STOPS:;
#DELAYS:;
#WARPS:;
#TIMESIGNATURES:0.000000=4=4
;
#TICKCOUNTS:0.000000=2
;
#COMBOS:0.000000=1
;
#SPEEDS:0.000000=999.000000=0.000000=0
,4.000000=0.000000=0.000000=0
,4.020833=0.500000=11.979000=0
,16.000000=1.000000=4.000000=0
,26.000000=0.700000=0.125000=0
,26.125000=1.000000=0.875000=0
,27.000000=0.700000=0.125000=0
,27.125000=1.000000=0.875000=0
,132.000000=1.250000=0.125000=0
,132.125000=1.000000=0.875000=0
,200.000000=2.000000=4.000000=0
,210.000000=1.500000=0.125000=0
,210.125000=2.000000=0.875000=0
,211.000000=1.500000=0.125000=0
,211.125000=2.000000=0.875000=0
,226.000000=1.500000=0.125000=0
,226.125000=2.000000=0.875000=0
,227.000000=1.500000=0.125000=0
,227.125000=2.000000=0.875000=0
;
#SCROLLS:0.000000=1.000000
,4.000000=0.500000
,16.000000=1.000000
,196.000000=0.500000
,236.000000=0.250000
;
#FAKES:;
#LABELS:0.000000=Song Start
;
#NOTES:
0000
0000
0000
0000
,
0000
0000
0000
0000
,
0000
0000
0000
0000
,
0000
0000
0000
0000
,
2002
0000
0000
0000
0000
0000
0000
3003
,
1010
0000
0000
1100
0000
0000
2002
0003
0000
3100
0000
0100
0010
0000
0100
0000
,
1100
0000
0000
0022
0000
0033
0000
0000
0201
0000
0300
0000
1200
0000
0300
0000
,
0101
0000
0000
0011
0000
0000
2002
3000
0000
0013
0000
0010
0100
0000
0010
0000
,
0011
0000
0000
2200
0000
3300
0000
0000
2000
0000
3020
0000
0230
0000
0302
0000
,
0013
0100
0010
0100
0010
0000
0001
0000
2000
0000
3000
0000
1010
0000
0010
0100
,
0001
0000
0010
0000
0001
0100
0000
0010
0200
0000
0300
0000
0110
0000
0010
1000
,
0200
0300
0000
0000
0000
0000
0000
0000
0100
0000
0000
0000
0001
0000
0000
0000
0020
0030
0000
0000
0000
0000
0000
0000
0010
0000
0000
0000
1000
0000
0000
0000
0200
0300
0000
0000
0000
0000
0000
0000
0100
0000
0000
0000
0001
0000
0000
0000
0020
0030
0000
0000
0000
0000
0000
0000
0010
0000
0000
0000
1000
0000
0000
0000
,
0100
0010
0001
0100
0010
0000
0100
0000
0101
0000
0000
0000
1010
0000
0000
0000
,
0010
1000
0010
1000
0010
0000
0100
0000
0002
0000
0003
0000
0011
0000
0001
0100
,
0001
0010
0100
1000
0100
0000
1000
0000
0020
0000
0030
0000
0110
0000
0100
0001
,
0020
0030
0000
0000
0000
0000
0000
0000
0010
0000
0000
0000
1000
0000
0000
0000
0200
0300
0000
0000
0000
0000
0000
0000
0100
0000
0000
0000
0001
0000
0000
0000
0020
0030
0000
0000
0000
0000
0000
0000
0010
0000
0000
0000
1000
0000
0000
0000
0200
0300
0000
0000
0000
0000
0000
0000
0100
0000
0000
0000
0001
0000
0000
0000
,
0010
0100
1000
0010
0100
0000
0001
0000
2002
0000
0000
0000
3003
0000
1000
0001
,
1000
0010
0100
0001
0010
1000
0010
0001
,
0100
1000
0100
0001
0010
0000
0110
0100
,
1001
0001
0010
0100
0001
0100
1000
0010
,
0001
0000
0010
0000
1000
0000
0100
0010
0200
0000
0300
0000
1100
0000
0010
0000
,
0011
0000
0001
0100
0000
0010
0100
0000
1000
0000
0100
0010
0000
0100
0001
0000
,
1000
0000
0010
0100
0000
0010
0001
0000
0020
0000
0030
0000
1010
0000
0100
0000
,
0101
0000
0001
0010
0000
0100
0001
0000
0100
0000
1000
0010
0000
0100
1000
0000
,
0100
0010
0100
0000
0001
1000
0001
0000
0100
0010
1000
0001
0010
0100
1000
0000
,
0010
0100
0001
0100
0010
0000
1000
0000
0100
0000
0020
0000
0030
0000
0100
1000
,
0010
1000
0001
0100
0001
0000
0010
0000
0100
0000
2000
0000
3000
0000
0001
0100
,
0020
0030
0000
0000
0000
0000
0000
0000
0010
0000
0000
0000
0001
0000
0000
0000
0200
0300
0000
0000
0000
0000
0000
0000
0100
0000
0000
0000
1000
0000
0000
0000
0020
0030
0000
0000
0000
0000
0000
0000
0010
0000
0000
0000
0001
0000
0000
0000
2000
0000
0000
0000
0000
0000
0000
0000
3001
0000
0000
0000
0100
0000
0000
0000
,
0001
0010
0100
1000
0010
0000
0110
0000
0100
0000
2002
0000
3003
0000
0000
0000
,
0001
1000
0100
1000
0001
0000
0010
0000
0100
0000
2000
0000
3000
0000
0010
1000
,
0100
1000
0001
0010
0001
0000
0100
0000
0020
0000
0000
0000
0030
0000
1000
0100
,
0020
0030
0000
0000
0000
0000
0000
0000
0010
0000
0000
0000
1000
0000
0000
0000
0200
0300
0000
0000
0000
0000
0000
0000
0100
0000
0000
0000
0001
0000
0000
0000
0020
0030
0000
0000
0000
0000
0000
0000
0010
0000
0000
0000
1000
0000
0000
0000
0002
0000
0000
0000
0000
0000
0000
0000
1003
0000
0000
0000
0100
0000
0000
0000
,
1000
0001
0100
0010
1000
0000
1010
0000
0202
0000
0303
0000
1001
0000
1001
0000
,
0201
0310
2010
3100
0120
0031
0201
0310
,
1200
0310
0201
0310
1010
0000
0101
0100
,
1002
0103
0120
1030
1200
0310
0012
1003
,
2100
3010
0102
0013
0110
0000
1100
0100
,
0021
0130
2100
3010
0210
0301
0021
0130
,
1020
0130
0021
0130
1100
0000
0011
0010
,
2001
3010
0210
1300
0210
0301
1002
0103
,
0100
0001
0010
0000
0100
0000
0010
0001
0100
0000
0010
0000
1000
0001
1000
0001
,
0010
0000
0100
1000
0010
0000
0100
0001
0010
0000
0100
0010
0001
0000
1000
0100
,
0010
0000
0001
0100
0000
1000
0100
0000
0020
0000
0030
0000
1010
0000
1001
0000
,
0101
0000
0100
0001
1000
0000
0100
0010
0001
0000
0010
0100
1000
0000
0010
1000
,
0001
0000
0010
0000
1000
0000
0010
0001
0200
0000
0300
0000
0110
0000
1001
0000
,
1000
0000
0010
0100
0000
1000
0100
0000
0010
0000
0001
0010
0000
0100
0010
0000
,
1000
0000
0100
0001
0000
1000
0010
0000
0002
0000
0003
0000
0101
0000
1010
0000
,
1000
0000
0001
0100
0000
1000
0100
0000
0001
0000
0010
0100
0010
0100
1000
0001
,
0010
0000
0100
1000
0001
0000
0100
0010
1000
0001
1000
0010
0100
0001
1000
0100
,
0440
0000
0000
0000
0000
0000
0000
0330
,
2002
0000
0000
0000
0000
0000
0000
3003
,
0101
0000
0000
1100
0000
0000
2020
3000
0000
0130
0000
0100
1000
0000
0100
0000
,
0101
0000
0000
2020
0000
3030
0000
0000
1200
0000
0300
0000
0201
0000
0300
0000
,
1100
0000
0000
1010
0000
0000
0022
0003
0000
0130
0000
0100
0001
0000
0100
0000
,
1100
0000
0000
0022
0000
0033
0000
0000
0001
1000
0100
0000
1000
0001
0010
0000
,
0011
0000
0000
0101
0000
0000
2200
0300
0000
3010
0000
0010
0001
0000
0010
0000
,
1010
0000
0000
0202
0000
0303
0000
0000
1020
0000
0030
0000
0021
0000
0030
0000
,
1010
0000
0000
1100
0000
0000
0202
0300
0000
0013
0000
0010
1000
0000
0010
0000
,
0001
0100
0001
0100
0010
1000
0010
1000
0100
0010
0001
0100
0001
1000
0010
1000
,
2002
0000
3003
0000
;

//---------------dance-double - ----------------
#NOTEDATA:;
#CHARTNAME:;
#STEPSTYPE:dance-double;
#DESCRIPTION:;
#CHARTSTYLE:;
#DIFFICULTY:Challenge;
#METER:16;
#RADARVALUES:0.646362,0.726192,0.470761,0.845625,0.549221,519.000000,465.000000,54.000000,97.000000,0.000000,0.000000,0.000000,0.000000,0.000000,0.646362,0.726192,0.470761,0.845625,0.549221,519.000000,465.000000,54.000000,97.000000,0.000000,0.000000,0.000000,0.000000,0.000000;
#CREDIT:MILEN;
#OFFSET:-0.033000;
#BPMS:0.000000=126.999992
;
#STOPS:;
#DELAYS:;
#WARPS:;
#TIMESIGNATURES:0.000000=4=4
;
#TICKCOUNTS:0.000000=2
;
#COMBOS:0.000000=1
;
#SPEEDS:0.000000=999.000000=0.000000=0
,4.000000=0.000000=0.000000=0
,4.020833=0.500000=11.979000=0
,16.000000=1.000000=4.000000=0
,26.000000=0.700000=0.125000=0
,26.125000=1.000000=0.875000=0
,27.000000=0.700000=0.125000=0
,27.125000=1.000000=0.875000=0
,132.000000=1.250000=0.125000=0
,132.125000=1.000000=0.875000=0
,200.000000=2.000000=4.000000=0
,210.000000=1.500000=0.125000=0
,210.125000=2.000000=0.875000=0
,211.000000=1.500000=0.125000=0
,211.125000=2.000000=0.875000=0
,226.000000=1.500000=0.125000=0
,226.125000=2.000000=0.875000=0
,227.000000=1.500000=0.125000=0
,227.125000=2.000000=0.875000=0
;
#SCROLLS:0.000000=1.000000
,4.000000=0.500000
,16.000000=1.000000
,196.000000=0.500000
,236.000000=0.250000
;
#FAKES:;
#LABELS:0.000000=Song Start
;
#NOTES:
00000000
00000000
00000000
00000000
,
00000000
00000000
00000000
00000000
,
00000000
00000000
00000000
00000000
,
00000000
00000000
00000000
00000000
,
00022000
00000000
00000000
00000000
00000000
00000000
00000000
00033000
,
01001000
00000000
00000000
00011000
00000000
00000000
00020200
00030000
00000000
00001300
00000000
00001000
00000010
00000000
00010000
00000000
,
00010010
00000000
00000000
02002000
00000000
03003000
00000000
00000000
00120000
00000000
00030000
00000000
00020010
00000000
00030000
00000000
,
00010100
00000000
00000000
00011000
00000000
00000000
02002000
00003000
00000000
03010000
00000000
00010000
00100000
00000000
00001000
00000000
,
00101000
00000000
00000000
00020200
00000000
00030300
00000000
00000000
00000100
00000000
00000010
00000000
00000001
00000000
00000100
00000000
,
00001000
00010000
00001000
00010000
00001000
00000000
00100000
00000000
00020000
00000000
00000000
00000000
10030000
00000000
10000000
00100000
,
01000000
00000000
00100000
00000000
01000000
00010000
00000000
00100000
00002000
00000000
00003000
00000000
00011000
00000000
00010000
00001000
,
00000010
00000000
00000100
00010000
00000010
00000000
00010000
00001000
00000010
00000000
00000100
00010000
00000010
00000000
00010000
00001000
,
00000010
00000100
00010000
00000010
00000100
00000000
00000010
00000000
00001010
00000000
00000000
00000000
00000101
00000000
00000000
00000000
,
00000100
00000010
00000100
00000010
00000100
00000000
00000001
00000000
00000020
00000000
00000000
00000000
00001030
00000000
00001000
00010000
,
00001000
01000000
00010000
01000000
00100000
00000000
10000000
00000000
02000000
00000000
03000000
00000000
00010000
00000000
00001000
00010000
,
00100000
00000000
01000000
00001000
00100000
00000000
00001000
00010000
00100000
00000000
01000000
00001000
00100000
00000000
00001000
00010000
,
00100000
01000000
00001000
00100000
01000000
00000000
00010000
00000000
00022000
00000000
00000000
00000000
00033000
00000000
00001000
00010000
,
00001000
00000100
00000001
00000100
00001000
00000100
00000001
00000010
,
00001000
00010000
01000000
10000000
00100000
00000000
01100000
01000000
,
10010000
00010000
00100000
01000000
00010000
00000100
00001000
00000010
,
00010000
00000000
00100000
00000000
00001000
00000000
00000010
00000100
00000020
00000000
00000030
00000000
00000110
00000000
00000100
00000000
,
00001001
00000000
00000001
00000010
00000000
00000010
00000001
00000000
00001000
00000000
00000100
00000010
00000000
00000010
00000100
00000000
,
00010000
00000000
00001000
00100000
00000000
00100000
00001000
00000000
00020000
00000000
00030000
00000000
00010100
00000000
00001000
00000000
,
01001000
00000000
01000000
00010000
00000000
00010000
00100000
00000000
01000000
00000000
10000000
00100000
00000000
00100000
10000000
00000000
,
01000000
00100000
01000000
00000000
10000000
00010000
10000000
00000000
01000000
00100000
01000000
00010000
00001000
00010000
00000010
00000000
,
00000100
00000001
00000100
00000001
00000100
00000000
00000010
00000000
00001000
00000000
00000200
00000000
00000300
00000000
00000010
00000100
,
00001000
00000100
00010000
00001000
00010000
00000000
01000000
00000000
10000000
00000000
00200000
00000000
00300000
00000000
00010000
00001000
,
01000000
00000000
00001000
00010000
01000000
00000000
00010000
00001000
01000000
00000000
00001000
00010000
01000000
00000000
00100000
00010000
,
10000000
01000000
00010000
00001000
00010000
00000000
00010100
00000000
00001000
00000000
02002000
00000000
03003000
00000000
00000000
00000000
,
01000000
00001000
00010000
00001000
01000000
00000000
00010000
00000000
00100000
00000000
02000000
00000000
03000000
00000000
10000000
00100000
,
00010000
00100000
01000000
00010000
01000000
00000000
00001000
00000000
00020000
00000000
00000000
00000000
00030000
00000000
00001000
00010000
,
00000100
00000000
00010000
00001000
00000100
00000000
00001000
00010000
00000100
00000000
00010000
00001000
00000100
00000000
00000010
00001000
,
00000001
00000100
00001000
00010000
00001000
00000000
00010000
00000000
00022000
00000000
00003000
00000000
00001000
00000000
00031000
00000000
,
00002000
00203000
00320000
02030000
03200000
20300000
32000000
03200000
,
00320000
02030000
03002000
00010000
00020000
00003000
00001000
00031000
,
00002000
02003000
03200000
00320000
00032000
00003200
00000320
00002030
,
00003002
00000203
00002300
00010000
00020000
00003000
00001000
00031000
,
00002000
00003020
00000032
00002003
00003200
00000320
00002030
00203000
,
00320000
02030000
03002000
00010000
00020000
00003000
00001000
00031000
,
00002000
00023000
02030000
23000000
30200000
00320000
00032000
00003200
,
00000301
00000010
00000100
00000000
00000010
00000000
00000001
00000010
00000100
00000000
00000010
00000000
00000001
00000100
00000010
00001000
,
00000100
00000000
00000001
00000100
00001000
00000000
00000100
00000000
00010000
00000000
00001000
00010000
01000000
00000000
00010000
00000000
,
00001000
00000000
00100000
01000000
00000000
10000000
00100000
00000000
00020000
00000000
00030000
00000000
00100000
00000000
01100000
00000000
,
10010000
00000000
10000000
01000000
00010000
00000000
01000000
00000000
00100000
00000000
00001000
00010000
00000010
00000000
00001000
00000000
,
00000100
00000000
00000010
00000000
00000001
00000000
00000100
00001000
00020000
00000000
00000000
00000000
00031000
00000000
00011000
00000000
,
00001000
00000000
00100000
00010000
00000000
01000000
00001000
00000000
00010000
00000000
00000100
00001000
00000000
00000010
00010000
00000000
,
00001000
00000000
00100000
01000000
00000000
00010000
00001000
00000000
00000020
00000000
00000030
00000000
00000110
00000000
00001001
00000000
,
00000001
00000000
00000100
00001000
00000000
00010000
01000000
00000000
10000000
00000000
00100000
01000000
00100000
01000000
00100000
01000000
,
00010000
00000000
00100000
01000000
00010000
00000000
00001000
00000010
00000100
00001000
00000100
00000010
00000001
00000100
00001000
00010000
,
00002000
00000000
00000000
00000000
,
00020000
00000000
00000000
00000000
00000000
00000000
00000000
00033000
,
00010100
00000000
00000000
00011000
00000000
00000000
02002000
00003000
00000000
03010000
00000000
00010000
00100000
00000000
00001000
00000000
,
00101000
00000000
00000000
00020200
00000000
00030300
00000000
00000000
00002010
00000000
00003000
00000000
00102000
00000000
00003000
00000000
,
01001000
00000000
00000000
00011000
00000000
00000000
00020200
00030000
00000000
00001300
00000000
00001000
00000010
00000000
00010000
00000000
,
00010010
00000000
00000000
02002000
00000000
03003000
00000000
00000000
00001000
00010000
01000000
00000000
00010000
00001000
00000100
00000000
,
00000101
00000000
00000000
00000011
00000000
00000000
00002200
00003000
00000000
00010300
00000000
00010000
01000000
00000000
10000000
00000000
,
10100000
00000000
00000000
02020000
00000000
03030000
00000000
00000000
10020000
00000000
00030000
00000000
00021000
00000000
00030000
00000000
,
10010000
00000000
00000000
10100000
00000000
00000000
00220000
00300000
00000000
00031000
00000000
00001000
00000010
00000000
00000100
00000000
,
00000001
00000010
00000001
00000010
00000100
00001000
00000100
00010000
00001000
01000000
00010000
01000000
00100000
10000000
01000000
00010000
,
00022000
00000000
00033000
00000000
;

//---------------dance-double - ----------------
#NOTEDATA:;
#CHARTNAME:;
#STEPSTYPE:dance-double;
#DESCRIPTION:;
#CHARTSTYLE:;
#DIFFICULTY:Hard;
#METER:12;
#RADARVALUES:0.526803,0.570579,0.296405,0.549221,0.217945,423.000000,389.000000,34.000000,63.000000,0.000000,0.000000,0.000000,0.000000,0.000000,0.526803,0.570579,0.296405,0.549221,0.217945,423.000000,389.000000,34.000000,63.000000,0.000000,0.000000,0.000000,0.000000,0.000000;
#CREDIT:MILEN;
#NOTES:
00000000
00000000
00000000
00000000
,
00000000
00000000
00000000
00000000
,
00000000
00000000
00000000
00000000
,
00000000
00000000
00000000
00000000
,
00022000
00000000
00000000
00033000
,
00010000
00000000
00000000
00001000
00000000
00000000
01000000
00000000
00000000
00010000
00000000
01000000
00001000
00000000
00010000
00000000
,
00011000
00000000
00000000
00011000
00000000
00000000
00000000
00000000
00020020
00030030
00000000
00000000
02002000
00000000
03003000
00000000
,
00001000
00000000
00000000
00010000
00000000
00000000
00000100
00000000
00000000
00010000
00000000
00001000
00010000
00000000
00001000
00000000
,
00011000
00000000
00000000
00011000
00000000
00000000
00000000
00000000
00010000
00000000
00001000
00000000
00100000
00000000
00001000
00000000
,
00010000
00001000
00010000
00000000
00000100
00000000
00001000
00000000
00000001
00000000
00000000
00000000
00000010
00000000
00000001
00000100
,
00000001
00001000
00000010
00010000
00001000
00000000
00100000
00010000
,
20000000
30100000
02000000
03010000
20000000
30100000
02000000
03010000
,
00010000
00100000
00010000
00000000
01000000
00000000
00001000
00000000
00010000
00000000
00000000
00000000
00011000
00000000
00000000
00000000
,
00001000
00010000
00001000
00000000
00100000
00000000
00010000
00000000
10000000
00000000
00000000
00000000
00100000
00000000
01000000
00010000
,
01000000
00001000
00010000
00000100
00001000
00000000
00000010
00000100
,
00000002
00000013
00000200
00001300
00000002
00000013
00000200
00001300
,
00001000
00000010
00001000
00000000
00000100
00000000
00010000
00000000
00002000
00000000
00000000
00000000
00003000
00000000
00000000
00000000
,
00011000
00010000
00000010
00000100
00000010
00010000
00000100
00000010
,
00000100
00010000
00000010
00000100
00000010
00000000
00010010
00010000
,
00001000
00100000
01000000
00100000
00001000
01000000
00100000
01000000
,
00001000
00100000
01000000
00100000
00001000
00000000
00101000
00100000
,
00010000
00000000
10000000
00100000
00000000
00100000
10000000
00000000
00010000
00000000
00100000
00000000
01000000
00000000
00010000
00000000
,
00001000
00000010
00000100
00001000
00000001
00000000
00000101
00000100
,
00000010
00000000
00001000
00000100
00000000
00000100
00001000
00000000
00000010
00000000
00000100
00000000
00001000
00000000
00010000
00000000
,
00100000
01000000
00100000
10000000
20020000
00000000
30030000
00000000
,
00010000
10000000
00010000
00000000
01000000
00000000
00001000
00000000
00010000
00000000
00000010
00000000
00000000
00000000
00000100
00000001
,
00000100
00000010
00001000
00000100
00000010
00001000
00000000
00010000
,
00002000
01003000
00020000
00130000
00002000
01003000
00020000
00130000
,
00100000
01000000
00100000
00000000
01000000
00000000
10000000
00000000
00100000
00000000
00010000
00000000
00011000
00000000
00000000
00000000
,
00001000
00010000
00001000
00000000
00100000
00000000
00010000
00000000
10000000
00000000
01000000
00000000
00000000
00000000
00100000
01000000
,
00100000
00010000
00001000
00000010
00000100
00000000
00000000
00001000
,
00000020
00010030
00002000
00003100
00000020
00010030
00002000
00003100
,
00000100
00000010
00000100
00000000
00000001
00000000
00000010
00000000
00001000
00000000
00000000
00000000
00010000
00000000
00001000
00000000
,
00200000
00310000
02000000
03100000
20000000
31000000
00200000
00310000
,
02000000
03001000
00020000
00000010
00030010
00000000
00000010
00001000
,
00000200
00000310
00000002
00000103
00000020
00001030
00000200
00010300
,
00002000
00103000
00020000
01000000
01030000
00000000
01000000
00100000
,
20000000
30010000
00200000
01300000
20000000
30100000
00020000
00031000
,
00000200
00000301
00000020
00000100
00000130
00000000
00000100
00001000
,
00000002
00000013
00000200
00010300
00002000
01003000
00020000
00130000
,
02000000
13000000
00200000
00310000
00002000
00003100
00000002
00001000
,
00001003
00000000
00001000
00000010
00010000
00001000
00000010
00001000
,
00010000
00000010
00001000
00000100
00000010
00000000
00001000
00010000
,
00011000
00000000
00001000
00100000
00010000
00100000
00001000
00010000
,
00100000
00010000
00001000
00100000
01000000
00000000
10000000
00010000
,
10010000
00000000
10000000
00100000
00000000
00100000
10000000
00000000
01000000
00000000
00100000
00010000
00000000
00010000
00100000
00000000
,
00001000
00000000
00010000
00000100
00000000
00000100
00010000
00000000
00000010
00000000
00000000
00000000
00000100
00000000
00000001
00000000
,
00000011
00000000
00000010
00000100
00000000
00000100
00000010
00000000
00001000
00000000
00010000
00000000
01000000
00000000
00100000
00000000
,
01000000
00000000
10000000
00000000
00100000
00000000
00010000
00001000
00010000
00000000
00001000
00000000
00000100
00000000
00000001
00000000
,
00002000
00000000
00000000
00000000
,
00000002
00000000
00000000
00003003
,
00001000
00000000
00000000
00000100
00000000
00000000
00000010
00000000
00000000
00000001
00000000
00001000
00000001
00000000
00000100
00000000
,
00000110
00000000
00000000
00000110
00000000
00000000
00000000
00000000
00020020
00030030
00000000
00000000
02002000
00000000
03003000
00000000
,
00010000
00000000
00000000
01000000
00000000
00000000
00100000
00000000
00000000
10000000
00000000
00010000
10000000
00000000
01000000
00000000
,
01100000
00000000
00000000
01100000
00000000
00000000
00000000
00000000
00100000
00000000
00001000
00000000
00010000
00000000
00000010
00000000
,
00001010
00000000
00000000
00001100
00000000
00000000
00000011
00000000
00000000
00000001
00000000
00001000
00000010
00000000
00010000
00000000
,
00011000
00000000
00000000
00011000
00000000
00000000
00000000
00000000
00202000
00303000
00000000
00000000
00020200
00030300
00000000
00000000
,
01001000
00000000
00000000
00110000
00000000
00000000
11000000
00000000
00000000
10000000
00000000
00100000
01000000
00000000
00100000
00000000
,
00010000
00000000
00001000
00000000
00000100
00000000
00000001
00000000
00000010
00000000
00001000
00010000
00001000
00010000
00001000
00000000
,
00022000
00000000
00033000
00000000
;

//---------------dance-double - CDP no gimmick version----------------
#NOTEDATA:;
#CHARTNAME:;
#STEPSTYPE:dance-double;
#DESCRIPTION:CDP no gimmick version;
#CHARTSTYLE:;
#DIFFICULTY:Edit;
#METER:16;
#RADARVALUES:0.646362,0.726192,0.470761,0.845625,0.549221,519.000000,465.000000,54.000000,97.000000,0.000000,0.000000,0.000000,0.000000,0.000000,0.646362,0.726192,0.470761,0.845625,0.549221,519.000000,465.000000,54.000000,97.000000,0.000000,0.000000,0.000000,0.000000,0.000000;
#CREDIT:;
#NOTES:
// measure 0
00000000
00000000
00000000
00000000
,  // measure 1
00000000
00000000
00000000
00000000
,  // measure 2
00000000
00000000
00000000
00000000
,  // measure 3
00000000
00000000
00000000
00000000
,  // measure 4
00022000
00000000
00000000
00000000
00000000
00000000
00000000
00033000
,  // measure 5
01001000
00000000
00000000
00011000
00000000
00000000
00020200
00030000
00000000
00001300
00000000
00001000
00000010
00000000
00010000
00000000
,  // measure 6
00010010
00000000
00000000
02002000
00000000
03003000
00000000
00000000
00120000
00000000
00030000
00000000
00020010
00000000
00030000
00000000
,  // measure 7
00010100
00000000
00000000
00011000
00000000
00000000
02002000
00003000
00000000
03010000
00000000
00010000
00100000
00000000
00001000
00000000
,  // measure 8
00101000
00000000
00000000
00020200
00000000
00030300
00000000
00000000
00000100
00000000
00000010
00000000
00000001
00000000
00000100
00000000
,  // measure 9
00001000
00010000
00001000
00010000
00001000
00000000
00100000
00000000
00020000
00000000
00000000
00000000
10030000
00000000
10000000
00100000
,  // measure 10
01000000
00000000
00100000
00000000
01000000
00010000
00000000
00100000
00002000
00000000
00003000
00000000
00011000
00000000
00010000
00001000
,  // measure 11
00000010
00000000
00000100
00010000
00000010
00000000
00010000
00001000
00000010
00000000
00000100
00010000
00000010
00000000
00010000
00001000
,  // measure 12
00000010
00000100
00010000
00000010
00000100
00000000
00000010
00000000
00001010
00000000
00000000
00000000
00000101
00000000
00000000
00000000
,  // measure 13
00000100
00000010
00000100
00000010
00000100
00000000
00000001
00000000
00000020
00000000
00000000
00000000
00001030
00000000
00001000
00010000
,  // measure 14
00001000
01000000
00010000
01000000
00100000
00000000
10000000
00000000
02000000
00000000
03000000
00000000
00010000
00000000
00001000
00010000
,  // measure 15
00100000
00000000
01000000
00001000
00100000
00000000
00001000
00010000
00100000
00000000
01000000
00001000
00100000
00000000
00001000
00010000
,  // measure 16
00100000
01000000
00001000
00100000
01000000
00000000
00010000
00000000
00022000
00000000
00000000
00000000
00033000
00000000
00001000
00010000
,  // measure 17
00001000
00000100
00000001
00000100
00001000
00000100
00000001
00000010
,  // measure 18
00001000
00010000
01000000
10000000
00100000
00000000
01100000
01000000
,  // measure 19
10010000
00010000
00100000
01000000
00010000
00000100
00001000
00000010
,  // measure 20
00010000
00000000
00100000
00000000
00001000
00000000
00000010
00000100
00000020
00000000
00000030
00000000
00000110
00000000
00000100
00000000
,  // measure 21
00001001
00000000
00000001
00000010
00000000
00000010
00000001
00000000
00001000
00000000
00000100
00000010
00000000
00000010
00000100
00000000
,  // measure 22
00010000
00000000
00001000
00100000
00000000
00100000
00001000
00000000
00020000
00000000
00030000
00000000
00010100
00000000
00001000
00000000
,  // measure 23
01001000
00000000
01000000
00010000
00000000
00010000
00100000
00000000
01000000
00000000
10000000
00100000
00000000
00100000
10000000
00000000
,  // measure 24
01000000
00100000
01000000
00000000
10000000
00010000
10000000
00000000
01000000
00100000
01000000
00010000
00001000
00010000
00000010
00000000
,  // measure 25
00000100
00000001
00000100
00000001
00000100
00000000
00000010
00000000
00001000
00000000
00000200
00000000
00000300
00000000
00000010
00000100
,  // measure 26
00001000
00000100
00010000
00001000
00010000
00000000
01000000
00000000
10000000
00000000
00200000
00000000
00300000
00000000
00010000
00001000
,  // measure 27
01000000
00000000
00001000
00010000
01000000
00000000
00010000
00001000
01000000
00000000
00001000
00010000
01000000
00000000
00100000
00010000
,  // measure 28
10000000
01000000
00010000
00001000
00010000
00000000
00010100
00000000
00001000
00000000
02002000
00000000
03003000
00000000
00000000
00000000
,  // measure 29
01000000
00001000
00010000
00001000
01000000
00000000
00010000
00000000
00100000
00000000
02000000
00000000
03000000
00000000
10000000
00100000
,  // measure 30
00010000
00100000
01000000
00010000
01000000
00000000
00001000
00000000
00020000
00000000
00000000
00000000
00030000
00000000
00001000
00010000
,  // measure 31
00000100
00000000
00010000
00001000
00000100
00000000
00001000
00010000
00000100
00000000
00010000
00001000
00000100
00000000
00000010
00001000
,  // measure 32
00000001
00000100
00001000
00010000
00001000
00000000
00010000
00000000
00022000
00000000
00003000
00000000
00001000
00000000
00031000
00000000
,  // measure 33
00002000
00203000
00320000
02030000
03200000
20300000
32000000
03200000
,  // measure 34
00320000
02030000
03002000
00010000
00020000
00003000
00001000
00031000
,  // measure 35
00002000
02003000
03200000
00320000
00032000
00003200
00000320
00002030
,  // measure 36
00003002
00000203
00002300
00010000
00020000
00003000
00001000
00031000
,  // measure 37
00002000
00003020
00000032
00002003
00003200
00000320
00002030
00203000
,  // measure 38
00320000
02030000
03002000
00010000
00020000
00003000
00001000
00031000
,  // measure 39
00002000
00023000
02030000
23000000
30200000
00320000
00032000
00003200
,  // measure 40
00000301
00000010
00000100
00000000
00000010
00000000
00000001
00000010
00000100
00000000
00000010
00000000
00000001
00000100
00000010
00001000
,  // measure 41
00000100
00000000
00000001
00000100
00001000
00000000
00000100
00000000
00010000
00000000
00001000
00010000
01000000
00000000
00010000
00000000
,  // measure 42
00001000
00000000
00100000
01000000
00000000
10000000
00100000
00000000
00020000
00000000
00030000
00000000
00100000
00000000
01100000
00000000
,  // measure 43
10010000
00000000
10000000
01000000
00010000
00000000
01000000
00000000
00100000
00000000
00001000
00010000
00000010
00000000
00001000
00000000
,  // measure 44
00000100
00000000
00000010
00000000
00000001
00000000
00000100
00001000
00020000
00000000
00000000
00000000
00031000
00000000
00011000
00000000
,  // measure 45
00001000
00000000
00100000
00010000
00000000
01000000
00001000
00000000
00010000
00000000
00000100
00001000
00000000
00000010
00010000
00000000
,  // measure 46
00001000
00000000
00100000
01000000
00000000
00010000
00001000
00000000
00000020
00000000
00000030
00000000
00000110
00000000
00001001
00000000
,  // measure 47
00000001
00000000
00000100
00001000
00000000
00010000
01000000
00000000
10000000
00000000
00100000
01000000
00100000
01000000
00100000
01000000
,  // measure 48
00010000
00000000
00100000
01000000
00010000
00000000
00001000
00000010
00000100
00001000
00000100
00000010
00000001
00000100
00001000
00010000
,  // measure 49
00002000
00000000
00000000
00000000
,  // measure 50
00020000
00000000
00000000
00000000
00000000
00000000
00000000
00033000
,  // measure 51
00010100
00000000
00000000
00011000
00000000
00000000
02002000
00003000
00000000
03010000
00000000
00010000
00100000
00000000
00001000
00000000
,  // measure 52
00101000
00000000
00000000
00020200
00000000
00030300
00000000
00000000
00002010
00000000
00003000
00000000
00102000
00000000
00003000
00000000
,  // measure 53
01001000
00000000
00000000
00011000
00000000
00000000
00020200
00030000
00000000
00001300
00000000
00001000
00000010
00000000
00010000
00000000
,  // measure 54
00010010
00000000
00000000
02002000
00000000
03003000
00000000
00000000
00001000
00010000
01000000
00000000
00010000
00001000
00000100
00000000
,  // measure 55
00000101
00000000
00000000
00000011
00000000
00000000
00002200
00003000
00000000
00010300
00000000
00010000
01000000
00000000
10000000
00000000
,  // measure 56
10100000
00000000
00000000
02020000
00000000
03030000
00000000
00000000
10020000
00000000
00030000
00000000
00021000
00000000
00030000
00000000
,  // measure 57
10010000
00000000
00000000
10100000
00000000
00000000
00220000
00300000
00000000
00031000
00000000
00001000
00000010
00000000
00000100
00000000
,  // measure 58
00000001
00000010
00000001
00000010
00000100
00001000
00000100
00010000
00001000
01000000
00010000
01000000
00100000
10000000
01000000
00010000
,  // measure 59
00022000
00000000
00033000
00000000
;

//---------------dance-single - CSP no gimmick version----------------
#NOTEDATA:;
#CHARTNAME:;
#STEPSTYPE:dance-single;
#DESCRIPTION:CSP no gimmick version;
#CHARTSTYLE:;
#DIFFICULTY:Edit;
#METER:15;
#RADARVALUES:0.698668,0.726192,0.802036,0.828190,0.566656,561.000000,469.000000,92.000000,95.000000,0.000000,0.000000,2.000000,0.000000,0.000000,0.698668,0.726192,0.802036,0.828190,0.566656,561.000000,469.000000,92.000000,95.000000,0.000000,0.000000,2.000000,0.000000,0.000000;
#CREDIT:MILEN;
#NOTES:
0000
0000
0000
0000
,
0000
0000
0000
0000
,
0000
0000
0000
0000
,
0000
0000
0000
0000
,
2002
0000
0000
0000
0000
0000
0000
3003
,
1010
0000
0000
1100
0000
0000
2002
0003
0000
3100
0000
0100
0010
0000
0100
0000
,
1100
0000
0000
0022
0000
0033
0000
0000
0201
0000
0300
0000
1200
0000
0300
0000
,
0101
0000
0000
0011
0000
0000
2002
3000
0000
0013
0000
0010
0100
0000
0010
0000
,
0011
0000
0000
2200
0000
3300
0000
0000
2000
0000
3020
0000
0230
0000
0302
0000
,
0013
0100
0010
0100
0010
0000
0001
0000
2000
0000
3000
0000
1010
0000
0010
0100
,
0001
0000
0010
0000
0001
0100
0000
0010
0200
0000
0300
0000
0110
0000
0010
1000
,
0200
0300
0000
0000
0000
0000
0000
0000
0100
0000
0000
0000
0001
0000
0000
0000
0020
0030
0000
0000
0000
0000
0000
0000
0010
0000
0000
0000
1000
0000
0000
0000
0200
0300
0000
0000
0000
0000
0000
0000
0100
0000
0000
0000
0001
0000
0000
0000
0020
0030
0000
0000
0000
0000
0000
0000
0010
0000
0000
0000
1000
0000
0000
0000
,
0100
0010
0001
0100
0010
0000
0100
0000
0101
0000
0000
0000
1010
0000
0000
0000
,
0010
1000
0010
1000
0010
0000
0100
0000
0002
0000
0003
0000
0011
0000
0001
0100
,
0001
0010
0100
1000
0100
0000
1000
0000
0020
0000
0030
0000
0110
0000
0100
0001
,
0020
0030
0000
0000
0000
0000
0000
0000
0010
0000
0000
0000
1000
0000
0000
0000
0200
0300
0000
0000
0000
0000
0000
0000
0100
0000
0000
0000
0001
0000
0000
0000
0020
0030
0000
0000
0000
0000
0000
0000
0010
0000
0000
0000
1000
0000
0000
0000
0200
0300
0000
0000
0000
0000
0000
0000
0100
0000
0000
0000
0001
0000
0000
0000
,
0010
0100
1000
0010
0100
0000
0001
0000
2002
0000
0000
0000
3003
0000
1000
0001
,
1000
0010
0100
0001
0010
1000
0010
0001
,
0100
1000
0100
0001
0010
0000
0110
0100
,
1001
0001
0010
0100
0001
0100
1000
0010
,
0001
0000
0010
0000
1000
0000
0100
0010
0200
0000
0300
0000
1100
0000
0010
0000
,
0011
0000
0001
0100
0000
0010
0100
0000
1000
0000
0100
0010
0000
0100
0001
0000
,
1000
0000
0010
0100
0000
0010
0001
0000
0020
0000
0030
0000
1010
0000
0100
0000
,
0101
0000
0001
0010
0000
0100
0001
0000
0100
0000
1000
0010
0000
0100
1000
0000
,
0100
0010
0100
0000
0001
1000
0001
0000
0100
0010
1000
0001
0010
0100
1000
0000
,
0010
0100
0001
0100
0010
0000
1000
0000
0100
0000
0020
0000
0030
0000
0100
1000
,
0010
1000
0001
0100
0001
0000
0010
0000
0100
0000
2000
0000
3000
0000
0001
0100
,
0020
0030
0000
0000
0000
0000
0000
0000
0010
0000
0000
0000
0001
0000
0000
0000
0200
0300
0000
0000
0000
0000
0000
0000
0100
0000
0000
0000
1000
0000
0000
0000
0020
0030
0000
0000
0000
0000
0000
0000
0010
0000
0000
0000
0001
0000
0000
0000
2000
0000
0000
0000
0000
0000
0000
0000
3001
0000
0000
0000
0100
0000
0000
0000
,
0001
0010
0100
1000
0010
0000
0110
0000
0100
0000
2002
0000
3003
0000
0000
0000
,
0001
1000
0100
1000
0001
0000
0010
0000
0100
0000
2000
0000
3000
0000
0010
1000
,
0100
1000
0001
0010
0001
0000
0100
0000
0020
0000
0000
0000
0030
0000
1000
0100
,
0020
0030
0000
0000
0000
0000
0000
0000
0010
0000
0000
0000
1000
0000
0000
0000
0200
0300
0000
0000
0000
0000
0000
0000
0100
0000
0000
0000
0001
0000
0000
0000
0020
0030
0000
0000
0000
0000
0000
0000
0010
0000
0000
0000
1000
0000
0000
0000
0002
0000
0000
0000
0000
0000
0000
0000
1003
0000
0000
0000
0100
0000
0000
0000
,
1000
0001
0100
0010
1000
0000
1010
0000
0202
0000
0303
0000
1001
0000
1001
0000
,
0201
0310
2010
3100
0120
0031
0201
0310
,
1200
0310
0201
0310
1010
0000
0101
0100
,
1002
0103
0120
1030
1200
0310
0012
1003
,
2100
3010
0102
0013
0110
0000
1100
0100
,
0021
0130
2100
3010
0210
0301
0021
0130
,
1020
0130
0021
0130
1100
0000
0011
0010
,
2001
3010
0210
1300
0210
0301
1002
0103
,
0100
0001
0010
0000
0100
0000
0010
0001
0100
0000
0010
0000
1000
0001
1000
0001
,
0010
0000
0100
1000
0010
0000
0100
0001
0010
0000
0100
0010
0001
0000
1000
0100
,
0010
0000
0001
0100
0000
1000
0100
0000
0020
0000
0030
0000
1010
0000
1001
0000
,
0101
0000
0100
0001
1000
0000
0100
0010
0001
0000
0010
0100
1000
0000
0010
1000
,
0001
0000
0010
0000
1000
0000
0010
0001
0200
0000
0300
0000
0110
0000
1001
0000
,
1000
0000
0010
0100
0000
1000
0100
0000
0010
0000
0001
0010
0000
0100
0010
0000
,
1000
0000
0100
0001
0000
1000
0010
0000
0002
0000
0003
0000
0101
0000
1010
0000
,
1000
0000
0001
0100
0000
1000
0100
0000
0001
0000
0010
0100
0010
0100
1000
0001
,
0010
0000
0100
1000
0001
0000
0100
0010
1000
0001
1000
0010
0100
0001
1000
0100
,
0440
0000
0000
0000
0000
0000
0000
0330
,
2002
0000
0000
0000
0000
0000
0000
3003
,
0101
0000
0000
1100
0000
0000
2020
3000
0000
0130
0000
0100
1000
0000
0100
0000
,
0101
0000
0000
2020
0000
3030
0000
0000
1200
0000
0300
0000
0201
0000
0300
0000
,
1100
0000
0000
1010
0000
0000
0022
0003
0000
0130
0000
0100
0001
0000
0100
0000
,
1100
0000
0000
0022
0000
0033
0000
0000
0001
1000
0100
0000
1000
0001
0010
0000
,
0011
0000
0000
0101
0000
0000
2200
0300
0000
3010
0000
0010
0001
0000
0010
0000
,
1010
0000
0000
0202
0000
0303
0000
0000
1020
0000
0030
0000
0021
0000
0030
0000
,
1010
0000
0000
1100
0000
0000
0202
0300
0000
0013
0000
0010
1000
0000
0010
0000
,
0001
0100
0001
0100
0010
1000
0010
1000
0100
0010
0001
0100
0001
1000
0010
1000
,
2002
0000
3003
0000
;
