#VERSION:0.83;
#TITLE:Bring The Fire;
#SUBTITLE:;
#ARTIST:kors k;
#TITLETRANSLIT:;
#SUBTITLETRANSLIT:;
#ARTISTTRANSLIT:;
#GENRE:;
#CREDIT:Flicks;
#MUSIC:Bring The Fire.ogg;
#BANNER:;
#BACKGROUND:;
#CDTITLE:;
#SAMPLESTART:48.000;
#SAMPLELENGTH:10.500;
#SELECTABLE:YES;
#OFFSET:0.000;
#BPMS:0.000=160.000;
#STOPS:;
#BGCHANGES:;
#FGCHANGES:;

//--------------- dance-single - Flicks ----------------
#NOTEDATA:;
#STEPSTYPE:dance-single;
#DESCRIPTION:Flicks;
#DIFFICULTY:Beginner;
#METER:3;
#RADARVALUES:0,0,0,0,0;
#NOTES:
0000
0000
0000
0000
,
0000
0000
0000
0000
,
0000
0000
0000
0000
,
0000
0000
0000
0000
,
1000
0000
0000
0000
,
0001
0000
0000
0000
,
1000
0000
0000
0000
,
0001
0000
0000
0000
,
1000
0000
0000
0000
,
0100
0000
0000
0000
,
0010
0000
0000
0000
,
0001
0000
0000
0000
,
1000
0000
0000
0000
,
0001
0000
0000
0000
,
1000
0000
0000
0000
,
0001
0000
0000
0000
,
0100
0000
0000
0000
,
0001
0000
0000
0000
,
0100
0000
0000
0000
,
0010
0000
0000
0000
,
1000
0000
0000
0000
,
0010
0000
0000
0000
,
0100
0000
0000
0000
,
0001
0000
0000
0000
,
1000
0000
0000
0000
,
0001
0000
0000
0000
,
1000
0000
0000
0000
,
0001
0000
0000
0000
,
1000
0000
0000
0000
,
0100
0000
0000
0000
,
0010
0000
0000
0000
,
0001
0000
0000
0000
,
0010
0000
0000
0000
,
0100
0000
0000
0000
,
1000
0000
0000
0000
,
0001
0000
0000
0000
,
1000
0000
0000
0000
,
0001
0000
0000
0000
,
0100
0000
0000
0000
,
0010
0000
0000
0000
,
0100
0000
0000
0000
,
0001
0000
0000
0000
,
1000
0000
0000
0000
,
0100
0000
0000
0000
,
0010
0000
0000
0000
,
0100
0000
0000
0000
,
1000
0000
0000
0000
,
0001
0000
0000
0000
,
1000
0000
0000
0000
,
0000
0000
0000
0000
,
0001
0000
0000
0000
,
0000
0000
0000
0000
,
1000
0000
0000
0000
,
0000
0000
0000
0000
,
0001
0000
0000
0000
,
0000
0000
0000
0000
,
1000
0000
0000
0000
,
0010
0000
0000
0000
,
0100
0000
0000
0000
,
0001
0000
0000
0000
,
0010
0000
0000
0000
,
0100
0000
0000
0000
,
1000
0000
0000
0000
,
0001
0000
0001
0000
,
0001
0000
0000
0000
,
1000
0000
0000
0000
,
0100
0000
0000
0000
,
0010
0000
0000
0000
,
0001
0000
0000
0000
,
1000
0000
0000
0000
,
0100
0000
0000
0000
,
0010
0000
0000
0000
,
0001
0000
0000
0000
,
1000
0000
0000
0000
,
0001
0000
0000
0000
,
1000
0000
0000
0000
,
0001
0000
0000
0000
,
0100
0000
0000
0000
,
0010
0000
0000
0000
,
1000
0000
0000
0000
,
1001
0000
0000
0000
;

//--------------- dance-single - Flicks ----------------
#NOTEDATA:;
#STEPSTYPE:dance-single;
#DESCRIPTION:Flicks;
#DIFFICULTY:Easy;
#METER:9;
#RADARVALUES:0,0,0,0,0;
#NOTES:
0000
0000
0000
0000
,
0000
0000
0000
0000
,
0000
0000
0000
0000
,
0000
0000
0000
0000
,
1000
0001
0010
0000
,
0001
1000
0010
0000
,
1000
0001
0010
0001
,
1000
0001
1000
0001
1000
0000
1001
0000
,
0001
0100
0010
1000
,
0001
1000
0100
0110
,
0010
0100
1000
0001
,
0100
0010
1000
0000
0001
0000
1001
0000
,
1000
0100
0010
0001
,
1000
0001
0100
0110
,
0010
0100
0001
1000
,
0100
0010
0001
0000
1000
0000
1001
0000
,
1000
0000
0001
0100
0001
0000
0101
0000
,
0001
0000
1000
0100
1000
0000
1100
0000
,
0001
0000
1000
0010
1000
0000
1010
0000
,
1000
0010
0100
0001
1000
0000
1001
0000
,
0001
0000
1000
0100
1000
0000
1001
0000
,
1000
0000
0001
0100
0001
0000
1001
0000
,
1000
0100
1100
1000
,
1001
0000
0000
1001
,
0001
0000
1000
0000
0001
0100
0010
0000
,
0100
0001
1000
0100
,
1000
1100
1000
1001
,
2000
0000
0000
0000
3001
0100
0010
0000
,
1000
0001
1000
0000
0100
0000
0010
0000
,
0001
1000
0001
0000
0100
0000
0010
0000
,
1000
0010
1000
0000
0001
0010
0001
0000
,
0002
0000
0000
0000
1003
0010
0100
0000
,
0001
1000
0100
0010
,
0100
1000
0010
0100
,
0010
1000
0001
1000
,
0100
0010
0001
1001
,
0001
0100
0010
0100
,
0001
0010
0100
0010
,
0001
1000
0001
0100
,
0110
0000
1001
1001
,
2000
0100
3001
1000
,
0002
0000
0100
0000
1003
0000
0001
1000
,
0002
0010
1003
0001
,
2000
0010
3001
1001
,
2000
0100
3010
1000
,
0002
0010
0103
0001
,
1000
0100
1000
0000
0001
0000
1000
0000
,
1001
0000
0000
0000
,
1001
0000
0000
0000
,
0002
0000
0000
0000
,
2003
0000
0000
0000
,
3002
0000
0000
0000
,
0003
1000
0010
0000
,
1000
0001
0010
0000
,
0001
1000
0010
0000
,
1000
0001
0020
0000
,
0031
1000
0010
1000
,
0002
1000
0013
0001
,
2000
0001
3010
1000
,
1000
0001
0020
0000
,
0031
1000
0001
0000
0100
0000
0010
0000
,
1000
0001
1000
0000
0100
0000
0010
0000
,
0001
0010
0001
0000
1000
0010
1000
0000
,
0001
0100
0010
1000
0001
0000
1001
0000
,
1000
0100
1000
0000
0100
0000
0110
0000
,
0001
1000
0001
0000
0100
0000
0010
0100
,
0010
1000
0001
1001
,
1000
0010
0100
0110
,
0001
0100
0001
0000
0100
0000
0110
0000
,
1000
0001
1000
0000
0100
0000
0010
0100
,
0010
0001
1000
1001
,
0001
0100
0010
0110
,
0001
1000
0001
0000
1000
0000
0100
0000
,
0010
0100
1000
0000
0001
0000
1000
0000
,
1000
0001
1000
0000
0001
0000
0100
0000
,
0010
0100
0001
0000
1000
0000
0001
0000
,
1000
0001
1000
0000
0001
0000
0010
0000
,
0100
1000
0001
0000
1000
0000
0001
0000
,
0001
1000
0001
0000
1000
0000
0010
0000
,
0100
0001
1000
0001
1000
0000
1001
0000
,
2002
0000
0000
0000
,
3003
0000
0000
0000
;

//--------------- dance-single - Flicks ----------------
#NOTEDATA:;
#STEPSTYPE:dance-single;
#DESCRIPTION:Flicks;
#DIFFICULTY:Medium;
#METER:13;
#RADARVALUES:0,0,0,0,0;
#NOTES:
0000
0000
0000
0000
,
0000
0000
0000
0000
,
0000
0000
0000
0000
,
0000
0000
0000
0000
,
1000
0100
1000
0000
0001
0100
0001
0000
,
1000
0100
1000
0000
0001
0100
0001
0000
,
1000
0100
0010
0001
0010
0100
1000
0001
,
1000
0001
0000
1000
0001
0000
0100
0000
0001
0000
0000
0000
0110
0000
0000
0000
,
1000
0001
1000
0100
0010
0100
1000
0001
,
0100
0010
0100
0001
0000
1000
1001
0000
,
0001
1000
0001
0010
0100
0010
0001
1000
,
0010
0000
0100
0000
0010
0000
1000
0001
0000
0000
1000
0000
1001
0000
0000
0000
,
1000
0001
1000
0100
0010
0001
1000
0001
,
0100
0010
1000
0001
0000
1000
1001
0000
,
0001
1000
0001
0010
0100
1000
0001
1000
,
0010
0000
0100
0000
0001
0000
0100
0010
0000
0000
1000
0000
1001
0000
0000
0000
,
1000
0001
1000
0100
1000
0010
1000
0001
,
1000
0100
1000
0001
1000
0000
1001
0000
,
0001
1000
0001
0100
0001
0010
0001
1000
,
0001
0100
1000
0100
0001
0000
1001
0000
,
1000
0100
1000
0001
1000
0000
0001
0000
,
1000
0001
0100
0001
1000
0000
1001
0000
,
0001
0010
0001
0100
0001
1000
0001
1000
,
0001
0000
1000
0000
0100
0000
0010
0001
0000
0000
0000
0000
0011
0000
0000
0000
,
0001
0100
0001
0000
1000
0100
0010
0000
,
0100
0010
0001
1000
0001
0100
0001
0000
,
1001
0000
1000
0000
0001
0000
1000
1000
,
1000
0000
0000
0000
0001
0000
0010
0000
0001
0000
0000
1000
0001
0000
0001
0000
,
0001
1000
0100
0010
0001
1000
0100
0010
,
0001
0100
0010
1000
0001
0100
0010
1000
,
0001
1000
0002
0000
1003
0001
2000
0000
,
3001
0000
1000
0000
0001
0000
0010
0000
0001
0000
0000
1000
0001
0000
0000
0000
,
1000
0000
0100
0000
0010
0000
0100
0000
1000
0000
0000
0010
0000
0000
1000
0000
,
0001
0000
0010
0000
0100
0000
0010
0000
0001
0000
0000
0100
0000
0000
0001
0000
,
0100
0000
0001
0000
0100
0000
0010
0000
1000
0000
0000
0100
0000
0000
1000
0000
,
0001
0000
1000
0000
0001
0000
0100
0000
0010
0000
0000
1000
0001
0000
0000
0000
,
1000
0000
0100
0000
0010
0000
0001
0000
1000
0000
0000
0010
0000
0000
1000
0000
,
0001
0000
0010
0000
0100
0000
1000
0000
0001
0000
0000
0100
0000
0000
0001
0000
,
1000
0100
0010
0001
0100
0010
1000
0001
,
1000
0000
0000
0000
0001
0000
0010
0000
0100
0000
0000
1000
0001
0000
1000
0000
,
0002
0000
0000
0000
0003
0000
0000
0100
0010
0000
0000
0000
1010
0000
0000
0000
,
0002
0000
0000
0000
0003
0000
0000
0010
0100
0000
0000
0000
1000
0000
0001
0000
,
2000
0000
0000
0000
3000
0000
0000
0010
0100
0000
0000
0000
0101
0000
0000
0000
,
1000
0000
0000
0000
0000
0000
0100
0000
1000
0000
0000
0100
0010
0000
0001
0000
,
2000
0000
0000
0000
3000
0000
0000
0010
0100
0000
0100
0000
0101
0000
0000
0000
,
0002
0000
0000
0000
0003
0000
0000
0010
0100
0000
0100
0000
1000
0000
0001
0000
,
1000
0100
0010
0100
0010
0001
0100
0010
,
0100
0000
0000
0000
0010
0000
1000
0000
0100
0000
0000
1000
0001
0000
0000
0000
,
1001
0000
0000
0000
,
0002
0000
0000
0000
,
2003
0000
0000
0000
,
3002
0000
0000
0000
,
0003
1000
0010
0000
,
1000
0001
0010
0000
,
0001
1000
0010
0000
,
1000
0001
0020
0000
,
0130
0000
1000
0000
0000
0001
0000
0000
1000
0000
0000
0001
0000
0000
1000
0000
,
0001
0000
0100
0000
0000
0010
0000
0000
0100
0000
0000
0001
0000
0000
1000
0000
,
0001
0000
0010
0000
0000
0100
0000
0000
0010
0000
0000
0001
0000
0000
1000
0000
,
0001
0000
0100
0000
0000
0010
0000
0000
1010
0000
0000
0000
0000
0000
0000
0000
,
1000
0100
0010
0001
1000
0100
0010
0000
,
0001
0100
0010
1000
0001
0100
0010
0000
,
1000
0100
0010
0001
0100
0010
1000
0100
,
0010
0000
0110
0000
1000
0001
1001
0000
,
0001
0100
0010
0100
0001
1000
0100
1000
,
0010
1000
0001
0010
0100
1000
0010
1000
,
0100
1000
0001
0000
1000
0000
1001
0000
,
1000
0001
1000
0000
0001
0000
1001
0000
,
1000
0100
0010
0100
1000
0001
0100
0001
,
0010
0001
1000
0010
0100
0001
0010
0001
,
0100
0001
1000
0000
0001
0000
1001
0000
,
1000
0100
1000
0001
0100
0001
1001
0000
,
1000
0001
1000
0100
1000
0010
1010
0000
,
0001
0010
0001
1000
0001
0000
1000
1000
,
1000
0000
0010
0000
1000
0000
0001
0000
1000
0000
0000
0100
0000
0000
0010
0000
,
0001
0000
0000
0100
0000
0000
0001
0000
1000
0000
0000
0100
0000
0000
0010
0000
,
0001
1000
0001
0100
0001
0010
0011
0000
,
1000
0010
1000
0001
1000
0000
0001
0001
,
0001
0000
0010
0000
0001
0000
1000
0000
0001
0000
0000
0100
0000
0000
1000
0000
,
0100
0000
0000
0001
0000
0000
1000
0000
0100
0000
0000
0001
0000
0000
0100
0000
,
2000
0000
0000
0000
,
3000
0000
0000
0000
;

//--------------- dance-single - Flicks ----------------
#NOTEDATA:;
#STEPSTYPE:dance-single;
#DESCRIPTION:Flicks;
#DIFFICULTY:Hard;
#METER:16;
#RADARVALUES:0,0,0,0,0;
#NOTES:
0000
0000
0000
0000
,
0000
0000
0000
0000
,
0000
0000
0000
0000
,
0000
0000
0000
0000
,
1000
0001
1000
0001
0010
0000
0010
0000
,
0001
1000
0001
1000
0010
0000
0010
0000
,
1000
0000
0001
1000
0001
0000
0010
0000
0010
0000
0001
1000
0001
0000
1000
0000
,
0001
0100
0000
0001
1000
0000
0001
0010
0100
0010
0001
0000
0011
0000
0000
0000
,
1000
0001
0000
1000
0010
0000
0100
0010
0000
1000
0001
0000
0010
0000
0100
0000
,
1000
0100
0000
0010
0100
0000
1000
0001
0000
0100
0010
0000
1010
0000
0000
0000
,
0001
0100
0000
0010
1000
0000
0001
0010
0000
0100
1000
0000
0001
0000
1000
0000
,
0001
0000
0100
0000
1000
0000
0100
0020
0000
0030
0000
0000
1001
0000
0000
0000
,
1000
0001
0000
1000
0100
0000
0010
0100
0000
1000
0001
0000
0100
0000
0010
0000
,
1000
0010
0000
0100
0010
0000
1000
0001
0000
0010
0100
0000
1100
0000
0000
0000
,
0001
0010
0000
0100
1000
0000
0010
0100
0000
0001
1000
0000
0001
1000
0001
0000
,
1000
0000
0100
0000
0001
0000
0100
0010
0001
0000
1000
0000
1001
0000
0000
0000
,
0001
0000
0100
0001
0100
0000
0010
1000
0010
0000
1000
0000
0001
0010
0001
0000
,
1000
0000
0001
0100
0001
0000
1000
0100
0010
0001
1000
0000
1001
0000
0000
0000
,
1000
0000
0010
1000
0010
0000
0100
0001
0100
0000
0001
0000
1000
0001
1000
0000
,
0001
0000
0010
0000
1000
0000
0010
0200
0000
0300
1000
0000
1100
0000
0000
0000
,
1000
0000
0100
0000
0010
0000
0001
0010
0000
0100
1000
0000
0001
1000
0001
0000
,
1000
0000
0010
0000
0100
0000
0001
0100
0000
0010
1000
0000
1010
0000
1000
0000
,
0001
0000
1000
0100
0010
0100
1000
0001
0000
1000
0001
0100
0010
0100
0001
1000
,
0002
0000
0000
0000
0003
1000
1001
0000
,
1000
0000
0100
0000
0010
0000
0001
1000
0000
0001
0100
0000
0010
0000
0100
0000
,
0001
0000
0100
0000
0010
0000
1000
0001
0000
1000
0100
0000
0010
0000
0100
0000
,
1000
0100
1100
0000
0001
1000
1001
0000
,
1000
0000
0010
0000
0100
1000
0000
0100
0000
0001
0000
0100
0010
1000
0010
0000
,
1000
0001
1000
0001
1000
0100
1000
0100
,
1000
0001
0100
0001
0100
0001
1000
0001
,
1000
0100
1000
0000
0001
1000
0001
0000
1000
0010
1000
0000
0001
1000
0001
0000
,
1000
0000
0001
0000
1000
0001
0000
0010
0000
1000
0000
0010
0100
2000
0000
0000
,
3001
0000
1000
0000
0001
0000
0100
0010
0100
0000
0010
1000
0000
0010
0100
0000
,
0001
0000
1000
0000
0001
0000
0010
0100
0010
0000
0100
1000
0000
0100
0010
0000
,
0001
0000
1000
0000
0001
0000
0100
0010
0100
0000
0010
1000
0000
0100
0010
0000
,
0001
0000
1000
0000
0001
1000
0000
0010
0000
0001
0000
0010
0100
0001
0100
0001
,
0100
0000
0001
0000
0010
0000
0001
1000
0001
0000
0100
0010
0000
1000
0010
0000
,
1000
0000
0001
0000
0100
0000
0001
1000
0001
0000
0010
0100
0000
1000
0100
0000
,
1000
0000
0001
0100
0000
0010
0100
0000
0001
0100
0000
1000
0100
0000
0001
0000
,
2000
0000
0000
0000
3000
0001
0000
0010
0000
1000
0000
0010
0001
0000
1000
0001
,
1000
0000
0001
0100
0000
0010
0100
0000
0110
0000
0000
0001
1000
0000
0100
0000
,
1000
0000
0001
0010
0000
0100
0010
0000
0110
0000
0000
0001
1000
0000
0010
0000
,
1000
0000
0001
1000
0001
0000
0010
0000
0011
0000
0000
1000
0001
0000
0100
0000
,
0010
0000
1000
0000
0010
1000
0000
0010
0000
0001
0000
0010
1000
0010
1000
0010
,
1000
0000
0001
0010
0000
0100
0010
0000
0110
0000
0000
0001
1000
0000
0010
0000
,
1000
0000
0001
0100
0000
0010
0100
0000
0110
0000
0000
0001
1000
0000
0100
0000
,
1000
0000
0001
1000
0001
0000
0100
0000
0101
0000
0000
1000
0001
0000
0010
0000
,
0100
0000
1000
0000
0001
0100
0000
1000
0000
0001
0000
0010
1000
0000
0000
0000
,
1001
0000
0000
0000
,
0002
0000
0000
0000
,
2003
0000
0000
0000
,
3002
0000
0000
0000
,
1003
0000
0001
1000
0010
0000
0000
0000
,
0010
0000
1000
0001
0010
0000
0000
0000
,
0010
0000
0001
1000
0010
0000
0000
0000
,
0010
0000
1000
0001
0020
0000
0000
0000
,
0130
0000
1000
0000
0000
0001
0000
0000
0100
0010
0000
1000
0000
0000
0001
0000
,
1000
0000
0001
0000
0000
1000
0000
0000
0100
0010
0000
0001
0000
0000
1000
0000
,
0001
0000
1000
0000
0000
0001
0000
0000
0100
0010
0000
1000
0000
0000
0001
0000
,
1000
0000
0001
0000
0000
1000
0000
0000
0100
0010
0000
0001
0000
0000
1000
0000
,
0001
0100
0001
0010
0010
0001
1000
0001
,
1000
0100
1000
0010
0010
1000
0001
1000
,
0001
0010
0001
0000
0010
0100
0010
0000
0100
1000
0100
0000
1000
0001
1000
0000
,
0001
0100
0000
0010
1000
0000
0001
1000
0100
0010
0001
0000
0011
0000
0000
0000
,
1000
0000
0100
0010
0001
0000
0010
0100
0010
0000
0001
0000
0100
0001
0100
0001
,
0100
0000
0100
0010
1000
0000
0010
0100
0010
0000
1000
0000
0001
0000
0001
0000
,
0001
0000
0010
0100
1000
0000
0100
0010
0100
0000
1000
0000
0010
1000
0010
1000
,
0010
0000
0010
0100
0001
0000
0100
0010
0100
0000
0001
0000
1000
0000
1000
0000
,
1000
0000
0001
0010
0100
0000
0010
0100
1000
0000
0010
0000
0100
0001
0100
0001
,
0100
0000
0100
0010
1000
0000
0001
0100
0010
0000
1000
0000
0001
0000
0001
0000
,
0001
0000
1000
0100
0010
0000
0100
0010
0001
0000
0100
0000
0010
1000
0010
1000
,
0001
1000
0100
0010
0001
0010
0100
1000
0010
0000
0100
0000
0101
0000
0000
0000
,
1000
0000
0100
1000
0100
0000
0010
0001
0010
0000
0100
0000
2200
0000
3300
0000
,
1000
0000
0010
1000
0010
0000
0100
0001
0100
0000
0010
0000
0100
0000
0100
0000
,
0001
0000
1000
0000
0001
0000
0010
0000
0001
0000
0010
0100
0001
0000
0100
0000
,
1000
0000
0010
0100
1000
0000
0100
0000
0001
0000
0100
0000
0110
0000
0010
0000
,
1000
0000
0100
1000
0100
0000
0010
0001
0010
0000
0100
0000
2200
0000
3300
0000
,
1000
0000
0010
1000
0010
0000
0100
0001
0100
0000
0001
1000
0001
0000
1000
0000
,
0001
0010
0001
0000
0100
0000
0001
0010
0001
0000
1000
0001
1000
0000
0001
0000
,
1000
0000
0010
0100
0001
0000
0010
0000
0001
0100
0010
1000
0100
0010
0001
1000
,
0002
0000
0000
0000
,
0003
0000
0000
0000
;
