#VERSION:0.83;
#TITLE:*Break Down*;
#SUBTITLE:;
#ARTIST:SM-MEGAtive;
#TITLETRANSLIT:Break Down;
#SUBTITLETRANSLIT:;
#ARTISTTRANSLIT:;
#GENRE:;
#ORIGIN:;
#TAGS:;
#CREDIT:;
#BANNER:Break Down.png;
#BACKGROUND:Break Down-bg.png;
#PREVIEWVID:;
#JACKET:Break Down-jacket.png;
#CDIMAGE:;
#DISCIMAGE:;
#LYRICSPATH:;
#CDTITLE:cdtitle.png;
#MUSIC:Break Down.ogg;
#OFFSET:0.000000;
#SAMPLESTART:81.702003;
#SAMPLELENGTH:10.532000;
#SELECTABLE:YES;
#BPMS:0.000000=188.000000
;
#STOPS:;
#DELAYS:;
#WARPS:;
#TIMESIGNATURES:0.000000=4=4
;
#TICKCOUNTS:0.000000=4
;
#COMBOS:0.000000=1
;
#SPEEDS:0.000000=1.000000=0.000000=0
;
#SCROLLS:0.000000=1.000000
;
#FAKES:;
#LABELS:0.000000=Song Start
;
#BGCHANGES:;
#KEYSOUNDS:;
#ATTACKS:
;

//---------------dance-single - ----------------
#NOTEDATA:;
#CHARTNAME:;
#CHARTHASH:3270873474;
#STEPSTYPE:dance-single;
#BANNER:;
#DESCRIPTION:;
#CHARTSTYLE:;
#DIFFICULTY:Beginner;
#METER:3;
#METERF:0.000000;
#LASTSECONDHINT:122.553185;
#RADARVALUES:0.127459,0.225401,0.062612,0.352190,0.000000,114.000000,106.000000,8.000000,45.000000,0.000000,0.000000,0.000000,0.000000,0.000000,0.127459,0.225401,0.062612,0.352190,0.000000,114.000000,106.000000,8.000000,45.000000,0.000000,0.000000,0.000000,0.000000,0.000000;
#CREDIT:;
#NOTES:
0000
0000
0000
0000
,
0000
0000
0000
0000
,
0000
0000
0000
0000
,
0000
0000
0000
0000
,
2000
0000
0000
0000
,
3200
0000
0000
0000
,
0320
0000
0000
0000
,
0031
0000
0000
0000
,
2002
0000
3003
0000
,
0220
0000
0330
0000
,
1001
0000
0000
0000
,
0001
0000
0000
0000
,
0100
0000
0000
0000
,
0100
0000
0000
0000
,
0010
0000
0000
0000
,
0010
0000
0000
0000
,
2000
0000
0000
3000
,
0002
0000
0000
0003
,
0020
0000
0000
0030
,
0200
0000
0000
0000
,
2300
0000
0000
3000
,
0002
0000
0000
0003
,
0200
0000
0000
0000
,
0310
0000
0000
0000
,
2001
0000
0000
0000
,
0000
0000
0000
0000
,
3200
0000
0000
0000
,
0000
0000
0000
0000
,
0310
0000
0010
0000
,
0001
0000
0001
0000
,
2000
0000
0000
0000
,
3001
0000
0000
0000
,
1000
0020
0000
0000
,
0230
0000
0000
0000
,
0301
0000
0000
0000
,
0001
0000
0000
0000
,
1001
2000
0000
0000
,
3002
0000
0000
0000
,
0013
0000
0000
0000
,
0010
0000
0000
0000
,
0100
2000
0000
0000
,
3020
0000
0000
0000
,
0130
0000
0000
0000
,
0100
0000
0000
0000
,
1001
0002
0000
0000
,
0023
0000
0000
0000
,
0130
0000
0000
0000
,
0000
0000
0000
0000
,
1001
0000
0000
0000
,
0000
0000
0000
0000
,
0000
0000
0000
0000
,
0000
0000
0000
0000
,
0002
0000
0000
0000
,
0203
0000
0000
0000
,
0320
0000
0000
0000
,
0000
0000
0000
0000
,
2030
0000
0000
0000
,
3200
0000
0000
0000
,
0320
0000
0000
0000
,
0000
0000
0000
0000
,
0032
0000
0000
0000
,
2003
0000
0000
0000
,
3010
0000
0000
0000
,
0000
0000
0000
0000
,
1000
0000
1000
0000
,
0001
0000
0001
0000
,
0020
0000
0000
0000
,
0030
0000
0000
0000
,
0100
0000
0100
0000
,
1000
0000
1000
0000
,
0002
0000
0000
0000
,
0000
0000
0203
0000
,
0300
1001
0000
0001
,
1000
0000
1000
0000
,
0200
0000
0000
0000
,
0300
0000
0000
0000
,
0020
0000
0000
0000
,
0230
0000
0000
0000
,
2300
0000
0000
0000
,
3002
0000
0000
0000
,
1003
0000
1000
0000
,
0100
0000
0100
0000
,
0010
0000
0010
0000
,
0002
0000
0000
0000
,
0103
0000
0100
0000
,
0010
0000
0010
0000
,
1000
0000
1000
0000
,
0200
0000
0000
0000
,
0310
0000
0010
0000
,
0100
0000
0100
0000
,
1000
0000
1000
0000
,
0002
0000
0000
0000
,
0103
0000
0100
0000
,
0010
0000
0010
0000
,
1000
0000
1000
0000
,
0002
0000
0000
0000
,
1003
0000
0000
0000
;

//---------------dance-single - ----------------
#NOTEDATA:;
#CHARTNAME:;
#CHARTHASH:3673174485;
#STEPSTYPE:dance-single;
#BANNER:;
#DESCRIPTION:;
#CHARTSTYLE:;
#DIFFICULTY:Easy;
#METER:7;
#METERF:0.000000;
#LASTSECONDHINT:122.553185;
#RADARVALUES:0.288460,0.450803,0.046959,0.579157,0.031306,258.000000,252.000000,6.000000,74.000000,0.000000,0.000000,0.000000,0.000000,0.000000,0.288460,0.450803,0.046959,0.579157,0.031306,258.000000,252.000000,6.000000,74.000000,0.000000,0.000000,0.000000,0.000000,0.000000;
#CREDIT:;
#NOTES:
0000
0000
0000
0000
,
0000
0000
0000
0000
,
0000
0000
0000
0000
,
0000
0000
0000
0000
,
1000
0010
0000
0010
,
0000
0100
0000
0100
,
0002
0000
2000
0000
,
3003
0000
0000
0000
,
2002
0000
0000
3003
,
0220
0000
0330
0110
,
1001
0000
0001
0000
0000
0010
0001
0000
,
1000
0000
0000
1000
0000
0000
0000
0000
0010
0000
0000
0010
0000
0000
0000
0000
,
0100
0000
0001
0000
0000
1000
0100
0000
,
0010
0000
0100
0000
0000
1000
0001
0000
,
0100
0000
0010
0000
0000
0100
0001
0000
,
1000
0000
0000
1000
0000
0000
0000
0000
0001
0000
0000
0001
0000
0000
0000
0000
,
0020
0000
0031
1000
0001
0000
0100
0000
,
0020
0000
1030
0001
1000
0000
0100
0000
,
0020
0000
0031
1000
0001
0000
0100
0000
,
0010
0000
0000
0010
0000
0000
0000
0000
1000
0000
0000
1000
0000
0000
0000
0000
,
0002
0000
0013
0100
0010
0000
0001
0000
,
2000
0000
3010
0100
0010
0000
1000
0000
,
0002
0000
0013
0100
0010
0000
0001
0000
,
1001
0000
0000
0000
,
2000
0000
0000
0000
,
3020
0000
0000
0000
,
0230
0000
0000
0000
,
0302
0000
0000
0000
,
1003
0100
0010
0001
,
0100
0010
1000
0010
,
0200
0000
0302
0000
,
1003
0000
0000
0000
,
1000
0000
0100
0000
0000
0100
0000
0000
,
0100
0000
0000
0100
1000
0000
0001
0000
,
0100
0000
0010
0000
0000
0100
0001
0000
,
0010
0000
0100
0000
0000
0010
0001
0000
,
1000
0000
0010
0000
0100
0000
0010
0100
,
0010
0000
0100
0000
0010
0100
0010
0000
,
1000
0000
0100
0000
0000
0010
0100
0000
,
1000
0010
0010
0100
,
0001
0000
0010
0000
0000
0010
0000
0000
,
0010
0000
0000
0010
0100
0000
1000
0000
,
0010
0000
0100
0000
0000
0001
0100
0000
,
0010
1000
0100
0010
,
0001
0000
0100
0000
0010
0000
0100
0010
,
0100
0000
0010
0000
0100
0010
0100
0000
,
0002
0000
0000
0000
,
0000
0000
0000
0000
,
2003
0000
0000
0000
,
3200
0000
0000
0000
,
0320
0000
0000
0000
,
0000
0000
0000
0000
,
0032
0000
0000
0000
,
2003
0000
0000
0000
,
3020
0000
0000
0000
,
0000
0000
0230
0000
,
0301
0010
0100
0000
,
1000
0001
0100
0000
,
0010
1000
0001
0000
,
0010
0000
0000
0010
0000
0000
0000
0000
0001
0000
0000
0001
0000
0000
0000
0000
,
2000
0000
3020
0000
,
0230
0000
0302
0000
,
0013
0000
0000
0000
,
0000
0000
0000
0000
,
1001
1000
0001
0100
,
0010
0100
0001
0010
,
0200
0000
0000
0000
,
0000
0000
0000
0000
,
0310
0001
0100
0010
,
1000
0001
0010
0100
,
2000
0000
0000
0000
,
0000
0000
3002
0000
,
0003
0001
0100
0010
,
1000
0100
0010
0001
,
2000
0000
0000
0000
,
0000
0000
0000
0000
,
3010
0010
0100
0100
,
0001
0001
1000
1000
,
0200
0000
0000
0000
,
0000
0000
0000
0000
,
2300
0000
3020
0000
,
2030
0000
0000
3002
0000
0000
0023
0000
,
0230
0000
0320
0000
,
0032
2003
3020
0230
,
0302
0000
2003
0000
,
3002
0000
0000
0023
0000
0000
0230
0000
,
2300
0000
3002
0000
,
2003
3020
0230
0302
,
0023
0000
0230
0000
,
0320
0000
0000
0032
0000
0000
2003
0000
,
3020
0000
0230
0000
,
0302
0023
0230
2300
,
3001
0001
0100
0100
,
0010
0010
1000
1000
,
0200
0000
0320
0000
,
0032
0203
0320
2030
,
3001
0000
0000
0000
;

//---------------dance-single - ----------------
#NOTEDATA:;
#CHARTNAME:;
#CHARTHASH:2319309465;
#STEPSTYPE:dance-single;
#BANNER:;
#DESCRIPTION:;
#CHARTSTYLE:;
#DIFFICULTY:Medium;
#METER:12;
#METERF:0.000000;
#LASTSECONDHINT:122.553185;
#RADARVALUES:0.540024,0.638638,0.109570,0.406975,0.101744,483.000000,469.000000,14.000000,52.000000,0.000000,0.000000,0.000000,0.000000,0.000000,0.540024,0.638638,0.109570,0.406975,0.101744,483.000000,469.000000,14.000000,52.000000,0.000000,0.000000,0.000000,0.000000,0.000000;
#CREDIT:;
#NOTES:
// measure 0
0000
0000
0000
0000
,  // measure 1
0000
0000
0000
0000
,  // measure 2
0000
0000
0000
0000
,  // measure 3
0000
0000
0000
0000
,  // measure 4
1000
0000
1000
0010
1000
0000
0001
0010
,  // measure 5
0001
0000
1000
0010
1000
0000
0001
0010
,  // measure 6
0001
1000
0001
1000
0010
0100
0010
0100
,  // measure 7
0001
0000
0000
0000
,  // measure 8
0012
0000
0000
0010
0000
0000
0010
0000
0000
0010
0000
0000
0013
0000
0000
0000
,  // measure 9
2010
0000
0000
0010
0000
0000
3010
0000
1010
0000
0000
0000
1001
0000
0000
0000
,  // measure 10
0001
0010
0100
0000
0010
0001
0100
0000
,  // measure 11
0010
0000
0000
0010
0000
0000
1000
0000
0100
0000
0000
0010
0000
0002
0000
0000
,  // measure 12
1003
0100
0010
0000
0100
1000
0010
0000
,  // measure 13
0100
0000
0001
0000
0010
0000
0000
0100
0000
0000
0100
0000
0010
0000
0000
0000
,  // measure 14
0001
1000
0010
0000
0100
0010
1000
0000
,  // measure 15
0001
0000
0000
0001
0000
0000
1000
0000
0100
0000
0000
0010
0000
0010
0000
0000
,  // measure 16
0001
0100
1000
0100
0010
0100
0010
0000
,  // measure 17
1000
0100
0001
0100
0010
0100
0010
0000
,  // measure 18
0001
0100
1000
0100
0010
0100
0010
0000
,  // measure 19
1000
0000
0000
1000
0000
0000
0001
0000
0000
0010
0000
0000
0011
0000
0000
0000
,  // measure 20
0001
0010
1000
0010
0100
0010
0100
0000
,  // measure 21
1000
0010
0001
0010
0100
0010
0100
0000
,  // measure 22
0001
0010
1000
0010
0100
0010
0001
0100
,  // measure 23
0020
0000
0000
0000
,  // measure 24
2030
0000
0000
0000
,  // measure 25
3002
0000
0000
0000
,  // measure 26
0023
0000
0000
0000
,  // measure 27
0230
0000
0000
0000
,  // measure 28
1300
1000
0001
0001
,  // measure 29
0100
0100
0010
0010
,  // measure 30
0100
0010
1000
0001
0010
0100
1000
0001
,  // measure 31
0200
0000
0000
0000
,  // measure 32
0310
0000
1000
0010
1000
0010
0200
0000
,  // measure 33
0301
0010
0001
0010
0200
0000
0320
0000
,  // measure 34
0032
0000
0000
0000
0103
0000
0000
0100
0000
0000
0010
0000
0000
1000
0000
0000
,  // measure 35
1001
0000
0000
0000
0001
0000
0000
0001
0000
0000
1000
0000
0000
0100
0000
0000
,  // measure 36
0110
0000
1002
0000
1000
0000
1003
0100
,  // measure 37
0020
0000
0130
1000
0002
0000
0203
0000
,  // measure 38
0320
0000
0000
0000
1030
0000
0000
1000
0000
0000
0001
0000
0000
0010
0000
0000
,  // measure 39
0110
0000
0000
0000
0100
0000
0000
0100
0000
0000
1000
0000
0000
0001
0000
0000
,  // measure 40
1001
0000
1000
0001
1000
0001
0200
0000
,  // measure 41
0310
1000
0010
1000
0002
0000
0023
0000
,  // measure 42
0230
0000
0000
0000
1300
0000
0000
1000
0000
0000
0001
0000
0000
0100
0000
0000
,  // measure 43
0110
0000
0000
0000
0010
0000
0000
0010
0000
0000
1000
0000
0000
0001
0000
0000
,  // measure 44
0011
0000
2001
0000
3020
0000
0130
0001
,  // measure 45
0020
0000
0130
0010
0002
0000
2003
0000
,  // measure 46
3020
0000
0000
0000
,  // measure 47
0000
0000
0000
0000
,  // measure 48
1030
0001
0000
0001
0000
0100
0000
0100
,  // measure 49
0010
1000
0000
1000
0000
0100
2000
0000
,  // measure 50
3001
0010
0000
0010
0000
0100
0000
0100
,  // measure 51
1000
0001
0000
0001
0200
0000
0320
0000
,  // measure 52
1030
0001
0000
0001
0000
0010
0000
0010
,  // measure 53
0100
1000
0000
1000
0000
0010
2000
0000
,  // measure 54
3001
0100
0000
0100
0000
0010
0000
0010
,  // measure 55
1000
0001
0000
0001
0020
0000
0230
0000
,  // measure 56
1300
1000
0010
0010
,  // measure 57
0100
0000
0100
0000
0001
0000
0001
0010
,  // measure 58
0100
0100
0010
0010
,  // measure 59
0001
0000
0000
0001
0000
0000
0100
0000
0010
0000
0000
1000
0000
0000
1000
0000
,  // measure 60
0100
0010
0001
1000
0001
0100
0010
1000
,  // measure 61
0001
1000
0100
0010
0001
1000
0001
0100
,  // measure 62
0020
0000
0000
0000
,  // measure 63
0000
0000
0000
0000
,  // measure 64
1030
0001
0100
0000
0010
0000
0010
0000
,  // measure 65
0100
0001
1000
0000
0100
0000
0100
0000
,  // measure 66
0010
0100
1000
0000
0001
0000
0001
0000
,  // measure 67
0100
0010
1000
0000
0001
0000
0001
0001
,  // measure 68
1000
0100
0010
0000
0100
0000
0100
0000
,  // measure 69
0010
0001
1000
0000
0010
0000
0010
0000
,  // measure 70
0100
0001
1000
0000
0100
0000
0100
0000
,  // measure 71
0010
0100
1000
0000
0001
0000
0001
0100
,  // measure 72
1000
0110
0010
1000
,  // measure 73
0001
0010
0100
0000
1000
0000
1000
0000
,  // measure 74
0100
1000
0010
0000
0100
0000
0100
0000
,  // measure 75
0010
0100
0001
0000
1000
0000
1000
1000
,  // measure 76
0001
0010
0001
0010
0100
1000
0020
0000
,  // measure 77
0130
0001
0100
0001
1000
0010
0100
0020
,  // measure 78
1030
0001
0010
0100
1000
0001
1000
0010
,  // measure 79
0100
0001
1000
0001
0010
0100
1000
0001
,  // measure 80
0100
0100
0010
0010
,  // measure 81
1000
0001
0010
0200
1000
0000
0310
0001
,  // measure 82
1000
1000
0010
0010
,  // measure 83
0200
0302
0023
0230
,  // measure 84
1300
1000
0001
0001
,  // measure 85
0100
0010
2000
0001
0000
0000
3100
0010
,  // measure 86
0001
0001
0100
0100
,  // measure 87
0020
2030
3002
0023
,  // measure 88
0130
0100
1000
1000
,  // measure 89
0001
1000
0020
0100
0000
0000
1030
0100
,  // measure 90
0010
0010
0100
0100
,  // measure 91
2000
3002
0203
0320
,  // measure 92
1030
0001
1000
0001
0100
0010
0100
0010
,  // measure 93
1000
0100
1000
0100
0010
0001
0010
0001
,  // measure 94
0100
0010
0100
0001
0100
0010
1000
0100
,  // measure 95
0010
0100
0010
0001
1000
0010
0100
0001
,  // measure 96
0010
0000
0000
0000
;

//---------------dance-single - ----------------
#NOTEDATA:;
#CHARTNAME:;
#CHARTHASH:2441552241;
#STEPSTYPE:dance-single;
#BANNER:;
#DESCRIPTION:;
#CHARTSTYLE:;
#DIFFICULTY:Hard;
#METER:14;
#METERF:0.000000;
#LASTSECONDHINT:122.553185;
#RADARVALUES:0.648477,0.826472,0.242620,0.461760,0.176095,580.000000,549.000000,31.000000,59.000000,0.000000,0.000000,0.000000,0.000000,0.000000,0.648477,0.826472,0.242620,0.461760,0.176095,580.000000,549.000000,31.000000,59.000000,0.000000,0.000000,0.000000,0.000000,0.000000;
#CREDIT:;
#NOTES:
0000
0000
0000
0000
,
0000
0000
0000
0000
,
0000
0000
0000
0000
,
0000
0000
0000
0000
,
1000
0000
0000
0001
1000
0000
0010
0000
0100
0000
0000
0010
0100
0000
0001
0000
,
1000
0000
0000
0001
1000
0000
0100
0000
0010
0000
0000
0100
0010
0000
0001
0000
,
1000
0010
0100
0010
1000
0100
0010
0001
,
0100
0000
0000
0000
,
0101
0000
0000
0100
0000
0000
0110
0000
0000
0010
0000
0000
1001
0000
0000
0000
,
1100
0000
0000
1000
0000
0000
0100
0010
0001
0000
0000
0000
0011
0000
0000
0000
,
1001
1000
0010
0000
0100
0001
0010
0000
,
0100
0000
0000
1100
0000
0000
1000
0000
0001
0000
0000
0101
0000
0000
0100
0000
,
0010
0010
1000
0000
0100
0010
0001
0000
,
1000
0000
1000
0000
0010
0000
0000
0001
0000
0000
0010
0000
0100
0000
0000
0000
,
0001
0001
0010
0000
0100
1000
0010
0000
,
0100
0000
0000
0101
0000
0000
0001
0000
1000
0000
0000
1100
0000
0000
0100
0000
,
0010
0001
0010
0001
0010
0000
0100
0000
1000
0000
0001
0000
0100
0000
0000
0000
,
0010
1000
0010
1000
0010
0000
0100
0000
0001
0000
1000
0000
0100
0000
0000
0000
,
0010
0001
0010
0001
0010
0000
0100
0000
1000
0000
0001
0000
0100
0000
0000
0000
,
0010
0000
0000
0110
0000
0000
0100
0000
0100
0001
0000
0000
1001
0000
0000
0000
,
1000
0001
1000
0001
1000
0000
0100
0000
0010
0000
0001
0000
0100
0000
0000
0000
,
0010
0100
0010
0100
0010
0000
1000
0000
0001
0000
0010
0000
0100
0000
0000
0000
,
1000
0001
1000
0001
1000
0000
0010
0000
0100
0000
0001
0000
1000
0001
1000
0001
,
2000
0000
0000
0000
,
3002
0000
0023
0000
,
0230
0000
0000
0302
0000
0000
0203
0000
,
0320
0000
0032
0000
,
2003
3020
0230
0302
,
1003
0001
0100
0010
1000
0001
0010
0001
,
1000
0010
0100
0001
1000
0100
1000
0001
,
0100
0010
1000
0100
0010
0001
0100
0010
,
2010
0000
0000
0000
,
3001
0000
1000
0100
0001
0100
2000
0000
,
3001
0100
1000
0100
0002
0000
0013
0000
,
2100
0000
0000
0000
3002
0000
0000
1000
0000
0000
0100
0000
0000
0103
0000
0000
,
0110
0000
0000
0000
2000
0000
0000
0001
0000
0000
0100
0000
0000
3100
0000
0000
,
0110
0000
0010
0001
0100
0001
0010
0100
,
1000
0010
1000
0100
0010
0001
0100
0000
,
2010
0000
0000
0000
3002
0000
0000
1000
0000
0000
0010
0000
0000
0013
0000
0000
,
0110
0000
0000
0000
2000
0000
0000
0001
0000
0000
0010
0000
0000
3010
0000
0000
,
0110
0000
1000
0100
0001
0100
2000
0000
,
3001
0100
1000
0100
0002
0000
0020
0033
,
1002
0000
0000
0000
0100
0000
0000
0100
0000
0000
0010
0000
0000
0013
0000
0000
,
2001
0000
0000
0000
0100
0000
0000
0100
0000
0000
0010
0000
0000
3010
0000
0000
,
0110
0000
0100
0001
0010
0001
0100
0010
,
1000
0100
1000
0010
0100
0100
0100
0000
,
2002
0000
0000
0000
,
0000
0000
0000
3003
,
2000
0100
0000
0100
0000
0001
0000
3001
,
0200
0010
0000
0010
0000
0301
0100
0010
,
2000
0001
0000
0001
0000
0100
0000
3100
,
0020
0001
0000
0031
0200
0000
0310
1000
,
0002
0010
0000
0010
0000
1000
0000
1003
,
0020
0100
0000
0100
0000
1030
0010
0100
,
0002
1000
0000
1000
0000
0010
0000
0013
,
0200
1000
0000
1300
0002
0000
0103
0010
,
1000
1010
0010
0110
,
0100
0000
0101
0000
0001
0000
1000
0100
,
0010
0110
0100
1100
,
1000
0000
0000
1000
0000
0000
0010
0000
0100
0000
0000
0100
0000
0000
0001
0000
,
1000
0100
0010
0001
0100
0010
1000
0100
,
0010
0001
0100
0010
1000
0100
0010
0001
,
0200
0000
0000
0000
,
0000
0000
0000
0000
,
0301
0010
1000
0010
0100
0010
1000
0010
,
0001
1000
0010
0001
0010
0100
0001
1000
,
0001
0010
1000
0010
0100
0010
1000
0010
,
0001
1000
0010
0001
0010
0100
0001
0001
,
1000
0100
0001
0100
0010
0100
0001
0100
,
1000
0001
0100
1000
0100
0010
1000
0001
,
1000
0100
0001
0100
0010
0100
0001
0100
,
1000
0001
0100
1000
0100
0010
1000
1000
,
1000
0000
1001
0001
0010
1000
0010
0001
,
1000
0010
0100
1000
0100
0010
1000
0100
,
1000
0010
0001
0010
0100
0010
0001
0010
,
1000
0001
0010
1000
0010
0100
1000
1000
,
0010
0100
0010
1000
0010
0100
0001
0001
,
1000
0100
1000
0001
1000
0100
1000
0001
,
0100
0010
1000
0100
0010
0001
0100
0010
,
1000
0100
0010
0001
0100
0010
1000
0100
,
2100
0100
3002
0100
,
2003
0000
3100
0020
0001
0000
0100
0000
,
0032
1000
0203
0010
,
0302
0023
0230
2300
,
3020
0100
2030
0001
,
3020
0000
0130
0002
0010
0000
0100
0000
,
2003
0100
3020
0100
,
2030
3200
0320
0032
,
1003
1000
0010
0010
,
0100
0000
0000
0000
0100
0000
0000
0000
0001
0000
0000
0001
1000
0000
0100
0000
,
0010
0010
0100
0100
,
1000
0000
0000
0000
1000
0000
0000
0000
0001
0000
0000
0001
1000
0000
0010
0000
,
0010
0100
0010
1000
0100
1000
0010
0100
,
0001
0010
0001
0100
0010
1000
0100
1000
,
0010
0010
0100
0100
0001
0001
0001
1000
,
0001
0100
0010
1000
0100
0010
0001
0100
,
0110
0000
0000
0000
;

//---------------dance-single - ----------------
#NOTEDATA:;
#CHARTNAME:;
#CHARTHASH:3597369501;
#STEPSTYPE:dance-single;
#BANNER:;
#DESCRIPTION:;
#CHARTSTYLE:;
#DIFFICULTY:Challenge;
#METER:17;
#METERF:0.000000;
#LASTSECONDHINT:122.553185;
#RADARVALUES:0.884388,1.239708,0.375669,0.618289,0.684814,791.000000,743.000000,48.000000,79.000000,0.000000,0.000000,0.000000,0.000000,0.000000,0.884388,1.239708,0.375669,0.618289,0.684814,791.000000,743.000000,48.000000,79.000000,0.000000,0.000000,0.000000,0.000000,0.000000;
#CREDIT:;
#NOTES:
0000
0000
0000
0000
,
0000
0000
0000
0000
,
0000
0000
0000
0000
,
0000
0000
0000
0000
,
1000
0000
0000
1000
0010
0000
0100
0000
0100
0000
0000
0001
0010
0000
0100
0000
,
0100
0000
0000
1000
0010
0000
0100
0000
0100
0000
0000
0001
0010
0000
0100
0000
,
1000
0001
1000
0001
0100
0010
0100
0010
0100
0001
0100
0001
1000
0100
1000
0100
,
0010
0000
0000
0000
,
0011
0000
0000
0110
0000
0000
0011
0000
0000
1001
0000
0000
1010
0000
0000
0000
,
0110
0000
0000
1010
0000
0000
0010
1000
0100
0000
0000
0000
1100
0000
0000
0000
,
1001
0001
0100
0010
1000
0100
0001
0000
,
0110
0000
0000
0011
0000
0000
0001
0100
1000
0000
0000
1100
0000
1000
0100
0010
,
0100
0100
0001
1000
0100
0010
1000
0000
,
0010
0000
0010
0000
0100
0000
1000
0001
0000
0000
0100
0000
1000
0000
0000
0000
,
0100
0100
0010
1000
0001
0010
1000
0000
,
0110
0000
0000
1100
0000
0000
1000
0010
0001
0000
0000
0011
0000
0001
0010
0100
,
0001
1000
0001
1000
0100
0000
0010
0000
0010
0000
0001
0000
0101
0000
0000
0000
,
0100
0010
0100
0010
1000
0000
0001
0000
0001
0000
0010
0000
0110
0000
0000
0000
,
0100
1000
0100
1000
0001
0000
0100
0000
0100
0000
0010
0000
1010
0000
0000
0000
,
1010
0000
0000
1001
0000
0000
0001
1000
0100
0001
0000
0000
0110
0000
0000
0000
,
0100
0010
0100
0010
0001
0000
1000
0000
1000
0000
0010
0000
0110
0000
0000
0000
,
0100
0001
0100
0001
1000
0000
0100
0000
0100
0000
0010
0000
0011
0000
0000
0000
,
0001
1000
0001
1000
0010
0000
0100
0000
0100
0000
0010
0000
0100
0001
0100
0001
,
0020
0000
0000
0000
,
0230
0000
2300
0000
,
3200
0000
0000
0320
0000
0000
2030
0000
,
3020
0000
0032
0000
,
2003
3020
0230
0302
,
1003
0001
1000
0100
0010
0001
0100
0010
,
1000
0001
0010
0001
1000
0010
0100
0001
,
1000
0100
0010
0100
1000
0001
0100
0001
1000
0100
0010
0001
1000
0001
0100
0010
,
2000
0000
0000
0000
0000
0000
0000
3000
,
1010
0000
0002
0023
2030
3020
0230
0000
,
2300
3020
0032
0023
0230
0000
0302
0000
,
1003
0001
0100
0010
2000
0000
0000
0100
0000
0000
0010
0000
0000
3001
0000
0000
,
0012
0000
0000
0000
0100
0000
0000
0010
0000
0000
1000
0000
0000
0103
0000
0000
,
1010
0000
2000
0010
3002
0010
1003
1000
,
2000
0010
3002
0023
2030
3020
0130
0100
,
1000
0100
0010
0001
0200
0000
0000
1000
0000
0000
0010
0000
0000
0301
1000
0000
,
1100
0000
0000
0000
0200
0000
0000
0001
0000
0000
0010
0000
0000
1300
0001
0000
,
0001
0000
2000
3020
0032
0023
0230
0000
,
0302
0023
2030
3020
0230
0000
2300
0000
,
3001
1000
0100
0010
0002
0000
0000
0100
0000
0000
0010
0000
0000
1003
0000
0000
,
2010
0000
0000
0000
0100
0000
0000
0010
0000
0000
0001
0000
0000
3100
0000
0000
,
0110
0000
0002
0010
2003
0010
3100
0100
,
0200
0010
2300
3020
0032
0023
0130
0100
,
0020
0000
0000
1000
0000
0000
1000
0000
,
0100
0000
0000
0100
0000
0000
0130
0000
,
2001
0001
0000
0010
0000
0001
0000
3020
,
0230
0001
0000
0010
0000
0301
0001
1000
,
0200
0010
0000
1000
0000
0010
0000
2300
,
3020
0100
0000
1000
1030
0100
0010
0001
,
2000
0010
0000
0001
0000
0010
0000
3002
,
0023
0100
0000
0001
0000
0100
0130
1000
,
0002
0100
0000
1000
0000
0100
0000
2003
,
3200
0010
0000
1000
1300
0010
0100
0001
,
1000
0100
0010
0001
0100
0001
0010
0100
,
1000
0010
0100
0001
0010
0001
0100
0100
,
0001
1000
0100
0010
0001
0100
0001
0010
,
0100
0000
0000
1100
0000
0000
1000
0000
0001
0000
0000
0101
0000
0000
0100
0000
,
0010
1000
0001
1000
0100
0010
0100
1000
0001
1000
0010
0100
0001
1000
0001
0010
,
0100
1000
0001
1000
0010
0100
0010
1000
0001
1000
0100
0010
0001
1000
0001
0100
,
0020
0000
0000
0100
0000
0000
0100
0000
,
1000
0000
0000
1000
0000
0000
1000
0030
,
1000
0001
0010
0100
0010
0000
0001
1000
0010
0000
0100
0001
0010
0000
0100
1000
,
0001
0100
0010
1000
0100
0000
0010
0001
1000
0000
0010
0100
0001
1000
0001
0010
,
0100
1000
0001
0100
0001
0000
1000
0001
0010
0000
0100
1000
0001
0000
0100
0010
,
1000
0001
0010
0100
0010
0000
0100
1000
0020
0000
0230
0000
2300
0000
3200
0000
,
0301
1000
0100
0010
0100
0000
1000
0001
0100
0000
0010
1000
0100
0000
0010
0001
,
1000
0010
0100
0001
0010
0000
0100
1000
0001
0000
0100
0010
1000
0001
1000
0100
,
0010
0001
1000
0010
1000
0000
0001
1000
0100
0000
0010
0001
1000
0000
0010
0100
,
0001
1000
0100
0010
0100
0000
0010
0001
0200
0000
0320
0000
1030
0001
0010
0001
,
0100
0000
0000
0000
1010
0000
0010
1000
0001
0000
0010
0100
1000
0000
0001
0100
,
0010
1000
0001
0010
0001
0000
1000
0010
0100
0000
0010
1000
0001
1000
0100
0010
,
0001
1000
0010
0100
0010
0000
0100
0001
1000
0000
0001
0010
0100
0000
1000
0001
,
0100
0010
1000
0001
1000
0000
0001
0010
0200
0000
0302
0000
0203
0000
0320
0000
,
0031
0000
0001
0000
1000
0000
1000
0000
0010
0000
0010
0000
0100
0010
1000
0001
,
0010
0000
0010
0000
0100
0000
0100
0000
1000
0000
1000
0000
0001
0000
1000
0010
,
0100
0001
1000
0001
0010
0100
0010
0001
1000
0010
0100
0001
1000
0001
0010
0100
,
0010
0001
1000
0010
0100
0001
1000
0001
0010
0100
0010
0001
1000
0001
0100
0010
,
1000
0001
0010
0100
0001
0100
1000
0001
,
0100
0010
0100
1000
0100
0010
1000
0001
,
0010
0100
1000
0010
0001
0010
0100
0001
,
1000
0100
0010
0100
0001
0100
0010
0001
,
0100
0010
1000
0100
0001
0100
0010
0001
,
1000
0010
0100
1000
0100
0010
1000
0001
,
0010
0100
1000
0010
0001
0010
1000
0001
,
1000
0100
0010
0100
0001
0100
0010
0001
,
1001
1001
1010
1010
,
0110
0000
0000
0000
0110
0000
0000
0000
0101
0000
0000
0100
0001
0000
1000
0000
,
1100
1100
0110
0110
,
0011
0000
0000
0000
1001
0000
0000
0000
1010
0000
0000
1000
0010
0000
1000
0000
,
0001
0010
0001
0100
0010
1000
0100
0010
,
0001
0100
0001
0010
0100
1000
0010
0100
,
0001
0000
0001
0000
0010
0000
0010
0000
0100
1000
0100
1000
0001
0000
0100
0000
,
0100
0010
0100
0010
1000
0010
1000
0010
1000
0001
1000
0001
0010
0100
1000
0000
,
1100
0000
0000
0000
;
