#TITLE:Boy Meets Girl;
#SUBTITLE:Da! Da! Da! Remix;
#ARTIST:TRF;
#TITLETRANSLIT:;
#SUBTITLETRANSLIT:;
#ARTISTTRANSLIT:;
#GENRE:;
#CREDIT:;
#MUSIC:Boy Meets Girl (Da! Da! Da! Remix).ogg;
#BANNER:Boy Meets Girl (Da! Da! Da! Remix).png;
#BACKGROUND:Boy Meets Girl (Da! Da! Da! Remix)-bg.png;
#CDTITLE:;
#SAMPLESTART:52.809;
#SAMPLELENGTH:16.000;
#SELECTABLE:YES;
#OFFSET:1.591;
#BPMS:0.000=150.000;
#STOPS:;
#BGCHANGES:;
#FGCHANGES:;

//--------------- dance-single - OrangeRight ----------------
#NOTES:
     dance-single:
     OrangeRight:
     Beginner:
     2:
     0,0,0,0,0:
0000
0000
0000
0000
,
0000
0000
0000
0000
,
0000
0000
0000
0000
,
0000
0000
0000
0000
,
0000
0000
0000
0000
,
1000
0000
0000
0000
,
1000
0000
0000
0000
,
0001
0000
0000
0000
,
0001
0000
0000
0000
,
1000
0000
1000
0000
,
1000
0000
0000
0000
,
0001
0000
0001
0000
,
0001
0000
0000
0000
,
0100
0000
0100
0000
,
0100
0000
0000
0000
,
0010
0000
0010
0000
,
0010
0000
0000
0000
,
1000
0000
0000
0000
,
0100
0000
0000
0000
,
1000
0000
0000
0000
,
1000
0000
0000
0000
,
0001
0000
0000
0000
,
0100
0000
0000
0000
,
0001
0000
0000
0000
,
0001
0000
0000
0000
,
1000
0000
0000
0000
,
0010
0000
0000
0000
,
0100
0000
0000
0000
,
0001
0000
0000
0000
,
0001
0000
0000
0000
,
0010
0000
0000
0000
,
0100
0000
0000
0000
,
1000
0000
0000
0000
,
0000
0000
0000
0000
,
1000
0000
0001
0000
,
1000
0000
0000
0000
,
0001
0000
1000
0000
,
0001
0000
0000
0000
,
0100
0000
0100
0000
,
0100
0000
0100
0000
,
0010
0000
0000
0000
,
1000
0000
0000
0000
,
0001
0000
0100
0000
,
0001
0000
0000
0000
,
1000
0000
0100
0000
,
1000
0000
0000
0000
,
0010
0000
0010
0000
,
0010
0000
0010
0000
,
0100
0000
0000
0000
,
0001
0000
1000
0000
,
1001
0000
0000
0000
,
0000
0000
0000
0000
,
1000
0000
0000
0000
,
0100
0000
0000
0000
,
0010
0000
0000
0000
,
0001
0000
0000
0000
,
0001
0000
0000
0000
,
0100
0000
0000
0000
,
0010
0000
0000
0000
,
1000
0000
0000
0000
,
1000
0000
0001
0000
,
1000
0000
0000
0000
,
0001
0000
1000
0000
,
0001
0000
0000
0000
,
0100
0000
0010
0000
,
0100
0000
0000
0000
,
0010
0000
0100
0000
,
0010
0000
0000
0000
,
1000
0000
0000
0000
,
0000
0001
0000
0000
;

//--------------- dance-single - OrangeRight ----------------
#NOTES:
     dance-single:
     OrangeRight:
     Easy:
     6:
     0,0,0,0,0:
0000
0000
0000
0000
,
0000
0000
0000
0000
,
0000
0000
0000
0000
,
0000
0000
0000
0000
,
0000
0000
0000
0000
,
2000
0000
3000
0000
,
0002
0000
0003
0000
,
0200
0000
0300
0000
,
2002
0000
3003
0000
,
2000
3000
0002
0003
,
1000
0001
1000
0100
,
0020
0030
0020
0030
,
0100
1000
0100
1000
,
0002
0003
2000
3000
,
0001
1000
0010
1000
,
0200
0300
0200
0300
,
0010
0001
0010
0001
,
2000
0000
3100
1000
,
0002
0000
0103
0001
,
0020
0000
0130
1000
,
0020
0000
0130
0001
,
1000
0100
1000
0001
,
0200
0000
0310
0000
,
1000
0100
1000
0000
,
0001
0100
0001
0000
,
2000
0000
3010
1000
,
0002
0000
0013
0001
,
0200
0000
0310
1000
,
0200
0000
1300
0001
,
0200
0300
0020
0030
,
1000
0001
1000
0000
,
0001
0010
0100
0000
,
1000
0010
0100
0001
,
1000
1000
0001
0001
,
1000
0100
2000
3000
,
0001
0100
0002
0003
,
0100
0010
1000
0100
,
1000
0001
2000
3000
,
0001
0100
0001
0100
,
0010
1000
0010
1000
,
2002
3003
2002
3003
,
0001
0010
0100
1000
,
0001
0010
0002
0003
,
1000
0010
2000
3000
,
0010
0100
0001
0010
,
0001
1000
0002
0003
,
1000
0100
1000
0100
,
0010
0001
0010
0001
,
2000
3000
0002
0003
,
1000
0001
0001
1000
,
2002
3003
0220
0330
,
2002
0000
0000
3003
,
2000
0000
3000
0000
,
0002
0000
0003
0000
,
0200
0300
0200
0300
,
0001
1000
0100
0010
,
0002
0000
0003
0000
,
2000
0000
3000
0000
,
0020
0030
0020
0030
,
1000
0010
0100
0001
,
1000
1000
0001
0001
,
0010
0100
0010
0001
,
0200
0300
0200
0300
,
0001
1000
0100
1000
,
0001
0001
1000
1000
,
0010
0100
0010
1000
,
0200
0300
0200
0300
,
1000
0010
0100
0001
,
2002
0000
3003
1000
,
0001
0220
0000
0000
,
0000
0330
0000
0000
;

//--------------- dance-single - OrangeRight ----------------
#NOTES:
     dance-single:
     OrangeRight:
     Medium:
     11:
     0,0,0,0,0:
0000
0000
0000
0000
,
0000
0000
0000
0000
,
0000
0000
0000
0000
,
0000
0000
0000
0000
,
0000
0000
0000
0000
,
2000
3000
2000
3000
,
0002
0003
0002
0003
,
0200
0300
0020
0030
,
2002
0000
3003
0000
,
1000
0100
1000
0000
0001
0100
0001
0000
,
1000
0100
0010
0100
1000
0001
0100
0000
,
0001
0100
0001
1000
0100
1000
0001
0000
,
1000
0100
0001
0000
0001
0100
1000
0000
,
0001
0100
0001
0000
1000
0100
1000
0000
,
0001
0100
0010
0100
0001
1000
0100
0000
,
1000
0010
1000
0001
0010
0001
1000
0000
,
0001
0000
0100
0000
0010
0000
1000
0100
0000
1000
0100
0000
1000
0000
0000
0000
,
0001
0000
0000
0001
0000
0000
0001
0000
1000
0000
0100
0000
1000
0000
0000
0000
,
0001
0000
0000
0100
0000
0000
0001
0000
0000
0000
2002
0000
0000
0000
3003
0000
,
1000
0000
0000
1000
0000
0000
1000
0000
0001
0000
0100
0000
0001
0000
0000
0000
,
1000
0000
0000
0100
0000
0000
1000
0000
0000
0000
2002
0000
0000
0000
3003
0000
,
1000
0000
0000
0100
0000
0000
0010
0000
0001
0000
0000
0000
1000
0000
0000
0000
,
0001
0000
0000
0100
0000
0000
0010
0000
0000
0000
2020
0000
0000
0000
3030
0000
,
1000
0000
0000
0001
0000
0000
1000
0000
0100
0000
0010
0000
0001
0000
0000
0000
,
0001
0000
0000
1000
0000
0000
0001
0000
0100
0000
0010
0000
1000
0000
0000
0000
,
0001
0000
0000
0100
0000
0000
0001
0000
1000
0000
0100
0000
0010
0000
0000
0000
,
0001
0000
0000
1000
0000
0000
0001
0000
0000
0000
0202
0000
0000
0000
0303
0000
,
0001
0000
0000
0010
0000
0000
0001
0000
1000
0000
0100
0000
0010
0000
0001
0000
,
1000
0000
0000
0001
0000
0000
1000
0000
0000
0000
2200
0000
0000
0000
3300
0000
,
1000
0000
0000
0001
0000
0000
0010
0000
0001
0000
0000
1000
0000
0000
0100
0000
,
0010
0000
0000
0100
0000
0000
0010
0000
0000
0000
0220
0000
0000
0000
0330
0000
,
0100
0000
0000
1000
0000
0000
0010
0000
0100
0000
0000
0000
0001
0000
0000
0000
,
0100
0000
0000
0001
0000
0000
0010
0000
0100
0000
0000
0000
1000
0000
0000
0000
,
1001
1001
1100
1100
,
1000
0000
0000
1000
0000
0000
1000
0000
0010
0000
1000
0000
0001
0000
0000
0000
,
0001
0000
0000
0001
0000
0000
0001
0000
0010
0000
0001
0000
1000
0000
0000
0000
,
0010
0000
0000
1000
0000
0000
0100
0000
0010
0000
0001
0000
1000
0000
0001
0000
,
0100
0000
0000
0010
0000
0000
2000
0000
0000
0000
0001
0000
3001
0000
0000
0000
,
1000
0000
0000
1000
0000
0000
1000
0000
0001
0000
0000
0001
0000
0000
0001
0000
,
0100
0000
0000
0100
0000
0000
0100
0000
0000
0000
0010
0000
1000
0000
0000
0000
,
2200
3300
0022
0033
,
0001
0010
0100
0010
0001
0100
0010
1000
,
0001
0000
0000
0001
0000
0000
0001
0000
0100
0000
0001
0000
1000
0000
0000
0000
,
1000
0000
0000
1000
0000
0000
1000
0000
0100
0000
1000
0000
0001
0000
0000
0000
,
0010
0000
0000
0001
0000
0000
0100
0000
0010
0000
1000
0000
0001
0000
1000
0000
,
0100
0000
0000
0010
0000
0000
0002
0000
0000
0000
1000
0000
1003
0000
0000
0000
,
0001
0000
0000
0001
0000
0000
0001
0000
0100
0000
0000
0100
0000
0000
0100
0000
,
0010
0000
0000
0010
0000
0000
0010
0000
1000
0000
0001
0000
0010
0000
0000
0000
,
0022
0033
2200
3300
,
1000
0010
0100
0010
1000
0001
0100
0001
,
2001
3100
1002
0103
,
2002
0000
3003
0000
0001
1000
0001
0000
,
2000
0100
0100
3001
,
0002
0010
0010
1003
,
2000
3010
0200
0301
,
0002
0023
2030
3020
,
0032
0100
0100
1003
,
2000
0010
0010
3001
,
2000
3100
0020
0031
,
0010
0000
0100
0000
0010
0000
0001
1000
0000
0001
1000
0000
0010
0000
0000
0000
,
1000
0010
1000
0000
0001
0100
0001
0000
,
1000
0010
0100
0001
1000
0100
1000
0000
,
0001
0010
0001
1000
0010
1000
0001
0000
,
1000
0010
0001
0000
0001
0010
1000
0000
,
0001
0010
0001
0000
1000
0100
1000
0000
,
0001
0010
0100
1000
0001
0100
0001
0000
,
1000
0010
1000
0001
0010
0001
1000
0000
,
0001
0000
1000
0000
0100
0000
0010
0001
0000
0010
0001
0000
1000
0000
0000
0000
,
2002
0000
0000
0000
3003
1000
0100
0010
,
0001
0220
0000
0000
,
0000
0330
0000
0000
;

//--------------- dance-single - OrangeRight ----------------
#NOTES:
     dance-single:
     OrangeRight:
     Hard:
     13:
     0,0,0,0,0:
0000
0000
0000
0000
,
0000
0000
0000
0000
,
0000
0000
0000
0000
,
0000
0000
0000
0000
,
0000
0000
0000
0000
,
2000
0010
0001
3100
,
0002
0000
0010
0000
1000
0000
0103
0001
,
2000
0001
0100
3010
,
0220
0330
2002
3003
,
1000
0001
0100
0000
0100
0000
0001
1000
0100
0000
0100
0000
1000
0001
0000
0000
,
1000
0010
0001
0010
1000
0100
0010
0001
,
1000
0010
1000
0000
0001
0000
1000
0100
1000
0000
0001
0000
0010
0100
0010
0000
,
0001
0100
0010
1000
0100
0001
0100
1000
,
0001
1000
0010
0000
0010
0000
1000
0001
0010
0000
0010
0000
0001
1000
0000
0000
,
0001
0100
1000
0100
0001
0010
0100
1000
,
0001
0010
0001
0000
1000
0000
0001
0100
0001
0000
1000
0000
0010
0100
0010
0000
,
1000
0000
0100
0000
0010
0000
0001
0100
0000
0100
0010
0000
1000
0000
0001
0000
,
1000
0000
0100
1000
0000
0100
1000
0000
0001
0000
0100
0000
0001
0000
1000
0000
,
0001
0000
0000
0010
0000
0000
0100
0000
1000
0000
1002
0000
0000
0000
0013
0000
,
0001
0000
0100
0001
0000
0100
0001
0000
1000
0000
0100
0000
0010
0000
0001
0000
,
0100
0000
0000
0010
0000
0000
1000
0000
2001
0000
0000
0000
3010
0000
1000
0000
,
0001
0000
0000
0100
0000
0000
0010
0000
1000
0000
0100
0000
0010
0000
0001
0000
,
1000
0000
0000
0001
0000
0000
0100
0000
0010
0000
0120
0000
0000
0000
1030
0000
,
0001
0000
0010
0001
0000
0010
0001
0000
0100
0000
0010
0000
1000
0000
0100
0000
,
1000
0000
0010
1000
0000
0010
1000
0000
0001
0000
0012
0000
0000
0000
1003
0000
,
0001
0000
0100
0001
0000
0001
0100
0000
0001
0000
1000
0000
0100
0000
1000
0000
,
0001
0000
0000
0100
0000
0000
0010
0000
1000
0000
2100
0000
0000
0000
3001
0000
,
1000
0000
0010
1000
0000
1000
0010
0000
1000
0000
0100
0000
0010
0000
0001
0000
,
0100
0000
0000
0010
0000
0000
1000
0000
0001
0000
0021
0000
0000
0000
0130
0000
,
0010
0000
0000
0001
0000
0000
0100
0000
0010
0000
0000
1000
0000
0000
0100
0000
,
0001
0000
0000
0100
0000
0000
1000
0000
0010
0000
0210
0000
0000
0000
0301
0000
,
0010
0000
0001
0100
0000
0010
1000
0000
0100
0000
0010
0000
0100
0000
1000
0000
,
0010
0000
1000
0100
0000
0010
0001
0000
0100
0000
0010
0000
1000
0000
0001
0000
,
1001
1100
0110
0011
,
1001
0000
0000
1100
0000
0000
1002
0000
0000
0000
0103
0000
0001
0000
0010
0000
,
0001
0000
0100
0010
0000
0010
2000
0000
0000
0000
3001
0000
0010
0000
0100
0000
,
1100
0000
0000
1010
0000
0000
0010
0000
0100
0000
0001
0000
0010
0000
1000
0000
,
0010
0000
0001
0100
0000
0100
0010
0000
1000
0000
0100
0000
0010
0000
0001
0000
,
2000
0000
0000
0010
0000
0000
0001
0000
3002
0000
0000
0100
0000
0000
1000
0000
,
2003
0000
0000
0010
0000
0000
0001
0000
3100
0000
1000
0000
0010
0000
0100
0000
,
0102
0000
1003
0100
2100
0000
3001
0100
,
1000
0100
0010
0100
0001
0010
0100
1000
,
1001
0000
0000
0101
0000
0000
2001
0000
0000
0000
3100
0000
1000
0000
0010
0000
,
1000
0000
0100
0010
0000
0010
0002
0000
0000
0000
1003
0000
0010
0000
0100
0000
,
0101
0000
0000
0011
0000
0000
0010
0000
0100
0000
1000
0000
0010
0000
0001
0000
,
0010
0000
1000
0100
0000
0100
0010
0000
0001
0000
0100
0000
0010
0000
1000
0000
,
0002
0000
0000
0010
0000
0000
1000
0000
2003
0000
0000
0100
0000
0000
0001
0000
,
3002
0000
0000
0010
0000
0000
1000
0000
0103
0000
0001
0000
0010
0000
0100
0000
,
2100
0000
3010
0100
0102
0000
1003
0100
,
0010
1000
0010
0100
0010
0001
0100
0010
,
0120
0000
1030
0100
0120
0000
0031
1000
,
2002
0000
0000
0000
3003
0000
0001
1000
0001
0000
0100
0000
0010
0000
1000
0000
,
0002
0100
1000
0013
,
2000
0010
0001
3100
,
2100
3001
0102
1003
,
0001
0010
0100
0010
0001
1000
0010
0000
,
2000
0010
0001
3100
,
0002
0100
1000
0013
,
0012
1003
2010
3001
,
0001
0000
0010
0000
0100
0000
1000
0010
0000
0100
0001
0000
1001
0000
0000
0000
,
1000
0100
0010
0000
0010
0000
0001
0100
0010
0000
0010
0000
1000
0001
0000
0000
,
1000
0100
1000
0000
0001
0000
0100
0000
0001
0010
0001
0000
1000
0000
0010
0000
,
0100
0010
0100
0000
0001
0000
0100
0010
0100
0000
1000
0000
0100
0010
0100
0000
,
0001
0010
1000
0010
0001
0100
0010
1000
,
0001
0010
0100
0000
0100
0000
1000
0010
0100
0000
0100
0000
0001
1000
0000
0000
,
0001
0100
0001
0000
1000
0000
0100
0000
1000
0010
1000
0000
0001
0000
0010
0000
,
0100
0010
0100
0000
1000
0000
0100
0010
0100
0000
0001
0000
0100
0010
0100
0000
,
1000
0000
0010
0000
0001
0000
0010
1000
0000
1000
0100
0000
0010
0000
0001
0000
,
2002
0000
0000
0000
3003
0001
0100
0010
,
1000
0220
0000
0000
,
0000
0330
0000
0000
;

//--------------- dance-single - OrangeRight ----------------
#NOTES:
     dance-single:
     OrangeRight:
     Challenge:
     16:
     0,0,0,0,0:
0000
0000
0000
0000
,
0000
0000
0000
0000
,
0000
0000
0000
0000
,
0000
0000
0000
0000
,
0000
0000
0000
0000
,
2001
0100
0001
3010
,
0102
0000
1000
0000
0010
0000
0103
0001
,
2001
0100
0001
3010
,
0110
0000
0000
1001
0000
0000
0001
1000
0001
0000
0010
0000
0100
0000
1000
0001
,
1000
0100
1000
0100
1000
0000
0001
0100
0001
0100
0001
0000
0100
0010
0000
0000
,
1000
0100
1000
0100
0010
0001
1000
0001
0100
0010
1000
0100
0010
0100
1000
0000
,
0010
1000
0010
1000
0100
M000
0100
0001
0100
0001
0010
0000
0010
0100
1000
0000
,
0001
0100
0001
0100
0010
0000
1000
0000
0001
0010
0001
0010
0100
0000
1000
0000
,
0001
0100
0001
0100
0001
0000
1000
0100
1000
0100
1000
0000
0010
0100
0000
0000
,
0001
0100
0001
0100
0010
1000
0001
1000
0100
0010
0001
0100
0010
0100
0001
0000
,
0010
0001
0010
0001
0100
000M
0100
1000
0100
1000
0010
0000
0010
0100
0001
0000
,
1001
0000
1000
0000
0010
0000
1000
0100
00M0
0100
0001
0000
1000
0000
0001
0000
,
1000
0000
0100
1000
0000
1000
0100
0000
0010
0000
0001
0000
0100
0000
0001
0000
,
0010
0000
0100
1000
0000
0001
0100
0000
0010
0000
1000
0001
1000
0001
1000
0000
,
0001
0000
0010
0001
0000
0001
0010
0000
0100
0000
1000
0000
0010
0000
1000
0000
,
0001
0000
0010
0001
0000
1000
0010
0100
0000
0100
0001
1000
0001
1000
0001
0000
,
1000
0000
0010
1000
0000
1000
0100
0000
0010
0000
0001
0000
0100
0000
1000
0000
,
0100
0000
0001
0010
0000
0100
1000
0000
0001
0000
0100
0010
0100
0010
0100
0000
,
0010
0000
1000
0100
00M0
0100
0001
0000
0010
0000
0100
0000
1000
0000
0001
0000
,
0100
0000
0001
0010
0M00
0010
1000
0000
0001
0010
0100
1000
0010
0100
0001
1000
,
0001
0000
0100
0001
0000
0001
0100
0000
0010
0000
1000
0000
0100
0000
1000
0000
,
0010
0000
0100
0001
0000
1000
0100
0000
0010
0000
0001
0100
0001
0100
0001
0000
,
1000
0000
0010
1000
0000
1000
0010
0000
0100
0000
0001
0000
0010
0000
0001
0000
,
1000
0000
0100
1000
0000
0001
0100
0010
0000
0010
1000
0100
1000
0100
1000
0000
,
0001
0000
0010
0001
0000
0001
0100
0000
0010
0000
1000
0100
0000
0100
0010
0000
,
0001
0000
1000
0010
0000
0010
1000
0000
0001
0000
1000
0100
0010
0001
1000
0000
,
0001
0000
1000
0010
0M00
0010
0001
0000
0100
0000
0010
0000
1000
0000
0001
1000
,
0001
0000
1000
0100
00M0
0100
0001
0000
1000
0010
0100
0001
0010
0100
1000
0000
,
1100
0000
0100
0000
0110
0000
0010
0000
0011
0000
0001
0000
1000
0001
1000
0001
,
1000
0000
0001
0100
00M0
0100
1000
0000
0010
0000
0100
0000
0001
0000
1000
0000
,
0001
0000
1000
0100
00M0
0100
0001
0000
0010
0000
0100
0000
1000
0100
0010
0001
,
1000
0000
0010
1000
0000
1000
0100
0000
0001
0000
0100
0000
1000
0000
0010
0000
,
0100
0000
0001
0010
0M00
0010
1000
0000
0100
0000
0010
0000
0001
0000
1000
0000
,
1010
0000
0000
0011
0000
0000
1010
0000
1100
0000
0000
0101
0000
0000
1100
0000
,
1010
0000
0000
0110
0000
0000
0101
0000
0001
0000
0011
0000
1010
0000
0011
0000
,
2001
0000
3010
1000
1200
0000
0310
0001
,
0100
0001
0100
0000
0010
1000
0010
0000
1000
0100
1000
0000
0001
0010
0001
0000
,
1001
0000
1000
0100
00M0
0100
0001
0000
0010
0000
0100
0000
1000
0000
0001
0000
,
1000
0000
0001
0100
00M0
0100
1000
0000
0010
0000
0100
0000
0001
0100
0010
1000
,
0001
0000
0010
0001
0000
0001
0100
0000
1000
0000
0100
0000
0001
0000
0010
0000
,
0100
0000
1000
0010
0M00
0010
0001
0000
0100
0000
0010
0000
1000
0000
0001
0000
,
0011
0000
0000
1010
0000
0000
0011
0000
0101
0000
0000
1100
0000
0000
0101
0000
,
0011
0000
0000
0110
0000
0000
1100
0000
1000
0000
1010
0000
0011
0000
1010
0000
,
1002
0000
0103
0001
0021
0000
0130
1000
,
0010
1000
0010
0000
0100
0001
0100
0000
0001
0010
0001
0000
1000
0100
1000
0000
,
0001
1000
0001
1000
0001
0000
0100
0000
0010
0100
0010
0100
0010
0000
1000
0000
,
2002
0000
0000
0000
3003
0000
0001
0010
0001
0000
0100
0000
0010
1000
0100
0010
,
0002
0000
0103
0020
0000
1030
0200
0000
,
0320
1000
0100
0001
,
0230
0000
1300
0020
0000
0130
0002
0000
,
2003
3200
0302
0203
,
2300
0000
3100
0020
0000
0031
0200
0000
,
0320
0001
0100
1000
,
0230
0000
0301
0020
0000
0130
2000
0000
,
3001
0000
0100
0000
0010
0000
1000
0100
0000
0010
0001
0000
1000
0000
0010
0000
,
1000
0100
0010
0100
1000
0000
0001
0100
0010
0100
0001
0000
1000
0001
0000
0000
,
1000
0100
0010
0100
1000
0001
0100
0010
0100
1000
0100
0010
1000
0001
0010
0000
,
0100
1000
0100
1000
0010
0M00
0010
0001
0010
0001
0100
0000
0100
0010
1000
0000
,
0001
1000
0010
1000
0001
0010
0100
1000
0001
0010
0001
1000
0100
0010
0001
1000
,
0001
0100
0010
1000
0001
0000
1000
0100
0010
0001
1000
0000
0001
1000
0000
0000
,
0001
0100
0010
0100
0001
1000
0100
0010
0100
0001
0100
0010
0001
1000
0010
0000
,
0100
0001
0100
0001
0010
0M00
0010
1000
0010
1000
0100
0000
0100
0010
0001
0000
,
1001
0000
0001
0000
0100
0000
0001
0010
0M00
0010
1000
0000
0100
0000
0010
0000
,
2002
0000
0000
0000
3003
1100
0101
1100
,
1001
0220
0000
0000
,
0000
0330
0000
0000
;
