#VERSION:0.83;
#TITLE:Bow and Arrow;
#SUBTITLE:- Medalist OP1;
#ARTIST:Kenshi Yonezhu;
#TITLETRANSLIT:;
#SUBTITLETRANSLIT:;
#ARTISTTRANSLIT:;
#GENRE:;
#CREDIT:;
#MUSIC:BOW AND ARROW.ogg;
#BANNER:BOW AND ARROW_Banner.png;
#BACKGROUND:BOW AND ARROW_BG.png;
#CDTITLE:;
#SAMPLESTART:65.375;
#SAMPLELENGTH:10.667;
#SELECTABLE:YES;
#OFFSET:0.000;
#BPMS:0.000=180.000;
#STOPS:;
#SPEEDS:0.000=1.000=0.000=0;
#SCROLLS:0.000=1.000;
#TICKCOUNTS:0.000=4;
#TIMESIGNATURES:0.000=4=4;
#LABELS:0.000=Song Start;
#COMBOS:0.000=1;
#ORIGIN:;
#PREVIEWVID:;
#JACKET:BOW AND ARROW_Jacket.png;
#CDIMAGE:;
#DISCIMAGE:;
#BGCHANGES:;
#FGCHANGES:;

//--------------- dance-single - Agent A ----------------
#NOTEDATA:;
#STEPSTYPE:dance-single;
#DESCRIPTION:Agent A;
#DIFFICULTY:Easy;
#METER:6;
#RADARVALUES:0.260561,0.331895,0.009967,0.229237,0,183,182,1,23,0,0,0,0,0,0.260561,0.331895,0.009967,0.229237,0,183,182,1,23,0,0,0,0,0;
#CHARTNAME:;
#CHARTSTYLE:;
#CREDIT:Agent A;
#NOTES:
0000
0000
0000
0000
,
0000
0000
0000
0000
,
0000
0000
0000
0000
,
0000
0000
0000
0000
,
0000
0000
0000
0000
,
0001
0000
1000
0000
,
0001
0000
0010
0000
,
0100
0000
0010
0001
,
1000
0000
0000
0010
0000
0000
0100
0000
,
0001
0000
0001
0000
,
2000
0000
3200
0000
,
1300
0000
0010
0000
,
1000
0000
0000
0001
0000
0000
1000
0000
,
0001
0000
0001
0000
,
2000
0000
3020
0000
,
1030
0000
0100
0000
,
1000
0000
0000
0001
0000
0000
1000
0000
,
0100
0000
1000
0000
,
0001
0000
0100
0000
,
0010
0000
1000
0100
,
0010
0000
0000
0100
,
1000
0000
0001
0000
,
0100
0000
0001
0000
,
0010
0000
0100
1000
,
0001
0000
0000
0000
,
0010
0000
0001
0000
,
1000
0000
0010
0000
,
0100
0000
0001
0010
,
0100
0000
0000
0010
,
0001
0000
1000
0000
,
0010
0000
1000
0000
,
0100
0000
0010
0001
,
1000
0000
0000
0010
,
0100
0000
0100
0000
,
0001
0100
0001
0000
,
0010
0000
0010
0000
,
0100
1000
0100
0000
,
1000
0000
1000
0000
,
0001
0000
0001
0000
,
0100
0010
1000
0001
,
2001
0000
0000
0000
,
3001
0000
0000
0100
0000
0000
0010
0000
,
1000
0000
0000
0100
0000
0000
0010
0000
,
0001
0000
0000
0100
0000
0000
0010
0000
,
0100
0000
0000
0001
0000
0000
0010
0000
,
0001
1000
0100
0010
,
0001
1000
0010
0100
,
0001
0000
0000
1000
,
0100
0020
0230
2300
,
3001
1000
0001
1000
,
0100
0010
0100
0010
,
0001
0100
0001
1000
,
0200
0000
0300
1000
,
0020
0000
0000
0230
0000
0000
0301
0000
,
0020
0000
0031
1000
,
0020
0000
0000
0130
,
0001
0000
0001
0001
,
1000
0001
1000
0001
,
0010
0100
0010
0100
,
1000
0010
1000
0001
,
0020
0000
0030
0001
,
0200
0000
0000
0320
0000
0000
1030
0000
,
0200
0000
1300
0001
,
0200
0000
0000
0310
,
1000
0000
0000
0001
,
1000
0010
1000
0010
,
0100
0001
2000
0000
,
3002
0000
0000
0103
,
0010
0000
0000
0100
0000
0000
0001
0000
,
1000
0100
1000
0100
,
0010
0001
2000
0000
,
3002
0000
0000
0103
,
0010
0000
0000
1000
0000
0000
0001
0200
,
0000
0000
0000
0000
,
0300
0000
0000
0000
;

//--------------- dance-single - Agent A ----------------
#NOTEDATA:;
#STEPSTYPE:dance-single;
#DESCRIPTION:Agent A;
#DIFFICULTY:Medium;
#METER:9;
#RADARVALUES:0.388706,0.553158,0.049834,0.328905,0.0299,273,268,5,33,0,0,0,0,0,0.388706,0.553158,0.049834,0.328905,0.0299,273,268,5,33,0,0,0,0,0;
#CHARTNAME:;
#CHARTSTYLE:;
#CREDIT:Agent A;
#NOTES:
0000
0000
0000
0000
,
0000
0000
0000
0000
,
0000
0000
0000
0000
,
0000
0000
0000
0000
,
0000
0000
0000
0000
,
1000
0001
1000
0001
,
0100
0010
0100
0010
,
1000
0000
0001
0000
0010
0000
0100
1000
,
0001
0000
0000
0100
0000
0000
0010
0000
,
1000
0010
0100
0001
,
0020
0230
0320
0032
,
1003
0100
1000
0010
,
0100
0000
0001
1000
0000
1000
0100
0000
,
1000
0010
0100
0001
,
0020
0230
2300
3020
,
0230
0301
1000
0001
,
0100
0000
0010
1000
0000
1000
0100
0000
,
0010
0000
0000
0001
0010
0000
0001
0000
,
1000
0000
0000
0010
1000
0000
0001
0000
,
0100
0001
0010
0001
,
0100
0000
0000
0000
0000
0010
1000
0000
,
0100
0000
0010
0001
,
0100
0000
0010
1000
,
0100
0000
0010
0000
0100
0000
1000
0001
,
0010
0000
0000
0000
,
0100
0000
0000
1000
0100
0000
1000
0000
,
0001
0000
0000
0100
0001
0000
1000
0000
,
0010
1000
0100
1000
,
0010
0000
0000
0000
0000
0100
0001
0000
,
0010
0000
0100
1000
,
0010
0000
0100
0001
,
0010
0000
0100
0000
0010
0000
0001
1000
,
0100
0000
0000
0000
0000
0000
0010
0001
,
1000
0010
1000
0010
,
0100
0000
0010
0000
0100
0000
0010
0100
,
0001
0010
0001
0010
,
0100
0000
0010
0000
0100
0000
0010
0100
,
1000
0010
1000
0100
,
1000
0000
0010
0000
1000
0000
0100
1000
,
0001
0100
0010
0000
0100
0000
0001
0000
,
0101
1010
1001
1100
,
1000
0000
0010
0100
0000
0000
0001
0000
,
1000
0000
0100
0010
0000
0000
0001
0000
,
1000
0000
0010
0100
0000
0000
0010
0000
,
1000
0000
0100
0010
0000
0000
0100
0000
,
1000
0010
0100
0001
,
0100
0010
1000
0100
,
0010
0000
0001
0000
0100
0000
0010
1000
,
0001
0020
0230
0000
,
1300
0000
0000
0000
0001
0000
0000
0000
1000
0000
0000
1000
0000
0000
1000
0000
,
0001
0000
0000
0000
1000
0000
0000
0000
0001
0000
0000
0001
0000
0000
0001
0000
,
0100
0000
0000
0000
0010
0000
0000
0000
0100
0000
0000
0010
0000
0000
0100
0000
,
0010
0000
0000
1000
0000
0000
1000
0000
,
0200
0000
0000
0320
0000
0000
0031
0000
,
0200
0000
0000
0320
0000
0000
1030
0000
,
0002
0000
0000
0023
0000
0000
0031
0000
,
1000
0000
0010
0000
1000
0000
0001
1000
,
0001
0000
0000
0000
1000
0000
0000
0000
0001
0000
0000
0001
0000
0000
0001
0000
,
1000
0000
0000
0000
0001
0000
0000
0000
1000
0000
0000
1000
0000
0000
1000
0000
,
0010
0000
0000
0000
0100
0000
0000
0000
0010
0000
0000
0100
0000
0000
0010
0000
,
0100
0000
0000
0001
0000
0000
0001
0000
,
0020
0000
0000
0230
0000
0000
1300
0000
,
0020
0000
0000
0230
0000
0000
0301
0000
,
2000
0000
0000
3200
0000
0000
1300
0000
,
1001
0000
0000
0000
,
0001
0100
0010
1000
,
0200
0320
0230
2300
,
3001
0010
0001
0100
,
0010
0000
1000
0001
0000
0001
0010
0000
,
0001
0100
0010
1000
,
0200
0320
0032
0203
,
0320
1030
0001
1000
,
0010
0000
0100
0001
0000
0000
0010
0200
,
0000
0000
0000
0000
,
0300
0000
0000
0000
;

//--------------- dance-single - Agent A ----------------
#NOTEDATA:;
#STEPSTYPE:dance-single;
#DESCRIPTION:Agent A;
#DIFFICULTY:Hard;
#METER:13;
#RADARVALUES:0.619366,0.700667,0.059801,0.299004,0.139535,435,429,6,30,0,0,0,0,0,0.619366,0.700667,0.059801,0.299004,0.139535,435,429,6,30,0,0,0,0,0;
#CHARTNAME:;
#CHARTSTYLE:;
#CREDIT:Agent A;
#NOTES:
0000
0000
0000
0000
,
0000
0000
0000
0000
,
0000
0000
0000
0000
,
0000
0000
0000
0000
,
0000
0000
0000
0000
0000
0000
0000
0001
,
0010
0001
0100
0001
0010
0100
1000
0010
,
0100
0010
0100
0001
0010
0100
0010
0100
,
1000
0000
0010
0000
1000
0000
0100
0000
1000
0000
0010
0000
0100
0000
0001
0100
,
0001
0000
0001
0010
0000
0110
0000
1000
,
0010
1000
0100
1000
0010
0100
0010
1000
,
0200
0000
0320
0000
0032
0000
1003
0010
,
0100
0000
0010
0100
0000
0001
1000
0000
,
0100
0000
0010
0100
0000
0010
0100
1000
,
0100
1000
0010
0100
0001
0010
0100
1000
,
0001
0100
0001
1000
0100
0010
0100
1000
,
0010
0000
0100
0010
0000
1000
0001
0000
,
0010
0000
0100
0010
0000
0100
0010
0001
,
0010
0000
0000
0001
1000
0010
1000
0010
,
0100
0000
0000
0001
0010
0001
0010
0100
,
0010
0001
0200
0000
0300
0010
1000
0001
,
0010
0000
0000
0000
0000
0001
1000
0010
,
0100
0000
0000
0001
1000
1000
0100
0010
,
0100
0000
0000
1000
0010
0010
0100
0010
,
1000
0100
0010
0100
1000
0010
0100
0010
,
1000
0000
0000
0000
0000
0001
1000
1000
,
0100
0000
0000
1000
0001
0100
0001
0100
,
0010
0000
0000
1000
0100
1000
0100
0010
,
0100
1000
0010
0100
0010
0100
0001
1000
,
0100
0000
0000
0000
0000
1000
0001
0100
,
0010
0000
0000
1000
0001
0001
0010
0100
,
0010
0000
0000
0002
0000
0103
0010
0100
,
0001
0010
0100
0010
0001
0100
0010
0100
,
0001
0000
0000
0000
0000
0000
0000
0000
0000
0000
0001
0000
1000
0000
0001
1000
,
0001
0000
0000
0000
1000
0000
0001
1000
0001
0000
0000
0000
0010
0000
0200
0000
,
0000
0310
0001
0000
1000
0000
0010
2000
,
0001
3000
0010
1000
0002
0000
0103
0020
,
0000
0000
1030
0000
0100
0000
0010
0000
0001
0000
0010
0000
0100
0000
0010
0100
,
0010
0000
0000
0000
0100
0000
0010
0100
0010
0000
0000
0000
0001
0000
2000
0000
,
0100
3000
0001
1000
0200
0000
1300
0001
,
0100
0000
0010
0000
1000
0000
0001
0000
0010
0000
0100
0000
1000
0000
0001
1000
,
0020
0000
0230
0000
0302
0000
0103
0001
,
0010
0001
0100
0001
0010
0100
1000
0010
,
0100
0000
0100
0001
0000
0010
0100
0000
,
1100
0000
0100
0010
0000
0001
0100
0000
,
0101
0000
0001
0100
0000
0010
1000
0001
,
1000
0010
0100
0001
0000
0000
1000
0100
0010
0001
0000
0000
,
1000
0100
1000
0001
0000
0000
0100
0010
1000
0001
0100
0001
,
1000
0000
0100
0010
0000
0100
1000
0000
,
1010
0000
1000
0010
0200
0000
0301
1000
,
0001
0000
0000
0000
0100
0000
0001
0000
0010
0000
0000
0100
0000
0000
0010
0100
,
1000
0000
0000
0000
0010
0000
0100
0000
0001
0000
0000
0010
0000
0000
0100
0010
,
0100
0000
0000
0000
0010
0000
0001
0000
0100
0000
0000
0010
0000
0000
0100
0010
,
1000
0010
0000
1010
0000
1000
0010
0000
,
0100
0001
0010
0200
0000
0310
0001
2000
,
0000
3010
0100
0000
0001
0000
1000
0100
,
1000
0000
0001
0020
0000
0130
2000
0000
,
3001
0000
0100
0010
1000
0000
1000
0001
,
1000
0000
0000
0000
0010
0000
1000
0000
0100
0000
0000
0010
0000
0000
0100
0010
,
0001
0000
0000
0000
0100
0000
0010
0000
1000
0000
0000
0100
0000
0000
0010
0100
,
0010
0000
0000
0000
0100
0000
1000
0000
0010
0000
0000
0100
0000
0000
0010
0100
,
0001
0100
0000
0101
0000
0001
0100
0000
,
0020
2030
3200
0320
,
0031
0000
0100
0010
1000
0000
0100
0010
,
0001
0000
1000
0020
0000
0130
0002
0000
,
1003
0000
0100
0010
0000
0100
1000
0001
,
0100
0001
0010
0001
0100
0010
0100
0001
,
0020
0000
0230
0000
2300
0000
3001
0100
,
0010
0000
0100
0010
0000
1000
0001
0000
,
0010
0000
0100
0010
0000
0100
0010
0001
,
0010
0001
0100
0010
1000
0100
0010
0001
,
1000
0010
1000
0001
0010
0100
0010
0001
,
0100
0000
0010
0100
0000
0001
1000
0000
,
0100
0010
0100
2000
0000
0000
3100
0020
,
0000
0000
0000
0000
,
0030
0000
0000
0000
;

//--------------- dance-single - Agent A ----------------
#NOTEDATA:;
#STEPSTYPE:dance-single;
#DESCRIPTION:Agent A;
#DIFFICULTY:Challenge;
#METER:15;
#RADARVALUES:0.734696,0.909471,0.039867,0.478407,0.408639,516,512,4,48,0,0,0,0,0,0.734696,0.909471,0.039867,0.478407,0.408639,516,512,4,48,0,0,0,0,0;
#CHARTNAME:;
#CHARTSTYLE:;
#CREDIT:;
#NOTES:
0000
0000
0000
0000
,
0000
0000
0000
0000
,
0000
0000
0000
0000
,
0000
0000
0000
0000
,
0000
0000
0000
0000
0000
0000
0000
0000
0000
0000
0000
0000
0000
0000
1000
0200
,
0010
0000
1300
0200
0010
0000
1300
0010
0100
0000
0001
0000
1000
0000
0010
0000
,
1000
0000
0100
0000
0010
0000
0001
0000
0100
0000
0001
0000
0100
0000
0010
0200
,
0001
0000
0310
0200
0001
0000
0310
0100
0010
0000
1000
0000
0100
0010
0100
0010
,
0100
0000
0000
0000
1000
0000
0010
0000
0000
0000
0110
0000
0000
0000
0001
0200
,
0010
0000
0301
0200
0010
0000
0301
0010
0100
0000
1000
0000
0001
0000
0010
0000
,
0002
0000
0203
0000
0320
0000
1030
0100
,
0010
0000
0100
1000
0000
0001
0100
0010
,
2000
0000
3200
0000
0320
0000
0230
0000
0000
0000
1300
0000
0001
0000
0100
0020
,
1000
0000
0130
0020
1000
0000
0130
0010
0100
0000
0001
0000
0010
0000
0001
0000
,
1000
0010
1000
0001
0010
0100
0010
0001
,
1000
0000
1000
0000
0010
0000
0100
0001
,
1000
0100
0010
0002
0000
1003
0001
0001
,
0100
0000
0000
0010
1000
1000
0100
0010
,
0001
0000
0000
0001
0100
0100
0010
0100
,
0001
0001
0020
0000
0030
0100
1000
0001
,
0100
0000
0001
0000
0100
0010
1000
1000
,
0100
0000
0010
0001
0001
1000
0010
0100
,
0001
0000
0001
1000
0100
1000
0010
0100
,
0010
0100
0001
0100
0001
0010
0001
0010
,
0100
0000
0000
0000
0000
1000
0001
0001
,
0100
0000
0000
0000
0010
0000
1000
0001
1000
0000
1000
0000
0100
0000
0010
0000
,
0001
0000
0000
0000
0001
0000
0001
1000
0100
0000
0010
0000
0100
0000
1000
0001
,
0100
0010
0100
0100
0010
1000
0100
0100
,
0010
0000
0000
0000
0001
0000
0000
0000
0100
0000
0010
0000
1000
0000
1000
0100
,
1000
0000
0010
0100
0001
1000
0100
0010
,
0001
0000
0000
0000
0000
0000
0020
0000
0000
0000
0031
0000
0100
0000
0010
0100
,
0010
0000
1000
0000
0100
0000
0010
0100
0010
0000
0001
0000
0100
0000
0010
0000
,
1000
0000
0000
0000
0000
1000
0100
0020
,
0001
0030
0100
0020
0001
0030
0100
0020
,
0000
0031
0100
0001
0100
0010
1000
0002
,
0100
0003
1000
0002
0100
0003
0010
0200
,
0000
0301
0010
0010
0100
1000
0010
0200
,
0001
0300
0010
0200
0001
0300
1000
0002
,
0100
0003
1000
0002
0100
0003
0001
1000
,
0010
0000
0100
0000
0001
0000
1000
0000
0100
0000
0010
0000
0001
1000
0001
1000
,
0020
0000
0000
0000
0230
0000
0000
0000
0302
0000
0000
0000
1003
0000
0001
0020
,
0100
0000
0031
0020
0100
0030
0010
0100
0010
0000
0001
0000
1000
0000
0010
0000
,
0100
0000
0010
1000
0000
0100
0010
0001
,
1000
0000
0010
0100
0000
0001
0100
0010
,
1000
0000
0000
0000
0100
0000
0010
0000
0000
0000
0100
0000
1000
0010
0100
0000
,
0001
0100
0010
1000
0010
0100
0001
0100
0010
0100
0001
0010
,
0001
1000
0010
1000
0100
0010
0100
1000
0001
0100
0010
1000
,
0001
0000
0000
0000
0000
0000
0010
0000
0000
0100
0000
0000
0000
0000
0000
0010
0000
0000
0100
0000
1000
0000
0001
0000
,
0100
0000
0000
0000
0001
0000
0010
0000
0200
0000
0000
0000
1300
0001
1000
0001
,
1000
0000
0100
1000
0001
0000
0100
0001
1000
0000
0100
0010
0000
0010
0001
0000
,
1000
0000
0010
1000
0001
0000
0010
0001
1000
0000
0010
0100
0000
0100
0001
0000
,
1000
0000
0010
0100
0010
0000
1000
0100
0010
0000
0001
0010
0000
0100
1000
0000
,
0001
0100
0000
0101
0000
0001
0100
0000
,
0010
1000
0100
0020
0000
0230
0000
2300
,
0000
3010
0100
0002
0000
1003
0010
0000
,
1000
0010
1000
0200
0000
0310
0002
0000
,
1003
0000
0000
0000
0010
0000
0100
0000
0001
0000
1000
0000
0001
1000
0001
1000
,
0001
0000
0010
0001
1000
0000
0010
1000
0001
0000
0010
0100
0000
0100
1000
0000
,
0001
0000
0100
0001
1000
0000
0100
1000
0001
0000
0100
0010
0000
0010
1000
0000
,
0001
0000
0100
0010
0100
0000
0001
0010
0100
0000
1000
0100
0000
0010
0001
0000
,
1000
0000
0010
0000
0000
0000
1010
0000
0000
0000
1000
0010
0100
0001
1000
0000
,
0200
0000
0320
0000
0031
0000
0100
0010
,
0110
0000
0010
1000
0000
1000
0100
0010
,
0100
0000
1000
0001
0000
0001
0100
0010
,
1000
0000
0000
0000
0000
0000
0001
0000
0000
0000
0000
0000
1000
0000
0001
0020
,
0100
0000
0031
0010
0100
0000
1000
0000
0010
0000
0100
0000
0001
0000
1000
0000
,
0002
0000
0023
0000
0230
0000
1300
0010
,
0100
0000
0010
1000
0000
0001
0010
0100
,
2000
0000
3020
0000
0230
0000
0320
0000
0000
0000
1030
0000
0001
0000
0010
0200
,
1000
0000
0310
0100
1000
0000
0001
0000
1000
0000
0010
0000
0100
0000
0001
0000
,
1000
0100
1000
0001
0100
0010
0100
0001
,
1000
1000
0001
0010
,
0100
1000
0010
0200
0000
0000
0000
0000
,
0300
0000
0000
0000
;
