#TITLE:Beyond Evolution;
#SUBTITLE:;
#ARTIST:Hekatoncheir;
#TITLETRANSLIT:;
#SUBTITLETRANSLIT:;
#ARTISTTRANSLIT:;
#GENRE:;
#CREDIT:;
#MUSIC:Beyond Evolution.ogg;
#BANNER:;
#BACKGROUND:;
#CDTITLE:;
#SAMPLESTART:32.478;
#SAMPLELENGTH:12.000;
#SELECTABLE:YES;
#OFFSET:-0.038;
#BPMS:0.000=185.000;
#STOPS:;
#TAGS:;
#PREVIEWVID:;
#BGCHANGES:0.000=Beyond Evolution.mp4=1.000=0=0=1,
99999.000=-nosongbg-=1.000=0=0=0=StretchNoLoop====
;
#FGCHANGES:;

//--------------- dance-single - Keys ----------------
#NOTES:
     dance-single:
     Keys:
     Beginner:
     7:
     0.016512,0.041032,0.007706,0.015411,0,15,14,1,2,0,0,0,0,0,0.016512,0.041032,0.007706,0.015411,0,15,14,1,2,0,0,0,0,0:
0000
0000
0000
0000
,
0000
0000
0000
1000
,
0000
0000
0000
0100
,
0000
0000
0000
0000
,
0000
0000
0000
0010
,
0000
0000
0000
0100
,
0000
0000
0001
0000
,
0000
0000
0000
0000
0000
1000
0000
0000
,
0000
0000
0000
0000
0000
0100
0000
0000
,
0000
0000
0000
0010
,
0000
0000
0000
0000
,
0000
2002
0000
0000
,
0000
0000
0000
0000
,
0000
0000
0000
0000
,
0000
0000
0000
3003
,
0000
0000
0000
0000
,
0010
0000
0000
0100
,
1000
0100
0010
0100
,
1000
0001
0100
0010
,
1000
0000
0200
0000
0000
0300
0000
0000
,
2000
0000
3001
0100
,
0010
1000
0100
0010
,
0001
0100
0010
1000
,
0001
0200
0000
0300
,
0010
1000
0000
0001
,
0000
0100
0000
0010
,
0100
0001
0010
0100
,
1000
0000
0200
0000
0000
0300
0000
0000
,
0001
1000
0000
0100
,
0000
0010
0000
0001
,
0100
0010
0100
0001
,
0100
0000
0020
0000
0000
0030
0200
0000
,
0000
0000
0300
0010
,
0000
1000
0000
0000
0000
0000
0101
0000
,
0020
0000
0000
0130
0000
0000
0001
2000
,
0000
3000
0000
0100
0000
0000
0010
0002
,
0000
0003
0200
0000
0000
0000
0310
0000
,
2000
0000
0000
0000
,
3002
0000
0000
0000
,
0203
0000
0000
0000
,
0320
0000
0000
0000
,
1030
0000
0000
0010
,
0000
0100
0000
0001
,
0001
1000
1000
0010
,
0010
0100
0100
0001
,
0001
1000
1000
0220
,
0000
0000
0000
0000
,
0000
0000
0000
0000
,
0330
2200
0000
0000
,
0000
0000
3300
0022
,
0000
0000
0000
0000
,
0000
0000
0000
0000
,
0000
0000
0000
0000
,
0000
0000
0000
0033
,
1000
1000
1000
1000
,
0100
0100
0100
0100
,
0010
0010
0010
0010
,
0001
0001
0001
1002
,
0000
0000
0003
0210
,
0000
0000
0300
2010
,
0000
0000
0000
0000
,
0000
0000
0000
3001
,
0000
0000
0000
0000
,
0000
1000
0000
0001
,
0000
0100
0000
0000
0000
0000
0010
0000
,
0000
1000
0000
0100
,
0000
0010
0000
0000
0001
0000
0100
0000
,
0020
0000
0000
1030
,
0000
0000
0000
0010
,
0100
0100
0000
0001
0001
0000
1000
1000
,
0000
0010
0010
0000
1000
1000
0000
0000
,
0100
0100
0000
0010
0010
0000
0001
0000
,
1000
0000
0010
1000
0000
0001
0100
0000
,
0010
1000
0000
0010
0100
0000
0001
0100
,
0000
1000
0100
0000
0010
0000
0100
0000
,
0000
0001
0000
0000
1000
0000
0000
0000
,
0000
0100
0000
0010
,
1000
1000
0000
0001
0001
0000
0100
0100
,
0000
0010
0010
0000
1000
0000
0001
0000
,
0100
0010
0000
1000
,
0100
1000
0000
0001
,
0000
0000
0000
0100
,
0000
0000
0000
0010
,
0000
0000
0000
1100
,
0000
0000
0000
0101
,
0000
1000
0001
0100
,
0010
1000
0001
0010
,
0100
1000
0100
1000
,
0100
0010
0001
0100
,
0100
0100
0100
0010
,
0010
0000
0010
0000
0010
0000
1000
0002
,
0000
0000
0000
2003
,
0000
0000
0000
0000
0000
0000
0000
3000
,
2002
0000
0000
0000
,
0000
0000
0000
0000
,
0000
0000
0000
0000
,
0000
0000
0000
3003
;

//--------------- dance-single - Keys ----------------
#NOTES:
     dance-single:
     Keys:
     Easy:
     13:
     0,0,0,0,0:
0000
0000
0000
0000
,
0000
0000
0000
1002
,
0000
0100
0000
0000
2000
0000
0000
0000
,
3003
0000
0000
0001
0100
0020
0000
0000
,
0000
0000
0000
0030
0000
0000
1000
0100
0010
0001
1000
0100
,
0010
0001
2000
0000
0000
0000
0000
0000
0000
3001
0000
0000
,
0000
0011
0000
0000
1100
0000
0000
0000
,
0000
0000
0000
0000
0000
0000
0000
0000
0100
0010
0002
0000
0000
0000
0000
0000
,
0003
0000
0000
0000
0000
0000
0001
0000
0010
0000
0110
0000
0000
0100
0000
1000
,
0000
0010
0000
0000
0000
0000
0200
0000
0000
0000
0000
0000
0301
0000
0000
0000
,
0000
0000
0011
0000
,
0100
2100
0000
0000
,
0000
0000
0000
0000
,
0000
0000
0000
3002
,
0000
0000
0000
0000
0003
1000
0100
0010
,
0001
0000
1000
0000
1001
0000
0000
0110
0000
0000
0000
1010
0000
0000
0000
0000
,
2000
0000
0000
0000
3010
0100
0010
1000
,
0100
0001
0100
1000
0010
0100
0001
0001
,
0010
0100
1000
0100
0010
0001
0100
0010
,
0100
0000
0001
0000
0101
0000
0000
0101
0000
0000
0101
0000
0000
0000
0000
0000
,
0002
0000
0000
0000
0103
0010
0100
0001
,
0010
1000
0010
0001
0100
0010
1000
1000
,
0100
0010
0001
0010
0100
1000
0010
0100
,
0010
0000
1000
0000
1010
0000
0000
1010
0000
0000
1010
0000
0000
0000
0000
0000
,
2000
0000
0000
0000
3100
0020
0030
0000
0000
0000
0000
0000
0001
0020
0030
0000
,
0000
0000
0000
0000
0100
2000
3000
0000
0000
0000
0000
0000
0010
0200
0300
0000
,
0001
1000
0010
0100
0001
0100
1000
0100
,
0001
0000
0010
0000
0011
0000
0000
0011
0000
0000
0011
0000
0000
0000
0000
0000
,
0002
0000
0000
0000
0013
0200
0300
0000
0000
0000
0000
0000
1000
0200
0300
0000
,
0000
0000
0000
0000
0020
0000
0030
0002
0000
0003
0000
0200
0300
0100
0000
0010
,
0000
0010
0000
1000
0000
1000
0000
0100
0000
0100
0000
0010
0000
0001
0000
0010
,
0000
0100
0000
0000
1100
0000
0000
1100
0000
0000
1100
0000
2000
0000
0000
0000
,
0000
0000
0000
3001
,
0000
0000
0100
0000
0000
0001
0000
0010
0000
0100
0000
0000
2100
0000
0000
0000
,
3200
0000
0000
0000
0300
0000
2000
0000
3000
0000
0000
0002
0003
0000
0020
0000
,
0000
0030
0000
0000
0000
0000
0101
0000
0000
0000
0000
0000
0010
0000
0000
2000
,
0000
3000
0200
0000
0300
0000
0011
0000
,
0200
0000
0000
0001
0000
1300
0020
0000
,
0100
0032
0003
2000
,
3400
0040
0000
0000
0300
0030
0001
0000
0010
0000
0100
0000
4000
0000
0000
0000
,
0000
0000
3000
0000
0020
0000
0000
0000
2000
0000
0000
0000
3030
0000
0010
1000
,
0010
0000
0000
2000
0000
0000
3000
0000
0000
0000
0001
1000
0100
0000
0000
0000
,
0000
0000
0001
1000
0001
0000
0100
0000
0010
0000
1000
0000
0001
0000
0010
0000
,
0100
1000
0100
0001
0100
1000
0010
1000
,
0010
1000
0001
0100
0001
0100
0001
0010
,
0100
1000
0002
0000
0000
0000
2003
0000
,
0000
0200
0300
0000
,
0000
3020
0001
0000
,
0000
0230
0000
0302
,
0000
2003
0000
3020
,
0000
0000
0000
0000
0000
0100
0230
0000
,
0000
0000
0300
0000
0001
0010
0100
1000
,
0001
0010
0100
1000
0100
0010
0200
0000
,
0300
2000
0000
0000
3000
0200
0000
0000
0300
0020
0000
0000
0030
0000
0000
0000
,
0001
0010
0001
0010
0001
0010
0001
0010
,
0001
0010
0001
0010
0100
0010
0100
1000
,
0100
1000
0100
1000
0100
1000
0100
1000
,
0100
0000
1000
0000
0100
0000
0010
0000
0001
0000
0000
0040
0400
0000
0000
0000
,
0000
0000
0000
0000
0000
0000
0000
0000
0330
0000
0000
0000
4000
0004
0000
0000
,
0000
0000
0000
0000
0000
0000
0000
0000
3003
0000
0000
0000
4000
0040
0000
0000
,
0000
0000
0000
0000
,
0000
0000
3030
0220
,
0000
0000
0000
0000
,
0330
0000
0000
0000
0100
0000
0000
0010
0000
0000
0001
0000
0011
0000
0000
0000
,
0000
0000
0000
1000
0000
0000
0000
0000
0000
0010
0000
0000
0100
0000
0000
0000
0000
0001
0000
0000
0001
0000
0000
0000
,
0000
2000
0000
3002
,
0003
0100
0000
0000
0010
0000
1000
0000
,
0100
0010
0001
1000
0100
0010
0110
0000
,
0000
0000
0000
0000
0010
0000
0000
0001
0000
0000
0100
0000
0000
0000
0000
0000
,
0010
0011
0000
0001
1001
0000
1000
1100
,
0000
0100
0110
0000
0010
0001
0100
1000
,
0100
0001
0100
0010
1000
0100
0010
0001
,
1000
0000
0010
0000
0100
0000
0000
0100
0000
0000
0100
0000
0020
0000
0000
0000
,
1030
0100
0000
1000
0010
0000
0100
0001
,
0000
1000
0020
0000
0230
0000
0301
0010
,
0001
0100
0001
1000
0100
0010
0100
1000
,
0100
0000
1000
0100
0000
1000
0100
0000
1000
0100
0000
0000
0020
0000
0000
0000
,
0031
0100
0010
1000
0100
0010
1000
0010
,
0100
0000
1000
0100
0010
0000
0001
0000
1000
0000
0001
0000
1000
0000
0100
0000
,
0010
0000
0100
0000
2000
0000
3020
0000
0030
0000
0200
0000
0302
0000
0003
0200
,
0000
0300
0010
0000
1000
0000
0000
0010
1000
0000
0010
0100
0010
0000
0100
0000
,
0010
0100
0010
0100
0010
0100
0010
1000
,
0001
1000
0001
1000
0001
1000
0001
1000
,
0010
0000
1000
0000
0100
0000
0010
0000
0001
0000
0001
0000
1000
0000
0000
1000
,
0000
0000
1000
0000
0010
0000
0000
0010
0000
0000
0010
0000
2000
0000
0000
0000
,
3001
0100
0010
1000
0100
0010
0001
0100
,
1000
0100
0001
0010
0100
1000
0010
0100
,
0010
1000
0001
1000
0010
0100
0001
1000
,
0100
0000
0010
0000
0001
0000
0010
0000
0100
0000
0010
0000
0001
0000
1000
0100
,
0000
1000
0100
0000
1000
0100
0000
1000
0100
0000
0010
0001
0000
0000
0010
0001
,
0000
0010
0001
0000
0010
0001
0000
0010
0100
0000
0020
0000
0000
0000
0200
0000
,
0000
0000
0000
0000
0000
0330
1000
0100
,
0010
0001
1000
0100
0010
0001
0000
0000
,
2002
0000
0000
0000
,
0000
0000
0000
0000
,
0000
0000
0000
0000
,
0000
0000
0000
0000
0000
0000
0000
0000
0000
0000
0000
3003
0000
0000
0000
0000
;

//--------------- dance-single - Keys ----------------
#NOTES:
     dance-single:
     Keys:
     Medium:
     16:
     0,0,0,0,0:
0000
0000
0000
0000
,
0000
0000
0000
2001
,
0000
0010
0000
0000
0001
0000
0000
0000
,
3000
0000
0000
1000
0010
0200
0000
0000
,
0000
0000
0000
0300
0000
0000
0001
0010
0100
1000
0001
0010
,
0100
1000
0002
0000
0000
0000
0000
0000
0000
1003
0000
0000
,
0000
1100
0000
0000
0011
0000
0000
0000
,
0000
0000
0000
0000
0000
0000
0000
0000
0001
0010
0200
0000
0000
0000
0000
0000
,
0300
0000
0000
0000
0000
0000
1000
0000
0100
0000
0110
0000
0000
0010
0000
0001
,
0000
0100
0000
0000
0000
0000
0010
1000
0001
0010
0100
1000
0001
0000
0000
0000
,
0000
0000
1100
0000
,
0010
0012
0000
0000
,
0000
0000
0000
0000
,
0000
0000
0000
2003
,
0000
0000
0000
0000
0000
0000
0000
3000
0000
0000
0100
0010
0001
1000
0100
0010
,
0001
1000
0100
0000
1100
0000
0000
0110
0000
0000
0000
0011
0000
0000
0000
0000
,
0002
0000
0000
0000
0000
0000
0000
0000
1003
0100
1000
0000
0010
0100
0010
0000
,
0100
0001
0100
0000
0010
1000
0010
0000
1000
0100
0010
0000
0001
0100
0010
0000
,
1000
0001
1000
0000
0010
0100
0001
0000
1000
0100
0010
0000
0100
0010
0001
0000
,
1000
0010
0100
0000
0110
0000
0000
0110
0000
0000
0110
0000
0000
0000
0000
0000
,
2000
0000
0000
0000
0000
0000
0000
0000
3001
0010
0001
0000
0100
0010
0100
0000
,
0010
1000
0010
0000
0100
0001
0100
0000
0001
0010
0100
0000
1000
0010
0100
0000
,
0001
1000
0001
0000
0100
0010
1000
0000
0001
0010
0100
0000
0010
0100
1000
0000
,
0001
0100
0010
0000
0110
0000
0000
0110
0000
0000
0110
0000
0000
0000
0000
0000
,
2000
0000
0000
0000
3001
0200
0300
0000
0000
0000
0000
0000
0010
2000
3000
0000
,
0101
0000
0000
0000
0010
2000
3000
0000
0011
0000
0000
0000
0100
0002
0003
0000
,
1000
0100
1000
0000
0001
0100
0001
0000
1000
0100
0010
0001
0010
0100
1000
0000
,
0100
0000
0010
0000
0011
0000
0000
0011
0000
0000
0011
0000
0000
0000
0000
0000
,
0002
0000
0000
0000
0103
0020
0030
0000
1100
0000
0000
0000
1000
0020
0030
0000
,
1001
0000
0000
0000
2000
0000
3000
0200
0000
0300
0000
0020
0031
0100
0000
0000
,
0001
0010
0001
0000
1000
0010
1000
0000
0001
0010
0100
1000
0100
0010
0001
0000
,
0010
0000
0100
0000
1100
0000
0000
1100
0000
0000
1100
0000
2000
0000
0000
0000
,
0000
0000
0000
3001
,
0000
0000
0100
0000
0000
0001
0000
0010
0000
0100
0000
0000
2100
0000
0000
0000
,
3100
0000
1000
0000
0100
0000
1000
0000
0100
0000
0000
0000
0000
0000
0000
0000
0000
0000
2000
0000
0000
0000
0000
0000
3000
0000
0000
0000
0000
0000
0000
0000
0000
0002
0000
0000
0003
0000
0000
0000
0000
0000
0010
0000
0001
0000
0010
0000
,
0001
0010
0000
0000
0000
0000
0000
0000
0000
0101
0000
0000
0000
0000
0000
0000
0000
0000
0010
0000
0000
0000
1000
0010
,
1000
0010
1000
0000
0000
0000
0200
0000
0000
0000
0000
0000
0300
0000
0000
0000
0000
0000
0011
0000
0000
0000
0000
0000
,
0100
0000
0000
0000
0001
0100
0010
0000
0000
1000
0100
0010
0000
0000
0010
0100
,
1000
0100
0010
0001
0000
0000
0100
0010
1000
0100
0010
0001
2000
0000
0000
0000
,
3100
0010
0100
0010
0100
0010
0001
0000
0010
0000
0100
1000
0001
0010
0100
1000
,
0001
0010
0100
1000
0020
0000
0000
0000
2000
0000
0000
0000
3030
0000
0010
1000
,
0010
0000
0100
0000
0001
0000
1000
0000
0100
0000
0010
0001
0010
0000
0000
0000
,
0000
0000
0001
0100
0010
0000
0000
0000
1000
0010
0100
0001
0000
0010
0100
1000
,
0000
0010
0100
0001
0000
0100
0010
1000
0000
0100
0010
0001
0010
0001
0010
0001
,
0010
0001
0010
0001
0010
0001
0000
0000
1000
0100
0010
0001
0010
0100
1000
0000
,
0010
0100
0010
0100
0002
0000
0000
0000
0000
0000
0000
0000
2003
0000
0000
0000
,
0000
0200
0300
0000
,
0000
3020
0001
0000
,
0000
0230
0000
0302
,
0000
2003
0000
3020
,
0000
0000
0000
0000
0000
0100
0230
0000
,
0000
0000
0000
0000
0300
0000
0000
0000
0001
0010
0001
0010
0001
0000
0100
0010
,
0100
0000
0001
0100
0001
0000
1000
0100
1000
0000
0010
0100
0020
0000
0000
0000
,
0030
2000
0000
0000
3000
0002
0000
0000
0003
0200
0000
0000
0300
0000
0000
0000
,
0010
0010
0010
0010
1000
1000
1000
1000
,
0100
0000
0100
0000
0100
0000
0100
0000
0010
0001
0010
0001
0010
0000
0010
0000
,
0001
0000
0001
0000
0001
0000
0001
0000
0100
0000
0100
0010
0100
0000
0100
0000
,
0001
0000
0001
0000
0001
0000
0001
0010
0100
1000
0001
4000
0400
0000
0000
0000
,
0000
0000
0000
0000
0000
0000
0000
3300
0000
0000
0000
0000
0040
0004
0000
0000
,
0000
0000
0000
0000
0000
0000
0000
0033
0000
0000
0000
0000
0400
0040
0000
0000
,
0000
0000
0000
0000
,
0000
0000
0330
2200
,
0000
0000
0000
0000
,
3300
0000
0000
0000
0100
0000
0000
0010
0000
0000
0001
0000
0022
0000
0000
0000
,
0033
0000
0000
0000
0000
0000
0010
0000
0000
0000
0000
0000
0000
0000
0000
0000
0000
0000
0001
0000
0000
0010
0000
0000
0100
0000
0000
1000
0000
0000
0001
0000
0000
0000
0010
0000
0000
0000
0000
0000
0010
0000
0000
0000
0000
0000
0000
0000
,
0000
0000
0000
0000
0100
1000
0010
0100
0000
0000
0000
0000
0002
0000
0000
0000
,
0003
2000
0000
3000
0200
0300
0002
0003
,
1000
0100
0010
0001
1000
0100
0010
0001
1000
0100
0010
0002
0000
0000
0000
0000
,
0003
0000
0100
0010
0000
2000
0000
0000
,
3010
0120
0000
0100
0231
0000
0301
1002
,
0000
0000
1003
0000
2010
0000
0000
0000
3001
0000
0000
0000
0100
0010
0100
0010
,
0100
0000
0001
1000
0001
1000
0001
0000
1000
0100
1000
0100
1000
0000
0100
0000
,
0010
0000
0001
0000
0011
0000
0000
0011
0000
0000
0011
0000
0020
0000
0000
0000
,
0031
0201
0000
0301
1002
0000
1003
2100
,
0000
0000
3100
0000
0210
0000
0000
0000
0320
0000
0000
0000
0031
1000
0001
1000
,
0001
0000
0100
0010
0100
0010
0100
0000
0001
0100
0001
0100
0001
0000
1000
0010
,
1000
0000
0010
0100
0000
0001
0100
0000
0001
0100
0000
0000
0020
0000
0000
0000
,
0031
0000
1000
0100
1000
0000
0010
0100
0001
0000
1000
0010
0100
0000
0001
0010
,
0100
0000
1000
0100
0010
0000
0100
1000
0010
0000
0100
0001
0200
0000
0000
0000
,
0320
0000
0000
0000
2030
0000
3002
0000
0003
0000
2000
0000
3020
0000
0030
0002
,
0000
0000
1003
0000
0100
0000
0000
0010
0001
0000
0010
0001
1000
0000
1000
0000
,
1000
0000
1000
0000
0100
0000
0100
0000
0100
0000
0100
0010
0001
0000
0001
0000
,
0001
0000
0001
0100
0010
0000
0010
0000
0010
0000
0010
1000
0100
0010
0001
0000
,
0000
0001
0010
0100
1000
0100
1000
0100
1000
0100
1000
0000
1100
0000
0000
0110
,
0000
0000
0011
0000
0110
0000
0000
1100
0000
0000
1001
0000
0002
0000
0000
0000
,
1003
0100
1000
0000
0010
0100
0010
0000
0100
0001
0100
0000
0001
0010
0100
0000
,
1000
0010
0100
0000
0001
0100
0010
0000
1000
0001
0100
0000
0000
0010
0100
0010
,
0100
0010
0100
0010
0100
0010
0100
0010
0100
0000
0010
1000
0100
0000
0010
0001
,
0010
0000
0100
1000
0100
0000
0010
0001
1000
0000
0010
0100
0001
0000
0100
0001
,
0000
0010
0001
0000
1000
0001
0000
0100
0010
0000
1000
0100
0000
0000
1000
0010
,
0000
1000
0001
0000
1000
0100
0000
0010
0001
0000
2000
0000
0000
0000
3010
0100
,
0010
0100
0010
0100
0010
0100
0010
0100
0010
0100
0010
0000
4000
0000
3400
0000
,
0340
0034
4003
3400
0340
0031
0000
0000
,
2200
0000
0000
0000
,
0000
0000
0000
0000
,
0000
0000
0000
0000
,
0000
0000
0000
3300
;

//--------------- dance-single - Keys ----------------
#NOTES:
     dance-single:
     Keys:
     Hard:
     18:
     0,0,0,0,0:
0000
0000
0000
0000
,
0000
0000
0000
1001
,
0000
0001
0000
0000
0200
0000
0000
0000
,
0300
0000
0000
0010
1000
0200
0000
0000
,
0000
0000
0000
0000
0000
0000
0000
0000
0000
0000
0000
0310
0000
0001
0000
1000
0000
0100
0000
0010
0000
0001
0000
1000
,
0000
0100
0000
0010
0000
0001
0000
2000
0000
0000
0000
0000
0000
0000
0000
0000
0000
0000
3001
0000
0000
0000
0000
0000
,
0000
0200
0000
0000
0320
0000
0000
0000
,
0030
0000
0000
0000
0000
0000
0000
0000
1000
0001
2000
0000
0000
0000
0000
0000
,
0000
0000
0000
0000
3000
0000
0100
0000
0010
0000
0011
0000
0000
0100
0000
0010
,
0000
1000
0000
0000
0000
1000
0100
0010
0001
0100
0010
0100
0002
0000
0000
0000
,
0000
0000
2003
0000
,
3100
0022
0000
0000
,
0000
0000
0000
0000
,
0000
0000
0000
0000
0000
0000
0000
0000
0000
0000
0000
0033
0001
1000
0001
1000
,
0001
1000
0001
1000
0001
1000
0001
1000
0001
1000
0001
1000
0001
0010
0100
1000
,
0001
0010
0100
0000
1001
0000
0000
1001
0000
0000
0000
1001
0000
0000
0000
0000
,
2000
0000
0000
0000
0000
0000
3000
0000
0001
0100
0001
0100
0010
1000
0100
0010
,
0001
0100
0010
1000
0001
0010
0100
1000
0100
1000
0010
0100
0010
0100
0001
0100
,
0010
1000
0010
0100
0001
0010
0100
1000
0100
0010
0100
1000
0010
0100
0001
0010
,
0001
0010
0100
0000
1100
0000
0000
0110
0000
0000
0011
0000
0000
0000
0000
0000
,
0002
0000
0000
0000
0000
0000
0000
0003
1000
0010
1000
0010
0100
0001
0010
0100
,
1000
0010
0100
0001
1000
0100
0010
0001
0010
0001
0100
0010
0100
0010
1000
0010
,
0100
0001
0100
0010
1000
0100
0010
0001
0010
0100
0010
0001
0100
0010
1000
0100
,
0010
0001
0000
0000
0011
0000
0000
0110
0000
0000
1100
0000
0000
0000
0000
0000
,
2000
0000
0000
0000
0000
0000
0000
0000
0000
0000
0000
0000
3010
0000
0100
0000
0000
0000
0001
0000
0100
0000
0000
0000
0010
0000
1000
0000
0000
0000
0001
0000
0100
0000
0000
0000
0010
0000
0000
1000
0000
0000
0010
0000
0000
1000
0000
0000
,
0100
0010
0001
0100
0010
1000
0100
1000
0001
0100
0001
0100
0010
0100
0010
1000
,
0010
0100
0001
0010
0001
0100
0010
0100
0001
0010
0100
1000
0100
1000
0010
0100
,
0001
0100
0010
0000
0101
0000
0000
0110
0000
0000
1010
0000
0000
0000
0000
0000
,
0002
0000
0000
0000
0103
0020
0000
0000
0030
0000
0000
0000
1000
0020
0000
0000
,
0030
0000
0000
0000
0100
0001
1000
0000
0100
0010
0001
0000
0100
0010
0100
0000
,
0001
0100
0001
0000
1000
0010
1000
0000
0100
0010
0001
0000
1000
0100
0010
0100
,
1000
0010
0100
0000
1010
0000
0000
0110
0000
0000
0101
0000
0002
0000
0000
0000
,
0000
0000
0003
0020
,
0000
0000
0030
0002
0003
2000
3000
0000
0010
0000
0100
0000
0102
0000
0003
0000
,
0100
0000
0000
0000
0010
0000
0000
0000
0100
0000
0000
0000
0010
0000
0000
0000
0100
0000
0000
0000
0000
0000
0000
0000
0000
0000
0000
0000
0000
0000
0000
0000
0000
0000
0000
0000
0000
0000
0000
0000
0000
0000
2020
0000
0000
0000
0000
0000
0000
0000
0000
0000
0000
0000
0000
0000
0000
0000
0000
0000
3030
0000
0000
0000
0000
0000
0000
0000
0000
0000
0000
0000
0100
0000
0000
0000
0000
0000
0000
0000
0000
0000
0000
0000
0000
0000
0000
0000
0001
0000
0000
0010
0000
0000
0000
0000
,
0001
0000
0000
0000
0000
0000
0000
0000
0000
0000
0010
0000
0000
0000
0000
0000
0000
0000
0000
0001
0000
0000
0000
0000
0000
0000
0000
0000
0000
0000
0000
0000
0000
0000
0000
0000
0000
0000
0000
0000
0000
0000
0000
0000
0000
0000
0000
0000
1000
0000
0000
0000
0000
0000
0000
0000
0000
0000
0000
0000
0000
0000
0000
0000
0000
0000
0000
0000
0000
0000
0000
0000
0000
0000
0000
0000
0000
0000
0000
0000
0000
0000
0000
0000
0020
0000
0000
0000
0000
0000
0000
0000
0000
0000
0000
0000
0000
0000
0000
0000
0000
0000
0000
0000
0000
0000
0000
0000
0000
0000
0000
0000
0000
0000
0000
0000
0000
0000
0000
0000
0030
0000
0000
0000
0000
0000
0000
0000
0000
0000
0000
0000
0000
0000
0000
0000
0000
0000
0000
0000
0000
0000
0000
0000
1100
0000
0000
0000
0000
0000
0000
0000
0000
0000
0000
0000
0000
0000
0000
0000
0000
0000
0000
0000
0000
0000
0000
0000
0000
0000
0000
0000
0000
0000
0000
0000
0010
0000
0000
0000
0000
0000
0000
0000
1000
0000
0000
0000
0000
0000
0000
0000
,
0010
1000
0010
0000
0000
0000
0200
0000
0000
0000
0000
0000
0000
0000
0000
0300
0000
0000
1001
0000
0000
0000
0000
0000
,
0010
0000
0100
0001
0010
0100
2000
0000
3000
0010
0100
0001
0000
0000
1000
0010
,
0001
0010
2000
0000
3000
0000
0001
0010
0100
1000
0100
0010
0002
0000
0000
0003
,
0010
0001
0010
0001
0010
0001
0010
0100
1000
0100
1000
0100
1000
0100
0010
0001
,
1000
0100
0010
0001
1000
0000
0000
0000
0200
0000
0000
0300
2000
0000
3001
0010
,
0001
0000
0000
0000
1001
0000
0000
0000
0100
1000
0100
0010
0001
0000
0000
0000
,
0000
0000
1000
0010
1000
0000
0000
0000
0010
0000
0000
0100
0010
1000
0000
0001
,
0100
0010
0000
1000
0001
1000
0000
0001
0100
0010
0000
0000
1000
0010
0100
0010
,
1000
0001
0010
0100
0010
0001
0010
0100
1000
0010
0100
0010
1000
0010
1000
0001
,
0010
0001
0100
0010
2000
0000
0000
0000
3000
0000
0000
0000
0001
0010
0100
1000
,
0100
0010
0001
0010
0100
1000
0100
0010
0001
0010
0100
1000
0100
0010
0001
0010
,
0100
1000
0100
0010
0001
0100
0010
1000
0010
0100
0001
0100
0010
1000
0010
0100
,
0001
0100
0010
1000
0010
0100
0001
0100
0010
1000
0010
0100
0001
0100
0010
1000
,
0010
0100
0001
0100
0010
1000
0010
0100
0001
0100
0010
1000
0020
0000
0000
0000
,
0000
0000
0000
0000
0030
0100
0200
0000
,
0000
0000
0000
0000
0300
0000
0000
0000
0001
0100
0010
1000
0100
1000
0010
0100
,
0010
1000
0001
0010
0100
1000
0100
0010
0001
0010
0001
0010
0002
0000
0000
0000
,
0003
2000
0000
0000
0000
3000
0000
0002
0000
0000
0000
0003
0020
0000
0000
0030
,
0010
0010
0010
0010
0010
0010
0010
0010
,
0010
0000
0010
0000
0010
0000
0010
0000
0001
1000
0001
0010
0100
0000
0100
0000
,
0100
0000
0100
0000
0100
0000
0100
0000
0100
0000
0100
1000
0100
0000
0100
0000
,
0100
0000
0100
0000
0100
0000
0100
0010
0001
1000
0001
0010
0100
1000
0100
1000
,
0100
1000
0100
1000
0100
1000
0100
1000
0000
0000
0000
0000
0001
0010
0001
0010
,
0001
0010
0001
0010
0001
0010
0001
0010
0000
0000
0000
0000
0001
1000
0001
1000
,
0001
1000
0001
1000
0001
1000
0001
1000
0001
1000
0001
0100
0010
1000
0010
1000
,
0010
0100
0001
0010
0100
1000
0010
0100
0001
1000
0010
0000
0202
0000
0000
0000
,
0000
0000
0000
0000
,
0303
0000
0000
0000
0001
0000
0000
1000
0000
0000
0010
0000
2020
0000
0000
0000
,
3030
0000
0000
0000
0000
0000
0010
0000
0000
0000
0000
0000
0000
0000
0000
0000
0000
0000
0100
0000
0000
0010
0000
0000
1000
0000
0000
0001
0000
0000
0100
0000
0000
0000
0010
0000
0000
0000
0000
0000
0010
0000
0000
0000
0000
0000
0000
0000
,
0000
0000
0000
0000
1000
0100
0010
0001
0000
0000
0000
0000
0200
0000
0000
0000
,
0300
2000
0000
3000
0200
0300
0002
0003
,
1000
0100
0010
0001
1000
0100
0010
0001
1000
0100
0010
0002
0000
0000
0000
0000
,
0003
0000
0100
0010
0000
2000
0000
0000
,
3010
0120
0000
0100
0231
0000
0301
1002
,
0000
0000
1003
0000
2010
0000
0000
0000
3010
0100
0001
0000
1000
0010
0100
0000
,
0001
0010
0100
0010
0001
1000
0010
0100
0010
1000
0100
0010
0001
0010
0001
0100
,
0010
0100
0001
1000
1001
0000
0000
1001
0000
0000
1001
0000
0020
0000
0000
0000
,
0130
0201
0000
0301
1002
0000
1003
2100
,
0000
0000
0000
0000
0000
0000
3100
0000
0000
0000
0000
0000
0120
0000
0000
0000
0000
0000
0000
0000
0000
0000
0030
0000
0200
0000
0000
0000
0000
0000
0000
0000
0000
0000
0000
0000
1300
0000
0000
0100
0000
0000
0010
0000
0000
0100
0000
0000
,
1000
0010
0100
0001
1000
0010
0100
0001
0010
0001
0100
0010
0100
0010
1000
0100
,
0010
0001
0010
0001
0100
0010
0000
1000
0010
0000
0100
0010
2000
0000
0000
0000
,
3010
1000
0010
0000
0100
0001
0100
0000
0001
0010
0100
0000
1000
0010
0100
0000
,
0001
1000
0010
0000
0100
0001
1000
0000
0010
0000
0010
0100
0020
0000
0000
0000
,
2030
0000
0000
0000
3002
0000
0023
0000
0000
0000
2030
0000
3020
0000
0000
0032
,
0000
0000
0203
0000
0320
0000
1030
0010
0000
0100
0001
0000
0001
0000
0001
0000
,
0001
0000
0001
0000
0001
0000
0001
0000
0001
0000
0001
0100
0010
0000
0010
0000
,
0010
0000
0000
0010
0000
0000
0010
0000
0000
0010
0000
0000
0010
0000
0000
0010
0000
0000
1000
0000
0000
0100
0010
0001
,
0000
0100
0010
0100
0010
0100
0010
0100
0010
0100
0010
0000
1001
0000
0000
1100
,
0000
0000
0011
0000
0110
0000
0000
0011
0000
0000
1010
0000
0200
0000
0000
0000
,
0310
1000
0010
0000
0100
0001
0100
0000
0001
0010
0100
0000
1000
0010
0100
0000
,
0001
1000
0010
0000
0100
0001
1000
0000
0010
0000
0010
0000
0000
0100
0001
0100
,
0001
0100
0001
0100
0001
0100
0001
0100
0001
0100
0001
0010
0100
1000
0010
0100
,
0001
1000
0100
1000
0010
0100
0001
0010
0001
1000
0010
0100
0010
0000
0001
0010
,
0000
0100
0010
0000
1000
0010
0000
0100
0010
0000
0001
0010
0000
0100
0010
0000
,
0100
1000
0000
0100
0010
0000
0100
0001
0000
0000
0110
0000
0000
0000
1000
0001
,
1000
0001
1000
0001
1000
0001
1000
0001
1000
0001
1000
0000
0001
0010
0100
1000
,
0001
0010
0100
1000
0001
0010
0100
1000
0001
0010
0100
1000
0000
0000
0000
0000
,
2002
0000
0000
0000
,
0000
0000
0000
0000
,
0000
0000
0000
0000
,
0000
0000
0000
0000
0000
0000
0000
0000
0000
0000
0000
3003
0000
0000
0000
0000
;

//--------------- dance-single - Keys ----------------
#NOTES:
     dance-single:
     Keys:
     Challenge:
     19:
     0,0,0,0,0:
0000
0000
0000
0000
,
0000
0000
0000
1001
,
0000
2000
0000
0000
0000
0000
0000
0000
3200
0000
0000
0000
0000
0000
0000
0000
,
0300
0000
0000
1000
0100
0002
0000
0000
,
0000
0000
0000
0000
0000
0000
0000
0000
0000
0000
0000
1000
0003
0010
0000
0100
0000
0001
0000
1000
0000
0100
0000
0010
,
0000
0001
0000
0100
0000
0010
0000
1000
0010
0100
0001
0100
0010
0100
0001
0100
0001
0000
1001
0000
0000
0000
0000
0000
,
0000
0101
0000
0000
0022
0000
0000
0000
,
0033
0000
0000
0000
0000
0000
0000
0010
0001
0020
0000
0000
0000
0000
0000
0000
,
0000
0000
0000
0000
0030
0000
0001
0000
0100
0000
0110
0000
0000
0010
0000
0100
,
0000
0001
0000
0000
0000
1000
0100
1000
0001
1000
0010
0100
0002
0000
0000
0000
,
0000
0000
0203
0000
,
0310
2020
0000
0000
,
0000
0000
0000
0000
,
0000
0000
0000
0000
0000
0000
0000
0000
0000
0000
0000
3030
0010
0100
0010
0100
,
0010
0000
0000
0000
0000
0000
0100
0000
0000
0000
0000
0000
0010
0000
0000
0000
0000
0000
0100
0000
0000
0000
0000
0000
0010
0000
0000
0000
0000
0000
0100
0000
0000
0000
0000
0000
0010
0000
0000
0000
0000
0000
0100
0000
0000
0000
0000
0000
0010
0000
0000
0000
0000
0000
0100
0000
0000
0000
0000
0000
0010
0000
0000
0000
0000
0000
0100
0000
0000
0000
0000
0000
0001
0000
0000
0010
0000
0000
0000
0000
0100
0000
0000
0000
1000
0000
0000
0000
0001
0000
0000
0000
0010
0000
0000
0000
,
0100
0000
1000
0000
0001
0000
0010
0000
0100
0000
1000
0000
0001
0000
0000
0000
0000
0000
0000
0000
0000
1001
0000
0000
0000
0000
0000
0000
0000
0000
0000
0000
0000
1001
0000
0000
0000
0000
0000
0000
0000
0000
0000
0000
0000
0000
0000
0000
,
2000
0000
0000
0000
0000
0000
3000
0000
1000
0010
1000
0001
0010
0001
0100
0010
,
0100
0001
0010
0001
1000
0100
1000
0010
0100
0010
1000
0100
0010
0001
0100
0010
,
0100
0001
0010
0100
1000
0001
1000
0001
0010
0100
1000
0100
0001
0100
1000
0010
,
0100
0001
1000
0100
1001
0000
0000
1001
0000
0000
1001
0000
0000
0000
0000
0000
,
2000
0000
0000
0000
0000
0000
3000
0000
0001
0100
0001
1000
0100
1000
0010
0100
,
0010
1000
0100
1000
0001
0010
0001
0100
0010
0100
0001
0010
0100
1000
0010
0100
,
0010
1000
0100
0010
0001
1000
0001
1000
0100
0010
0001
0010
1000
0010
0001
0100
,
0010
1000
0001
0010
0110
0000
0000
0110
0000
0000
0110
0000
0000
0000
0000
0000
,
0200
0000
0000
0000
0000
0000
0000
0000
0000
0000
0000
0000
1300
0000
0100
0000
0000
0000
1000
0000
0010
0000
0000
0000
0100
0000
0001
0000
0000
0000
0100
0000
0010
0000
0000
0000
0100
0000
0000
0001
0000
0000
1000
0000
0000
0100
0000
0000
,
1000
0001
0010
0001
0100
0010
0100
0001
0010
0100
1000
0010
0100
0001
1000
0100
,
0010
0001
0010
0100
1000
0001
0100
0010
0100
0001
0100
1000
0100
0001
0010
1000
,
0010
0001
0100
0010
1010
0000
0000
1010
0000
0000
1010
0000
0000
0000
0000
0000
,
0020
0000
0000
0000
0031
1000
0010
0100
0010
1000
0100
0010
0100
1000
0001
0010
,
0001
0000
0000
1000
0000
0000
0100
0000
0000
1000
0000
0000
0010
0000
0000
0100
0000
0000
0010
0000
0000
1000
0000
0000
0100
0000
0000
0010
0000
0000
0001
0000
0000
0000
0100
0000
0010
0000
1000
0000
0000
0000
0000
0000
0010
0000
0100
0000
,
0001
0000
0000
0000
0000
0000
0100
0000
0010
0000
1000
0000
0000
0000
0000
0000
0010
0000
0100
0000
0001
0000
0000
0000
1000
0000
0000
0100
0000
0000
0010
0000
0000
0001
0000
0000
0100
0000
0000
1000
0000
0000
0100
0000
0000
0001
0000
0000
,
0100
1000
0010
0100
0101
0000
0000
0101
0000
0000
0101
0000
1000
0001
0100
0010
,
0100
0000
0000
0001
0000
0000
0100
0000
0000
0010
0000
0000
1000
0000
0000
0000
0100
0000
0000
0000
0010
0000
0000
0000
0001
0000
0000
0000
0100
0000
0000
0000
0010
0000
0000
0000
0200
0000
0000
0000
0000
0000
0000
0000
0000
0000
0000
0000
,
0300
0000
0000
2000
3000
0002
0003
0000
0100
0000
0010
0000
2200
0000
3300
0000
,
0010
0000
0001
0000
1000
0000
0100
0000
0010
0000
0000
0000
0000
0000
0000
0000
0000
0000
0000
0000
0000
0202
0000
0000
0000
0000
0000
0000
0000
0000
0303
0000
0000
0000
0000
0000
0010
0000
0000
0000
0000
0000
0000
0000
1000
0000
0010
0000
,
1000
0000
0001
0000
1000
0000
0000
0000
0000
0000
0000
0000
0001
0000
0000
0000
0000
0000
0000
0000
0000
0200
0000
0000
0000
0000
0000
0000
0000
0000
0300
0000
0000
0000
0000
0000
1010
0000
0000
0000
0000
0000
0000
0000
0001
0000
0100
0000
,
0001
1000
0001
0000
0000
0000
0020
0000
0000
0000
0000
0000
0000
0000
0000
0030
0000
0000
0011
0000
0000
0000
0000
0000
,
0100
0000
0010
1000
0100
0010
0002
0000
0003
0100
0010
1000
0000
0000
0001
0100
,
1000
0100
0002
0000
0003
0000
1000
0100
0010
0100
1000
0010
0020
0000
0000
0000
,
0130
0000
0000
1000
0000
0000
0100
0000
0000
1000
0000
0000
0100
0000
0000
1000
0000
0000
0100
0000
0000
0010
0000
0000
0001
0000
0000
0010
0000
0000
1000
0000
0000
0010
0000
0000
0001
0000
0100
0000
0010
0000
1000
0000
0001
0000
0100
0000
,
0010
0000
0100
0000
0001
0000
1000
0000
0000
0000
0000
0000
1100
0000
0000
0000
0000
0000
0000
0000
0000
0000
0000
0000
0020
0000
0000
0000
0000
0000
0000
0000
0000
0030
0000
0000
0002
0000
0000
0000
0000
0000
1003
0000
0000
0100
0000
0000
,
1000
0000
0000
0000
0110
0000
0000
0000
0010
0001
0010
0100
1000
0000
0000
0000
,
0000
0000
0000
0000
0000
0000
0001
0000
0000
0100
0000
0000
0001
0000
0000
0000
0000
0000
0000
0000
0000
0000
0000
0000
0100
0000
0000
0000
0000
0000
0000
0000
0000
0000
0010
0000
0100
0000
0001
0000
0000
0000
0000
0000
1000
0000
0010
0000
,
0100
0000
0000
0001
1000
0001
0000
1000
0010
0100
0000
0000
0001
0100
0010
0100
,
0001
1000
0100
0010
0100
1000
0100
0010
0001
0100
0010
0100
0001
0100
0001
1000
,
0100
1000
0010
0100
0002
0000
0000
0000
0003
0000
0000
0000
1000
0100
0010
0001
,
0010
0100
1000
0100
0010
0001
0010
0100
1000
0100
0010
0001
0010
0100
1000
0100
,
0010
0001
0010
0100
1000
0010
0100
0001
0100
0010
1000
0010
0100
0001
0100
0010
,
1000
0010
0100
0001
0100
0010
1000
0010
0100
0001
0100
0010
1000
0010
0100
0001
,
0100
0010
1000
0010
0100
0001
0100
0010
1000
0010
0100
0001
0200
0000
0000
0000
,
0000
0000
0000
0000
0300
0010
0020
0000
,
0000
0000
0000
0000
0030
0000
0000
0000
1000
0010
0100
0001
0010
0001
0100
0010
,
0100
0001
1000
0100
0010
0001
0010
0100
1000
0100
0001
0100
2000
0000
0000
0000
,
3000
0002
0000
0000
0000
0003
0000
2000
0000
0000
0000
3000
0200
0000
0000
0300
,
1100
0100
1100
0100
1100
0100
1100
0100
,
1100
0000
0100
0000
1100
0000
0100
0000
1000
0001
0100
0010
0101
0000
0100
0000
,
0101
0000
0100
0000
0101
0000
0100
0000
0101
0000
0100
0001
0100
0000
0100
0000
,
0101
0000
0100
0000
0101
0000
0100
0010
0100
0001
1000
0100
0010
0001
0100
0010
,
0100
0001
0100
0010
0100
0001
0100
0010
0000
0000
0000
0000
0010
1000
0010
0100
,
0010
1000
0010
0100
0010
1000
0010
0100
0000
0000
0000
0000
0100
1000
0100
0001
,
0100
0000
0000
1000
0000
0000
0100
0000
0000
0001
0000
0000
0100
0000
0000
1000
0000
0000
0100
0000
0000
0001
0000
0000
0100
0000
0000
1000
0000
0000
0100
0000
0000
0001
0000
0000
0100
0000
0010
0000
1000
0000
0100
0000
0000
0000
0010
0000
,
0001
0100
0010
0000
1000
0001
0100
0010
0000
1000
0100
0010
0001
0010
0100
1000
0100
0000
2200
0000
0000
0000
0000
0000
,
0000
0000
0000
0000
,
3300
0000
0000
0000
1000
0000
0000
0001
0000
0000
0100
0000
0202
0000
0000
0000
,
0303
0000
0000
0000
0000
0000
0100
0000
0000
0000
0000
0000
0000
0000
0000
0000
0000
0000
0010
0000
0000
0100
0000
0000
0001
0000
0000
1000
0000
0000
0010
0000
0000
0000
0100
0000
0000
0000
0000
0000
0100
0000
0000
0000
0000
0000
0000
0000
,
0000
0000
0000
0000
0000
0000
0001
0010
0100
1000
0001
0000
0000
0000
0000
0000
0000
0000
0020
0000
0000
0000
0000
0000
,
0030
0002
0000
0003
0020
0030
2000
3000
,
0001
0010
0100
1000
0001
0010
0100
1000
0001
0010
0100
2000
0000
0000
0000
0000
,
3000
0000
0010
0100
0000
0002
0000
0000
,
0103
2010
0000
3010
0201
0000
0310
2001
,
0000
0000
3010
0000
0102
0000
0000
0000
0103
0010
1000
0000
0001
0100
0010
0000
,
1000
0100
0010
0100
1000
0001
0100
0010
0100
0001
0010
0100
1000
0100
1000
0010
,
0100
0010
1000
0001
1001
0000
0000
1001
0000
0000
1001
0000
0200
0000
0000
0000
,
0310
0102
0000
0103
1020
0000
0130
1002
,
0000
0000
0103
0000
2010
0000
0000
0000
3020
0000
0000
0000
0031
0010
0100
0010
,
0001
0100
0010
1000
0001
0100
0010
1000
0100
1000
0010
0100
0010
0100
0001
0010
,
0100
0000
0000
1000
0000
0000
0010
0000
1000
0000
0100
0000
0010
0000
0001
0000
0100
0000
0000
0000
0000
0001
0000
0000
0100
0000
0000
0000
0000
0000
1000
0000
0000
0100
0000
0000
0002
0000
0000
0000
0000
0000
0000
0000
0000
0000
0000
0000
,
0103
0001
0100
0000
0010
1000
0010
0000
1000
0100
0010
0000
0001
0100
0010
0000
,
1000
0000
0000
0001
0000
0000
0100
0000
0010
0000
1000
0000
0100
0000
0000
0000
0000
0000
0010
0000
0000
0000
0000
0000
0001
0000
0000
0000
0000
0000
0100
0000
0000
0010
0000
0000
0200
0000
0000
0000
0000
0000
0000
0000
0000
0000
0000
0000
,
0302
0000
0000
0000
2003
0000
0000
3200
0000
0000
0302
0000
0203
0000
0000
2300
,
0000
0000
3020
0000
0130
0000
0001
0100
0000
0010
1000
0000
1010
0000
1000
0000
,
1010
0000
1000
0000
1010
0000
1000
0000
1010
0000
1000
0010
0101
0000
0100
0000
,
0101
0000
0000
0100
0000
0000
0101
0000
0000
0100
0000
0000
0101
0000
0000
0100
0000
0000
0001
0000
0000
0010
0100
1000
,
0000
0010
0100
0010
0100
0010
0100
0010
0100
0010
0100
0000
1001
0000
0000
0011
,
0000
0000
1100
0000
0110
0000
0000
1100
0000
0000
0101
0000
0020
0000
0000
0000
,
0130
0001
0100
0000
0010
1000
0010
0000
1000
0100
0010
0000
0001
0100
0010
0000
,
1000
0001
0100
0000
0010
1000
0001
0000
0100
0000
0100
0000
0000
0010
1000
0010
,
1000
0010
1000
0010
1000
0010
1000
0010
1000
0010
1000
0100
0010
0001
0100
0010
,
1000
0001
0010
0001
0100
0010
1000
0100
1000
0001
0100
0010
0100
0000
1000
0100
,
0000
0001
0100
0000
1000
0100
0000
0001
0100
0000
1000
0010
0000
0001
0010
0000
,
1000
0010
0000
0001
0010
0000
1000
0010
0000
0000
0110
0000
0000
0000
0001
1000
,
0001
0000
0000
1000
0000
0000
0001
0000
0000
1000
0000
0000
0001
0000
0000
1000
0000
0000
0001
0000
0000
1000
0000
0000
0001
0000
0000
1000
0000
0000
0001
0000
0000
0000
0000
0000
1000
0000
0100
0000
0010
0000
0001
0000
1000
0000
0100
0000
,
0010
0001
1000
0100
0010
0001
1000
0100
0010
0001
1000
0100
0010
0001
1000
0100
0010
0001
0000
0000
0000
0000
0000
0000
,
2002
0000
0000
0000
,
0000
0000
0000
0000
,
0000
0000
0000
0000
,
0000
0000
0000
0000
0000
0000
0000
0000
0000
0000
0000
3003
0000
0000
0000
0000
;
