#VERSION:0.83;
#TITLE:Bang;
#SUBTITLE:;
#ARTIST:Wavedash;
#TITLETRANSLIT:;
#SUBTITLETRANSLIT:;
#ARTISTTRANSLIT:;
#GENRE:;
#CREDIT:;
#MUSIC:song.ogg;
#BANNER:bn.png;
#BACKGROUND:;
#CDTITLE:;
#SAMPLESTART:0.000;
#SAMPLELENGTH:0.000;
#SELECTABLE:YES;
#OFFSET:0.000;
#BPMS:0.000=150.000;
#STOPS:;
#BGCHANGES:;
#FGCHANGES:;

//--------------- dance-single - ----------------
#NOTEDATA:;
#STEPSTYPE:dance-single;
#DESCRIPTION:;
#DIFFICULTY:Hard;
#METER:13;
#RADARVALUES:0,0,0,0,0;
#NOTES:
0000
0000
0000
0000
,
0000
0000
0000
0000
,
0000
0000
0000
0000
,
0000
0000
0000
0000
,
0000
0000
0000
0000
,
0000
0000
0000
0000
,
0000
0000
0000
0000
,
0000
0000
0000
0000
,
0000
1000
0000
0000
0100
0000
0010
0000
0000
0001
0000
0000
0100
0000
0010
0000
,
0000
1000
0000
0000
0100
0000
0010
0000
0000
0001
0000
0000
0010
0000
0100
0000
,
0000
1000
0000
0000
0010
0000
0100
0000
0000
0001
0000
0000
0010
0000
0100
0000
,
0000
1000
0000
0000
0010
0000
0100
0000
0000
0001
0000
0000
0100
0000
0010
0000
,
1000
0100
1000
0010
0100
0001
0100
0000
,
0001
0100
0001
0010
0100
1000
0100
0000
,
1000
0010
0100
0001
0010
0100
4000
0000
,
3100
0000
0010
0000
0001
0000
000M
000M
,
2002
3003
0000
1000
1000
0100
0100
0010
,
0010
0001
0001
0100
0100
0010
0010
0000
,
0020
0130
0000
0001
0001
0010
0010
0100
,
0100
1000
1000
0010
0010
0100
0001
0010
,
0200
2300
3001
0200
,
0320
0000
1030
0010
1000
0000
0002
0003
,
1001
0000
0001
0400
0301
0010
0200
0000
,
1300
0000
0001
0000
0100
0000
0010
0000
0100
0010
0000
1000
0001
0000
1000
0000
,
2002
3003
0000
1000
1000
0010
0010
0100
,
0100
0001
0001
0010
0010
0100
0100
0000
,
0200
0310
0000
0001
0001
0100
0100
0010
,
0010
1000
1000
0100
0100
0010
0001
1000
,
0020
0230
0301
0020
,
0230
0000
1300
0100
1000
0000
0002
0003
,
1001
0000
0001
0400
0310
1000
0200
0000
,
0310
0000
0001
0000
0100
0000
0010
0000
1000
0001
0000
0010
0100
0000
0000
0000
,
0000
1000
0000
0000
0100
0000
0010
0000
0000
0001
0000
0000
0100
0000
0010
0000
,
0000
1000
0000
0000
0100
0000
0010
0000
0000
0001
0000
0000
0010
0000
0100
0000
,
0000
1000
0000
0000
0010
0000
0100
0000
0000
0001
0000
0000
0010
0000
0100
0000
,
0000
1000
0000
0000
0010
0000
0100
0000
0000
0001
0000
0000
0100
0000
0010
0000
,
2000
0000
0000
3001
0010
0000
0100
0000
1000
0000
0010
0000
0100
0000
0001
0000
,
2000
0000
0000
3100
0010
0000
0001
0000
0100
0000
0010
0000
1000
0000
0001
0000
,
2000
0000
3001
0000
0010
0000
0100
0000
2000
0000
3100
0000
1000
0001
0100
0010
,
4000
0000
3100
0000
0010
0000
M000
M000
,
2002
3003
0001
0000
1000
0000
0010
0010
,
0100
0100
0001
0001
0200
0000
0310
1000
,
0200
0000
0310
0100
1000
0000
0002
0000
,
0203
0000
0000
0000
0320
0000
0000
0030
,
0100
0000
0010
0000
1000
0000
0100
0100
,
0010
0010
0001
0001
0020
0000
0130
1000
,
0020
0000
0130
0010
1000
0100
0010
0001
,
0100
0000
0001
0000
1000
0000
0010
0000
0100
0001
0000
1000
0001
0000
0010
0000
,
0200
0000
0000
0300
0110
0000
0001
0001
,
0100
0100
0010
0010
0200
0000
0301
0010
,
0200
0000
1300
1000
0001
0000
2000
0000
,
3200
0000
0320
0030
,
0020
0030
0100
0000
1000
0000
0010
0010
,
0100
0100
0001
0001
0200
0000
0310
1000
,
0200
0000
0310
0100
1000
0010
0100
0001
,
0010
0000
0001
0000
0010
0000
0100
0000
1000
0001
0000
0010
0100
0000
0000
0000
,
0200
0300
0000
0010
0110
0100
0000
0000
,
0100
0000
0000
1000
1001
0001
0000
0000
,
0100
0000
0000
0001
0101
0100
0000
0000
,
0010
0000
0000
0000
0000
0000
1000
0000
1010
0000
0000
1001
0000
0000
0011
0000
,
0020
0030
0000
0100
0110
0010
0000
0000
,
0010
0000
0000
0001
1001
1000
0000
0000
,
0010
0000
0000
1000
1010
0010
0000
0000
,
0100
0000
0000
0000
0000
0000
0001
0000
0101
0000
0000
1001
0000
0000
1100
0000
,
0000
1000
0000
0001
0100
0000
0010
0000
0000
1000
0000
0001
0100
0000
0010
0000
,
1000
0000
0000
1000
1001
0001
0000
0000
,
1000
0001
0000
0010
0100
0000
1000
0000
0000
0001
0000
0010
0100
0000
1000
0000
,
0010
0000
0000
0000
0000
0000
1000
0000
1010
0000
0000
1001
0000
0000
0011
0000
,
0002
1003
0000
0010
0100
0000
0001
0000
0000
1000
0000
0010
0100
0000
0001
0000
,
1000
0000
0000
1000
1001
0001
0000
0000
,
1000
0001
0000
0010
0100
0000
1000
0000
0000
0001
0000
0010
0100
0000
1000
0000
,
0000
M000
0000
00M0
0M00
0000
000M
0000
0000
M000
0000
00M0
0M00
0000
000M
0000
;

//--------------- dance-single - ----------------
#NOTEDATA:;
#STEPSTYPE:dance-single;
#DESCRIPTION:;
#DIFFICULTY:Challenge;
#METER:14;
#RADARVALUES:0,0,0,0,0;
#NOTES:
0000
0000
0000
0000
,
0000
0000
0000
0000
,
0000
0000
0000
0000
,
0000
0000
0000
0000
,
0000
0000
0000
0000
,
0000
0000
0000
0000
,
0000
0000
0000
0000
,
0000
0000
0000
0000
,
0000
1000
0000
0010
0100
0000
0001
0000
0000
1000
0000
0010
0100
0000
0001
0000
,
0000
1000
0000
0010
0100
0000
0001
0000
0000
1000
0000
0100
0010
0000
0001
0000
,
0000
1000
0000
0010
0100
0000
0001
0000
0000
1000
0000
0010
0100
0000
0001
0000
,
0000
1000
0000
0010
0100
0000
0001
0000
0000
1000
0000
0100
0010
0000
0001
0000
,
1002
1003
0010
0100
0001
1000
0100
0000
,
2001
3001
0010
0100
1000
0001
0100
0000
,
0002
0103
0010
1000
0100
1000
0010
0100
0001
0010
0100
1000
0004
0000
0000
0000
,
0103
0000
0010
0000
1000
0000
000M
000M
,
2002
3003
0000
1000
1000
0100
0100
0010
,
0010
0001
0001
0100
0100
0010
0010
0000
,
0120
0130
0000
0001
0001
0010
0010
0100
,
0100
0000
1000
0000
1000
0000
0010
0000
0010
0000
0100
0000
0001
1000
0100
0000
,
0020
0230
1300
0020
,
0230
0000
0301
0010
0001
0000
2000
3000
,
1001
0000
0000
0000
0000
0000
0001
0000
0000
0100
0010
0100
0010
0000
0000
1000
0000
0000
0200
0000
0000
0000
0000
0000
,
0310
0000
0001
1000
0100
0000
0010
0000
0100
1000
0000
0001
0100
0000
0001
0000
,
2002
3003
0000
1000
1000
0010
0010
0100
,
0100
0001
0001
0010
0010
0100
0100
0000
,
0210
0310
0000
0001
0001
0100
0100
0010
,
0010
0000
1000
0000
1000
0000
0100
0000
0100
0000
0010
0000
0001
1000
0010
0000
,
0200
0320
1030
0200
,
0320
0000
0031
0100
0001
0000
2000
3000
,
1001
0000
0000
0000
0000
0000
0001
0000
0000
0010
0100
0010
0100
0000
0000
1000
0000
0000
0020
0000
0000
0000
0000
0000
,
0130
0000
0001
1000
0010
0000
0100
0000
0010
1000
0000
0001
1000
0000
0000
0000
,
0000
0001
0000
0010
0100
0000
1000
0000
0000
0001
0000
0010
0100
0000
1000
0000
,
0000
0001
0000
0010
0100
0000
1000
0000
0000
0001
0000
0100
0010
0000
1000
0000
,
0002
1003
0000
0010
0100
0000
0001
0000
0000
1000
0000
0010
0100
0000
0001
0000
,
0000
1000
0000
0010
0100
0000
0001
0000
0000
1000
0000
0100
0010
0000
0001
0000
,
2001
0000
3000
0001
0100
0000
0010
0000
1000
0000
0010
0000
0100
0000
0001
0000
,
1002
0000
0003
1000
0100
0000
0010
0000
0001
0000
0010
0000
0100
0000
1000
0000
,
2001
0000
3001
0000
0100
0000
0010
0000
2000
0000
3100
0000
1000
0001
0100
0010
,
4000
0000
3100
0000
0010
0000
M000
M000
,
2002
3003
0001
0000
1000
0000
0010
0010
,
0100
0100
0001
0001
0200
0000
0310
1000
,
0200
0000
0310
0100
1000
0000
0004
0000
,
0403
0000
0000
0000
0320
0000
0000
0030
,
0120
0030
0100
0000
0001
0000
0010
0010
,
0100
0100
1000
1000
0200
0000
0310
0001
,
0200
0000
0310
0100
0001
0010
0100
1000
,
0010
0000
1000
0001
0100
0000
0010
0000
0100
0001
0000
1000
0001
0000
0010
0000
,
0200
0000
0000
0300
0110
0000
0001
0001
,
0100
0100
0010
0010
0200
0000
0301
0010
,
0200
0000
1300
1000
0001
0000
4000
0000
,
3400
0000
0000
0000
0340
0000
0000
0030
,
0120
0030
0100
0000
1000
0000
0010
0010
,
0100
0100
0001
0001
0200
0000
0310
1000
,
0200
0000
0310
0100
1000
0010
0100
0001
,
0010
0000
0001
1000
0100
0000
0010
0000
0100
1000
0000
0001
1000
0000
0000
0000
,
0200
0300
0000
0010
0110
0100
0000
0000
,
0100
0000
0000
1000
1001
0001
0000
0000
,
0100
0000
0000
0001
0101
0100
0000
0000
,
0010
0000
0000
0000
0000
0000
1000
0000
1010
0000
0000
1001
0000
0000
0011
0000
,
0020
0030
0000
0100
0110
0010
0000
0000
,
0010
0000
0000
0001
1001
1000
0000
0000
,
0010
0000
0000
1000
1010
0010
0000
0000
,
0100
0000
0000
0000
0000
0000
0001
0000
0101
0000
0000
1001
0000
0000
1100
0000
,
0000
1000
0000
0001
0100
0000
0010
0000
0000
1000
0000
0001
0100
0000
0010
0000
,
1000
0000
0000
1000
1001
0001
0000
0000
,
1000
0001
0000
0010
0100
0000
1000
0000
0000
0001
0000
0010
0100
0000
1000
0000
,
0010
0000
0000
0000
0000
0000
1000
0000
1010
0000
0000
1001
0000
0000
0011
0000
,
0002
1003
0000
0010
0100
0000
0001
0000
0000
1000
0000
0010
0100
0000
0001
0000
,
1000
0000
0000
1000
1001
0001
0000
0000
,
1000
0001
0000
0010
0100
0000
1000
0000
0000
0001
0000
0010
0100
0000
1000
0000
,
0000
M000
0000
00M0
0M00
0000
000M
0000
0000
M000
0000
00M0
0M00
0000
000M
0000
;
