#TITLE:BLAZE∞BREEZE;
#SUBTITLE:;
#ARTIST:BEMANI Sound Team "TAG×PON";
#TITLETRANSLIT:;
#SUBTITLETRANSLIT:;
#ARTISTTRANSLIT:;
#GENRE:;
#CREDIT:;
#MUSIC:BLAZE BREEZE.ogg;
#BANNER:BLAZE BREEZE.png;
#BACKGROUND:BLAZE BREEZE-bg.png;
#CDTITLE:;
#SAMPLESTART:46.628;
#SAMPLELENGTH:15.000;
#SELECTABLE:YES;
#OFFSET:0.860;
#BPMS:0.000=175.000
,212.000=87.500
,220.000=175.000
;
#STOPS:96.000=0.343
,97.000=0.343
,102.000=0.343
,103.000=0.343
;
#BGCHANGES:;
#FGCHANGES:;

//--------------- dance-single - Princess Pamela ----------------
#NOTES:
     dance-single:
     Princess Pamela:
     Beginner:
     5:
     0,0,0,0,0:
0000
0000
0000
0000
,
0000
0000
0000
0000
,
0000
0000
0000
0000
,
0000
0000
0000
0000
,
0000
0000
0000
0000
,
0000
0000
0000
0000
,
1001
0000
0000
0000
,
1000
0000
1000
0000
,
0001
0000
0000
0000
,
0001
0000
0001
0000
,
1000
0000
0000
0000
,
0010
0000
0000
0000
,
0100
0000
0001
0000
,
0100
0000
0000
0000
,
0010
0000
0000
0000
,
1001
0000
0000
0000
,
0001
0000
0001
0000
,
1000
0000
0000
0000
,
1000
0000
1000
0000
,
0001
0000
0000
0000
,
0010
0000
0000
0000
,
0100
0000
1000
0000
,
0100
0000
0000
0000
,
0010
0000
0000
0000
,
2002
3003
0000
0000
,
0000
0000
0220
0330
,
0000
0000
0000
0000
,
1001
0000
0000
0000
,
0001
0000
0000
0000
,
0100
0000
0000
0000
,
0010
0000
0000
0000
,
1000
0000
1000
0000
,
0001
0000
0002
0000
,
0003
0000
0000
0000
,
1001
0000
0000
0000
,
0110
0000
0000
0000
,
0001
0000
0001
0000
,
1000
0000
0001
0000
,
0010
0000
0000
0000
,
0100
0000
0000
0000
,
1000
0000
1000
0000
,
0010
0000
1000
0000
,
0001
0000
0000
0000
,
0100
0000
0000
0000
,
0001
0000
0010
0000
,
0001
0000
1000
0000
,
0200
0000
0300
0000
,
0020
0000
0030
0000
,
0001
1000
0001
0000
,
1001
0000
0000
0000
,
0010
0010
0010
0000
,
1001
0000
0000
0000
,
0100
0100
0100
0000
,
0220
0000
0330
0000
,
0002
0003
2000
3000
,
1001
0000
0000
0000
,
0001
0000
0000
0000
,
0010
0000
0010
0000
,
0100
0000
1000
0000
,
0010
0000
0100
0000
,
0002
0000
0000
0000
,
0003
0000
0000
0000
,
2002
0000
3003
0000
,
1001
0000
0000
0000
,
0110
0000
0000
0000
,
1000
0000
1000
0000
,
0001
0000
1000
0000
,
0010
0000
0000
0000
,
0100
0000
0000
0000
,
0001
0000
0001
0000
,
0010
0000
0001
0000
,
1000
0000
1000
0000
,
0100
0000
0100
0000
,
1000
0000
0010
0000
,
0100
0000
0001
0000
,
0020
0000
0030
0000
,
0200
0000
0300
0000
,
1000
0001
1000
0000
,
0010
0010
0100
0000
,
0001
1000
0001
0000
,
1001
0000
0000
0000
,
0110
0000
0000
0000
,
1001
0000
0000
0000
,
0110
0000
0000
0000
,
0000
0001
0000
1000
;

//--------------- dance-single - Princess Pamela ----------------
#NOTES:
     dance-single:
     Princess Pamela:
     Easy:
     11:
     0,0,0,0,0:
0000
0000
0000
0000
,
0000
0000
0000
0000
,
0000
0000
0000
0000
,
0000
0000
0000
0000
,
1000
0000
0000
1000
0000
0000
0001
0000
0000
0001
0000
0000
1000
0000
0002
0000
,
0000
0000
0000
0003
,
1001
0000
0000
0000
,
1000
0000
0100
0000
0010
0001
0010
0000
,
1001
0000
0000
0000
,
0001
0000
0100
0000
0010
1000
0010
0000
,
0100
0001
0010
0100
,
1000
0000
0010
0100
0020
0000
0030
0000
,
1000
0000
0000
0001
0000
0000
1000
0000
0001
0000
0000
0000
1001
0000
0000
0000
,
1000
0100
0001
0100
,
1000
0000
0010
0100
0010
0000
2000
0000
,
3000
0000
0000
0000
,
0001
0000
0100
0010
0100
0000
0001
0000
,
1001
0000
0000
0000
,
1000
0000
0100
0010
0100
0000
1000
0000
,
0000
0010
0100
0001
,
0010
0000
0100
1000
0200
0000
0300
0000
,
1000
0000
0000
0001
0000
0000
1000
0000
0001
0000
0000
0000
0100
0000
0000
0000
,
1001
0000
0001
1000
,
0001
0100
0010
0000
2000
0000
3000
0000
,
2002
3003
0000
0000
2002
3003
0000
0000
1000
0000
0000
0000
0001
0000
0000
0000
,
0100
0000
0000
0000
0010
0000
0000
0000
0220
0330
0000
0000
0220
0330
0000
0000
,
0100
0001
0010
0100
,
1000
0000
0010
0100
,
0010
1000
0100
0001
,
0100
0000
0000
1000
0001
0000
0000
0000
,
1000
0010
0100
0001
,
0010
0000
0000
0001
1000
0000
0000
0000
,
0010
0000
0000
0010
0000
0000
0200
0000
0000
0000
0000
0000
0000
0000
0000
0000
,
0300
0000
0000
0002
,
1003
0100
1000
0100
0010
0000
0000
0000
,
0001
0100
0001
0100
0010
0000
0000
0000
,
1001
0001
0010
1000
,
0010
0000
0000
0010
0000
0000
0010
0000
0000
0000
0001
0000
1000
0000
0000
0000
,
0000
1001
0001
0100
,
0010
1000
0010
1000
0001
0000
0010
0000
,
0100
0000
0000
1000
0000
0000
0100
0000
1000
0000
0000
0000
0000
0000
0000
0000
,
0001
0000
0000
0100
0000
0000
0001
0000
0100
0000
0000
0000
0010
0000
0000
0000
,
1000
0001
0100
0001
1000
0000
0000
0000
,
0001
1000
0100
1000
0001
0000
0000
0000
,
0110
1000
0001
0100
,
0010
0000
0000
0010
0000
0000
0010
0000
0000
0000
1000
0000
0001
0000
0000
0000
,
2000
3200
0302
0203
,
2300
3002
0023
0230
,
1300
0000
0000
1000
0000
0000
1000
0000
0001
0000
0000
0000
1001
0000
0000
0000
,
2000
0010
0000
0010
,
0001
0000
0001
0000
3001
0000
0000
1000
,
0002
0010
0000
0010
,
1000
1000
1003
0001
,
2002
3003
1000
0100
,
0020
0000
0030
0000
0001
0001
0100
0000
,
1001
0000
1000
0010
,
0010
1000
0100
0010
,
0001
0000
0000
0100
0020
0000
0030
0000
,
1000
0001
1000
0100
,
0001
0000
0000
0100
2000
0000
3000
0000
,
0100
0000
0000
0100
0000
0000
0020
0000
0000
0000
0000
0000
0000
0000
0000
0000
,
0030
0000
0000
0000
,
2002
0000
3003
0000
,
1000
0001
1000
0001
0100
0000
0010
0000
,
1000
0001
1000
0001
0100
0000
0010
0000
,
1000
0000
0001
0010
,
0100
0000
0000
0100
0000
0000
0100
0000
0000
0000
1000
0000
0001
0000
0000
0000
,
0000
1001
0001
0100
,
0010
1000
0010
1000
0001
0000
0010
0000
,
0100
0000
0000
1000
0000
0000
0100
0000
2000
0000
0000
0000
3000
0000
0000
0000
,
0001
0000
0000
0100
0000
0000
0001
0000
0200
0000
0000
0000
0310
0000
0000
0000
,
1000
0001
1000
0001
0010
0000
0100
0000
,
1000
0001
1000
0001
0010
0000
0100
0000
,
1000
0010
0100
0001
,
0010
0000
0000
0010
0000
0000
0010
0000
0000
0000
0000
0000
0001
0000
0000
0000
,
2000
3020
0032
0023
,
2030
3200
0320
0032
,
0103
0000
0000
0100
0000
0000
0100
0000
0020
0000
0000
0000
0030
0000
0000
0000
,
1000
0000
0000
1000
0000
0000
1000
0000
0002
0000
0000
0000
0003
0000
0000
0000
,
0010
0000
0000
0010
0000
0000
0010
0000
0200
0000
0000
0000
0300
0000
0000
0000
,
1000
0000
0000
0100
0000
0000
0001
0000
0000
0100
0000
0000
1000
0000
0000
0000
,
0001
0000
0000
0100
0000
0000
1000
0000
0000
0100
0000
0000
0001
0000
0000
0000
,
1000
0000
0000
0010
0000
0000
0001
0000
0000
0010
0000
0000
1000
0000
0000
0000
,
0001
0000
0000
0010
0000
0000
1000
0000
0000
0010
0000
0000
0001
0000
0000
0000
,
0000
0000
0000
0000
0100
0000
0000
0010
0000
0000
1000
0000
0000
0001
0000
0000
;

//--------------- dance-single - Princess Pamela ----------------
#NOTES:
     dance-single:
     Princess Pamela:
     Medium:
     14:
     0,0,0,0,0:
0000
0000
0000
0000
,
0000
0000
0000
0000
,
0000
0000
0000
0000
,
0000
0000
0000
0000
,
1000
0000
0000
1000
0000
0000
0001
0000
0000
0001
0000
0000
0100
0000
0020
0000
,
0000
0000
0000
0030
,
1001
0000
0000
0000
,
1000
0100
0001
0100
1000
0100
0010
0000
,
0011
0000
0000
0000
,
0001
0100
1000
0100
0001
0100
0010
0000
,
1000
0000
0010
0000
0100
0000
0010
0000
1000
0000
0000
0001
0000
0000
1000
0000
,
0020
0000
0130
0001
0010
0000
0100
0000
,
1001
0000
0000
1000
0000
0000
0001
0000
0100
0000
0000
0000
0010
0000
0000
0000
,
0110
0000
1000
0001
1000
0010
0100
0000
,
0001
0010
0100
1000
0100
0000
0010
0000
,
1001
0000
0000
0000
,
0001
0010
1000
0010
0001
0010
0100
0000
,
1100
0000
0000
0000
,
1000
0010
0001
0010
1000
0010
0100
0000
,
0001
0000
1000
0000
0001
0000
0010
0000
0100
0000
0000
1000
0000
0000
0100
0000
,
0020
0000
0031
1000
0010
0000
0100
0001
,
0010
0000
0000
0100
0000
0000
1000
0000
0010
0000
0000
0000
0100
0000
0000
0000
,
1001
0000
0001
0100
0010
0100
0001
0000
,
1000
0100
0010
0001
0200
0000
0310
0000
,
2002
3003
0000
0000
0220
0330
0000
0000
1000
0000
0000
0100
0000
0000
0010
0000
,
0001
0000
0000
0000
0100
0000
0000
0000
2002
3003
0000
0000
0220
0330
0000
0000
,
0001
0000
0000
0100
0000
0000
0010
0000
1000
0000
0000
0000
0100
0000
0000
0000
,
0110
0000
0010
0001
0100
0000
0010
1000
,
0001
0000
0000
0001
0000
0000
0010
0000
0000
0000
0100
0000
1000
0000
0000
0000
,
2001
0000
3000
0010
0200
0000
0300
0001
,
0010
0100
0010
0001
0000
0100
0010
0000
,
2010
0000
3100
0010
0002
0000
0103
0010
,
1000
0000
0000
0001
0000
0000
2002
0000
0000
0000
0000
0000
0000
0000
0000
0000
,
3003
0000
0000
0000
0000
0001
2000
0000
,
3001
0000
0100
0001
0100
0000
0010
0000
1000
0000
0100
0000
0010
0000
0000
0000
,
0001
0000
1000
0001
1000
0000
0010
0000
0100
0000
0001
0000
0010
0000
0100
0000
,
1000
0000
0010
1000
0010
0100
0001
0000
,
0101
0000
0000
0100
0000
0000
0010
0000
0000
0000
1000
0001
1000
0000
0100
0000
,
0000
0000
0110
0000
0010
0001
1000
0000
,
0010
0000
0100
0010
0100
0000
0001
0000
1000
0000
0100
0000
1000
0000
0001
0000
,
0100
0000
0000
0100
0000
0000
0010
0000
0200
0000
0000
0000
0301
0000
1000
0000
,
0100
0000
0000
0010
0000
0000
0001
0000
0010
0000
0000
0000
1001
0000
0000
0000
,
0001
0000
0100
0001
0100
0000
0010
0000
1000
0000
0001
0000
0010
0000
0000
0000
,
0100
0000
1000
0100
1000
0000
0010
0000
0100
0000
0001
0000
0100
0000
0010
0000
,
1000
0000
0001
0010
1000
0010
0001
0000
,
0011
0000
0000
0100
0000
0000
1001
0000
0000
0000
1000
0000
0001
0000
1000
0000
,
0020
0000
0000
0000
1030
0000
0010
0100
0010
0000
1000
0000
0001
0000
0010
0000
,
0100
0000
1000
0000
0010
0000
1000
0010
1000
0000
0001
0000
0100
0000
0010
0000
,
1000
0000
0000
0001
0000
0000
0010
0000
0100
0000
0000
0000
0110
0000
0000
0000
,
0100
1000
0100
1000
0100
0001
0100
0001
,
0100
1000
0000
1000
0010
0100
0000
0000
,
0001
0100
0001
0100
1000
0100
0001
0100
,
0010
0000
0000
1000
0000
0000
0001
0000
0000
0100
0000
0000
1001
0000
0000
0000
,
0022
0000
0000
0000
0000
0000
0000
0000
0033
0000
0000
0000
0000
0000
0000
0000
0001
0000
0000
0100
0000
0000
0010
0000
1000
0000
0000
0000
0001
0000
0000
0000
,
2002
0000
0000
0000
0000
0000
0000
0000
3003
0000
0000
0000
0000
0000
0000
0000
1000
0000
0000
0100
0000
0000
0010
0000
0001
0000
0000
0000
0100
0000
0000
0000
,
1002
0000
0003
0010
0200
0000
0300
1000
,
0010
0000
0000
0010
0000
0000
0100
0000
0000
0000
0001
0000
1000
0000
0001
0000
,
0020
0000
0130
1000
0200
0000
0310
0001
,
0100
0010
0100
1000
0000
0100
0001
0010
,
0200
0000
1300
0010
0200
0000
0301
0010
,
0011
0000
0000
0100
0000
0000
2002
0000
0000
0000
0000
0000
0000
0000
0000
0000
,
3003
0000
0000
0000
,
2002
0000
0000
3003
0000
1000
0002
0000
,
1003
0000
0010
0100
0010
0000
1000
0000
0100
0000
0010
0000
0001
0000
1000
0000
,
0010
0000
0100
0001
0100
0000
0010
0000
1000
0000
0100
0000
0001
0000
0100
0000
,
1000
0000
0001
1000
0001
0000
0100
0000
0010
0000
1000
0000
0100
0000
0000
0000
,
1100
0000
0000
0011
0000
0000
1001
0000
0000
0000
0001
1000
0001
0000
1000
0000
,
0010
0000
0101
0000
0100
0010
1000
0100
,
0010
0000
0001
1000
0001
0000
0100
0000
0010
0000
1000
0000
0100
0000
0010
0000
,
0001
0000
0000
1001
0000
0000
0100
0000
0220
0000
0000
0000
0330
0000
0000
0000
,
1001
0000
0000
1100
0000
0000
0001
0000
0010
0000
0010
0000
0010
0000
0000
0000
,
0001
0000
1000
0001
0100
0000
0010
0000
1000
0000
0010
0000
0100
0000
0000
0000
,
0001
0000
0010
0100
1000
0000
0001
0000
0100
0000
0010
0000
1000
0000
0100
0000
,
0001
0000
0000
0000
0100
0000
1000
0100
1000
0000
0010
0000
0000
0000
0100
0000
,
0101
0000
0000
0110
0000
0000
1001
0000
0000
0000
0001
1000
0001
0000
0010
0000
,
0200
0000
0000
0000
0301
0000
0100
0000
1000
0000
0100
0010
0100
0000
0010
0000
,
0001
0000
0000
1000
0000
0000
0020
0000
0000
0000
0130
0000
0001
0000
0100
0000
,
0110
0000
0000
1000
0000
0000
0100
0000
1100
0000
0000
0000
0011
0000
0000
0000
,
1001
0000
0000
0001
0000
0000
0100
0000
0220
0000
0000
0000
0330
0000
0000
0000
,
1000
0000
0001
1000
0001
0000
0100
0000
0010
0000
0000
0000
0110
0000
0000
0000
,
0001
0100
0000
0001
0100
0000
0010
1000
0000
0010
1000
0000
0001
0000
0000
0000
,
1000
0100
0000
1000
0100
0000
0010
0001
0000
0010
0001
0000
0100
0000
0000
0000
,
0001
1000
0000
0001
1000
0000
0001
0010
0000
0100
1000
0000
0010
0000
0000
0000
,
1000
0001
0000
1000
0001
0000
1000
0010
0000
0100
0001
0000
0020
0000
0000
0000
,
0030
0000
0000
0000
0100
1000
0000
1000
0100
0000
0010
0001
0000
1000
0001
0000
;

//--------------- dance-single - Princess Pamela ----------------
#NOTES:
     dance-single:
     Princess Pamela:
     Hard:
     17:
     0,0,0,0,0:
0000
0000
0000
0000
,
0000
0000
0000
0000
,
0000
0000
0000
0000
,
0000
0000
0000
0000
,
0011
0000
0000
0110
0000
0000
1100
0000
0000
1001
0000
0000
0100
0000
0020
0000
,
0000
0000
0000
0030
,
1001
0000
0000
0000
,
0001
0000
1000
0000
0001
0100
0001
0000
1000
0100
1000
0000
0010
0000
1000
0000
,
1001
0000
0000
0000
,
1000
0000
0001
0000
1000
0100
1000
0000
0001
0100
0001
0000
0010
0000
0001
0000
,
0000
0000
1000
0000
0010
0000
0100
0000
0002
0000
0000
0023
0000
0000
0230
0000
,
2300
0000
0000
3000
0010
1000
0010
1000
0010
0000
0100
0000
0001
0000
0010
0000
,
0110
0000
0000
0001
0000
0000
0100
0000
1000
0000
0000
0000
0110
0000
0000
0000
,
1001
0000
1000
0000
0010
0100
0010
0000
1000
0001
1000
0000
0100
0000
0010
0000
,
0001
0000
0100
0000
1000
0000
0100
0000
0001
0000
0100
0010
1000
0000
0000
0000
,
1001
0000
0000
0000
,
1000
0000
0001
0000
0100
0010
1000
0000
0001
0010
0001
0000
0100
0000
0001
0000
,
1001
0000
0000
0000
0000
0000
0000
0000
1000
0001
1000
0001
1000
0000
1000
0000
,
0001
0000
1000
0000
0001
0010
0100
0000
1000
0010
1000
0000
0001
0000
0100
0000
,
0110
0000
0001
0000
0100
0000
0010
0000
2000
0000
0000
3200
0000
0000
0320
0000
,
0032
0000
0000
0003
0100
0001
0100
0001
0100
0000
0010
0000
1000
0000
0100
0000
,
0110
0000
0000
1000
0000
0000
0010
0000
0001
0000
0000
0000
0110
0000
0000
0000
,
1001
0000
0001
0000
0100
0010
0100
0000
0001
1000
0001
0000
0010
0000
0100
0000
,
0001
0000
0100
1000
0100
0000
0010
0001
2000
0000
0000
0000
3010
0000
0000
0000
,
2002
3003
0000
0000
0220
0330
0000
0000
0001
0000
1000
0001
0000
0001
1000
0000
,
0010
0000
0100
0000
0001
0000
0010
0000
0220
0330
0000
0000
2002
3003
0000
0000
,
0001
0000
0100
0001
0000
0001
0100
0000
0010
0000
1000
0000
0100
0000
0010
0000
,
0001
0000
0100
0010
0100
0000
0001
0000
0010
0000
0001
1000
0001
0000
0100
0000
,
0010
0000
1000
0000
0100
0000
0001
0000
0100
0000
1000
0000
0010
0000
0100
0010
,
0200
0000
0000
0000
0301
0000
0100
0010
2000
0000
0000
0000
3100
0000
1000
0100
,
0010
0000
0001
0000
0100
0000
0010
0000
0100
0000
0001
0000
0010
0000
0100
1000
,
0100
0000
0010
0000
0001
0100
0001
0100
0010
0000
1000
0001
1000
0000
0000
0000
,
0011
0000
0000
0110
0000
0000
2200
0000
0000
0000
0000
0000
0000
0000
0000
0000
,
3300
0000
0000
0000
0000
0002
2003
3000
,
0010
0100
0010
0100
0001
0100
0010
1000
0001
0000
0010
0000
0100
0000
1000
0000
,
0010
0100
0010
0100
0001
1000
0100
0010
0001
0000
0100
0000
1000
0000
0100
0000
,
0001
0000
0000
0000
1000
0001
0010
0100
1000
0000
0010
0000
0100
0000
0001
0000
,
0011
0000
0000
1100
0000
0000
1001
0000
0000
0000
0100
0010
0100
0000
0110
0000
,
0000
0000
0001
0010
0100
0000
1000
0000
0010
0000
0100
0000
0001
0000
0100
0000
,
0010
1000
0010
1000
0010
0100
0001
1000
0010
0000
0100
0000
0001
0000
0010
0000
,
0011
0000
0000
0001
1000
0000
0010
0000
0100
0000
0001
1000
0001
0000
0100
0000
,
0110
0000
0000
1010
0000
0000
0101
0000
1000
0001
1000
0001
0020
0000
0000
0000
,
0130
1000
0100
1000
0100
0010
0001
1000
0010
0000
0100
0000
0001
0000
0010
0000
,
0001
1000
0001
1000
0010
0100
0001
1000
0100
0000
0001
0000
0100
0000
1000
0000
,
0010
0000
0000
0000
0100
0010
0100
0001
1000
0000
0100
0000
0001
0000
0100
0000
,
1100
0000
0000
0011
0000
0000
1001
0000
0000
0000
0100
0010
0100
0000
0010
0000
,
1001
0000
1000
0001
1000
0000
0010
0100
0010
0000
1000
0100
0000
0010
0001
0010
,
0001
0000
0100
0010
0100
0000
0001
0010
0100
0000
1000
0001
0000
1000
0010
0000
,
1010
0000
0000
0101
0000
0000
0100
0000
0010
0000
0000
0000
1001
0000
0000
0000
,
1000
0000
0100
0000
0001
0100
0001
0000
0100
0000
1000
0000
0100
0000
0010
0000
,
0001
0000
1000
0001
1000
0001
1000
0010
0100
0000
0001
0000
0000
0000
0001
1000
,
0001
0000
0100
0000
1000
0100
1000
0000
0100
0000
0001
0100
0010
0000
1000
0000
,
0100
1000
0000
0100
0010
0000
0001
0100
0000
0010
1000
0010
1000
0001
0100
0010
,
2000
0000
0000
0000
0000
0000
0000
0000
3200
0000
0000
0000
0000
0000
0000
0000
0310
0000
0000
0001
0000
0000
0010
0000
0011
0000
0000
0000
0001
0000
1000
0000
,
0002
0000
0000
0000
0000
0000
0000
0000
0203
0000
0000
0000
0000
0000
0000
0000
0310
0000
0000
1000
0000
0000
0010
0000
1010
0000
0000
0000
0001
0000
0000
0000
,
1002
0000
0000
0000
0003
0000
1000
0100
2000
0000
0000
0000
3000
0000
0001
0100
,
0001
0000
0000
0010
0000
0000
0010
0000
0000
0000
0100
0000
1000
0000
0010
0000
,
0100
0000
0001
0100
0001
0000
0010
0000
0001
0000
1000
0001
1000
0000
0010
0000
,
0100
0000
0001
1000
0001
0000
0010
0000
0100
0000
1000
0100
0010
0000
0001
0000
,
0101
0000
0100
0000
0010
0000
1000
0001
1000
0000
0001
0000
0010
0001
0010
0100
,
1000
0000
0000
1100
0000
0000
0022
0000
0000
0000
0000
0000
0000
0000
0000
0000
,
0033
0000
0000
0000
,
2002
0000
3003
0000
0000
2000
3002
0003
,
1000
0100
1000
0100
0010
0100
1000
0001
0100
0000
0010
1000
0010
0000
0100
0000
,
0001
0010
0001
0010
0100
1000
0001
1000
0010
0000
0100
0001
0100
0000
0010
0000
,
1001
0000
0000
0000
0001
1000
0010
0100
0001
0000
0010
0000
0100
0000
1000
0000
,
1010
0000
0000
0101
0000
0000
1001
0000
0000
0000
0010
0100
0010
0000
0110
0000
,
0000
0000
1000
0001
1000
0001
0100
0010
1000
0000
0100
0000
0001
0000
0100
0000
,
1000
0001
0010
0001
1000
0010
0100
0001
1000
0000
0010
0000
0001
0000
0010
0000
,
1010
0000
0000
0110
0000
0000
0101
0000
1000
0000
0001
1000
0001
0000
0010
0000
,
0110
0000
0000
1100
0000
0000
0011
0000
1000
0001
1000
0001
0200
0000
0000
0000
,
0310
1000
0001
1000
0100
0010
0001
1000
0001
0000
0100
0010
0100
0000
0001
0000
,
1000
0100
1000
0001
0100
0010
1000
0001
0100
0000
0001
0000
1000
0000
0100
0000
,
0110
0000
0000
0000
0001
0010
0100
1000
0100
0000
0010
0000
0001
0000
0100
0000
,
0010
1000
0001
0100
0010
1000
0001
0010
0100
0000
1000
0001
1000
0000
0010
0000
,
2001
0000
0000
0000
3010
0000
0100
0001
0100
0000
0010
1000
0000
0001
1000
0000
,
0100
0010
0001
0010
0001
0000
0100
0010
1000
0000
0010
0100
0001
0000
0010
0000
,
0011
0000
0000
1100
0000
0000
0010
0000
0110
0000
0000
0000
1001
0000
0000
0000
,
1010
0000
0000
0101
0000
0000
0010
0000
0110
0000
0000
0000
1001
0000
0000
0000
,
1000
0100
0010
0001
0100
0010
1000
0001
0010
0000
0000
0000
1001
0000
0000
0000
,
1000
0100
1000
0001
0100
0001
1000
0010
1000
0001
0010
0001
2000
0000
0000
0000
,
3001
0100
0001
1000
0100
1000
0001
0010
0001
1000
0010
1000
0002
0000
0000
0000
,
1003
0100
0010
0001
0100
0010
1000
0001
0010
0100
1000
0001
0200
0000
0000
0300
,
0001
0100
0010
1000
0100
0010
0001
1000
0010
0100
0001
1000
0200
0000
0000
0000
,
0300
0000
0000
0000
0010
0001
0000
0001
0100
0000
0100
0010
0000
1000
0001
0000
;

//--------------- dance-double - Princess Pamela ----------------
#NOTES:
     dance-double:
     Princess Pamela:
     Hard:
     16:
     0,0,0,0,0:
00000000
00000000
00000000
00000000
,
00000000
00000000
00000000
00000000
,
00000000
00000000
00000000
00000000
,
00000000
00000000
00000000
00000000
,
00001000
00000000
00000000
00010000
00000000
00000000
00100000
00000000
00000000
10000000
00000000
00000000
01000000
00000000
00200000
00000000
,
00000000
00000000
00000000
00300000
,
10010000
00000000
00000000
00000000
,
10000000
00000000
01000000
00000000
10000000
00010000
10000000
00000000
00010000
00000000
00100000
00000000
00001000
00000000
00010000
00000000
,
00011000
00000000
00000000
00000000
,
00000100
00000000
00010000
00000000
00001000
00010000
00001000
00000000
00010000
00000000
00000010
00000000
00001000
00000000
00000010
00000000
,
00000000
00000000
00000100
00000000
00000001
00000000
00000010
00000000
00000200
00000000
00000000
00002300
00000000
00000000
00003002
00000000
,
00000203
00000000
00000000
00000300
00000010
00001000
00000010
00001000
00000010
00000000
00000000
00000000
00010000
00000000
00001000
00000000
,
00011000
00000000
00000000
00100000
00000000
00000000
00001000
00000000
00010000
00000000
00000000
00000000
00000100
00000000
00000000
00000000
,
00011000
00000000
00000000
00000000
00100000
00010000
00100000
00000000
01000000
00000000
00100000
00010000
00100000
00000000
00001000
00000000
,
00010000
00000000
00001000
00000000
01000000
00000000
00010000
00000000
00100000
00000000
01000000
10000000
01000000
00000000
00000000
00000000
,
10010000
00000000
00000000
00000000
,
00010000
00000000
01000000
00000000
00010000
10000000
00010000
00000000
00100000
00000000
00001000
00000000
00010000
00000000
00001000
00000000
,
00011000
00000000
00000000
00000000
00000000
00000000
00000000
00000000
00001000
00010000
00001000
00010000
00001000
00000000
00010000
00000000
,
00000100
00000000
00001000
00000000
00000010
00001000
00000010
00000000
00000100
00000000
00000001
00000000
00000010
00000000
00000100
00000000
,
00000000
00000000
00001000
00000000
00000010
00000000
00010000
00000000
00002000
00000000
00000000
00023000
00000000
00000000
00030200
00000000
,
00002300
00000000
00000000
00003000
00000001
00000010
00000001
00000010
00000001
00000000
00000000
00000000
00000100
00000000
00000010
00000000
,
00001010
00000000
00000000
00010000
00000000
00000000
00001000
00000000
00010000
00000000
00000000
00000000
00010100
00000000
00000000
00000000
,
00010000
00000000
00001000
00000000
01000000
00010000
01000000
00000000
00100000
00000000
01000000
00010000
01000000
00000000
00001000
00000000
,
00010000
00000000
00000100
00001000
00000100
00000000
00001000
00000001
00002000
00000000
00000000
00000000
00003010
00000000
00000000
00000000
,
00000220
00000330
00000000
00000000
00002002
00003003
00000000
00000000
00000001
00000000
00000000
00000100
00000000
00000000
00001000
00000000
,
00010000
00000000
00000000
00000000
00100000
00000000
01000000
00000000
02200000
03300000
00000000
00000000
20020000
30030000
00000000
00000000
,
10000000
00000000
00000000
01000000
00000000
00000000
00010000
00000000
00001000
00000000
00000000
00000000
00000010
00000000
00000100
00000000
,
00000010
00000000
00000001
00000010
00000001
00000000
00000100
00000000
00000010
00000000
00001000
00000001
00001000
00000000
00000100
00000000
,
00000010
00000000
00000000
00000001
00000000
00000000
00000100
00000000
00000000
00000000
00001000
00000000
00010000
00000000
00001000
00010000
,
00002000
00000000
00000000
00000000
00103000
00000000
00010000
00100000
00020000
00000000
00000000
00000000
01030000
00000000
00100000
01000000
,
00100000
00000000
10000000
00000000
00100000
00000000
01000000
00000000
00010000
00000000
00100000
00000000
00001000
00000000
00010000
00001000
,
00020000
00000000
00000000
00000000
00030100
00001000
00000100
00001000
00000010
00000000
00001000
00000010
00001000
00000000
00000001
00000000
,
00000100
00000000
00000000
00001000
00000000
00000000
00022000
00000000
00000000
00000000
00000000
00000000
00000000
00000000
00000000
00000000
,
00033000
00000000
00000000
00000000
00000000
00020000
00032000
00003000
,
00100000
00010000
00100000
00010000
00100000
00000000
01000000
10000000
00010000
00000000
01000000
00000000
00100000
00000000
10000000
00000000
,
00010000
00100000
00010000
00100000
00010000
00000000
01000000
00001000
00010000
00000000
00000010
00000000
00001000
00000000
00000100
00000000
,
00000010
00000000
00000000
00000000
00000001
00000010
00000100
00001000
00000100
00000000
00010000
00000000
00001000
00000000
00010000
00000000
,
00000010
00000000
00000000
00001010
00000000
00000000
00000101
00000000
00000000
00000000
00000100
00000010
00000100
00000000
00000110
00000000
,
00000000
00000000
00000001
00001000
00000001
00000000
00000010
00000000
00000100
00000000
00001000
00000000
00000010
00000000
00010000
00000000
,
00001000
00010000
00001000
00010000
00001000
00000000
01000000
00010000
01000000
00000000
00100000
00000000
10000000
00000000
00010000
00000000
,
00100000
00000000
00000000
01000000
00000000
00000000
10000000
00000000
01000000
00000000
00100000
01000000
00100000
00000000
00001000
00000000
,
00010000
00000000
00000000
00011000
00000000
00000000
00000100
00000000
00001000
00000100
00001000
00000100
00000020
00000000
00000000
00000000
,
00000031
00001000
00000001
00001000
00000001
00000000
00000100
00000010
00001000
00000000
00000010
00000000
00010000
00000000
00001000
00000000
,
00100000
00010000
00100000
00010000
00100000
00000000
01000000
10000000
00010000
00000000
01000000
00000000
00100000
00000000
10000000
00000000
,
00100000
00000000
00000000
00000000
10000000
00010000
00100000
00010000
00100000
00000000
01000000
00000000
10000000
00000000
01000000
00000000
,
00010000
00000000
00000000
00001000
00000000
00000000
00011000
00000000
00000000
00000000
00010000
00001000
00010000
00000000
00001000
00000000
,
00000020
00000000
00000000
00000000
00000031
00000000
00000010
00000001
00000010
00000000
00000001
00000100
00000000
00000010
00000100
00000000
,
00000010
00000000
00001000
00000000
00000100
00000000
00010000
00000000
00001000
00000000
01000000
00010000
00000000
01000000
00100000
00000000
,
10000000
00000000
00000000
01000000
00000000
00000000
00010000
00000000
00001000
00000000
00000000
00000000
00011000
00000000
00000000
00000000
,
00000010
00001000
00000010
00000100
00000010
00000010
00010000
00001000
,
00010000
00000000
00001000
00010000
00001000
00010000
00001000
00000000
01000000
00000000
01000000
00000000
00000000
00000000
00010000
10000000
,
00010000
00100000
01000000
00100000
00010000
01000000
00001000
00001000
,
00010000
00001000
00000000
00010000
00000100
00000000
00001000
00000100
00000000
00001000
00000010
00001000
00000010
00000000
00000000
00000000
,
00002000
00000000
00000000
00000000
00000000
00000000
00000000
00000000
00003002
00000000
00000000
00000000
00000000
00000000
00000000
00000000
00000103
00000000
00000000
00000100
00000000
00000000
00001000
00000000
00010000
00000000
00000000
00000000
00001000
00000000
00100000
00000000
,
00020000
00000000
00000000
00000000
00000000
00000000
00000000
00000000
02030000
00000000
00000000
00000000
00000000
00000000
00000000
00000000
03100000
00000000
00000000
00100000
00000000
00000000
10000000
00000000
01000000
00000000
00000000
00000000
00100000
00000000
00000000
00000000
,
10010000
00000000
00000000
00000000
10000000
00000000
01000000
10000000
01000000
00000000
00000000
00000000
00100000
00000000
00010000
00100000
,
00010000
00000000
00000000
00010000
00000000
00000000
01000000
00000000
00000000
00000000
00001000
00000000
00010000
00000000
00001000
00000000
,
00020000
00000000
00000000
00000000
00030010
00000000
00001000
00000000
00000100
00000000
00001000
00000100
00001000
00000000
00000001
00000000
,
00000010
00000000
00001000
00000000
00000010
00000000
00000001
00000000
00000000
00000000
00000100
00000001
00000100
00000000
00000010
00000000
,
00010000
00000000
00001000
00000000
00010000
00000000
00000100
00001000
00000100
00000000
00010000
00000000
00001000
00010000
00001000
00010000
,
00001000
00000000
00000000
00100000
00000000
00000000
00220000
00000000
00000000
00000000
00000000
00000000
00000000
00000000
00000000
00000000
,
00330000
00000000
00000000
00000000
,
20020000
00000000
00000000
30030000
00000000
20000000
30020000
00030000
,
01000000
00010000
01000000
00010000
01000000
00000000
00010000
00100000
01000000
00000000
10000000
00000000
01000000
00000000
00100000
00000000
,
00001000
00010000
00001000
00010000
00001000
00000000
00010000
00000100
00001000
00000000
00000010
00000000
00000100
00000000
00000001
00000000
,
00000010
00000000
00000000
00000000
00000100
00001000
00000100
00000010
00000001
00000000
00000100
00000000
00000010
00000000
00000100
00000000
,
00001000
00000000
00000000
00010000
00000000
00000000
00011000
00000000
00000000
00000000
00100000
00010000
00100000
00000000
00001000
00000000
,
00000000
00000000
01000000
00010000
01000000
00010000
10000000
00000000
00100000
00000000
01000000
00000000
00010000
00000000
01000000
00000000
,
00001000
00010000
00001000
00010000
00001000
00000000
00010000
00000100
00001000
00000000
00000010
00000000
00000100
00000000
00000001
00000000
,
00000010
00000000
00000000
00001000
00000000
00000000
00010000
00000000
00001000
00000000
00010000
00001000
00010000
00000000
00000100
00000000
,
00010000
00000000
00001000
00000000
01000000
00000000
00010000
00000000
10000000
00100000
10000000
00100000
02000000
00000000
00000000
00000000
,
03010000
10000000
00010000
10000000
01000000
10000000
01000000
10000000
00010000
00000000
00100000
00000000
00001000
00000000
00010000
00000000
,
00000010
00001000
00000010
00001000
00000010
00000100
00000010
00000100
00000001
00000000
00001000
00000000
00000100
00000000
00000010
00000000
,
00000001
00000000
00000000
00000000
00001000
00000010
00000100
00000001
00000100
00000000
00000010
00000000
00010000
00000000
00001000
00000000
,
00010000
00001000
00000000
01000000
00010000
00000000
01000000
00100000
00000000
10000000
00010000
10000000
00010000
00000000
00100000
00000000
,
01000000
00000000
00000000
00000000
00100000
00000000
00010000
00100000
00010000
00000000
01000000
00000000
00001000
00000000
00010000
00000000
,
00000010
00000000
00001000
00000010
00001000
00000000
00000001
00000000
00000010
00000000
00000100
00000000
00001000
00000000
00000010
00000000
,
00000100
00000000
00000000
00000001
00000000
00000000
00000100
00000000
00001000
00000000
00000000
00000000
00011000
00000000
00000000
00000000
,
00010000
00000000
00000000
00100000
00000000
00000000
10000000
00000000
01000000
00000000
00000000
00000000
01100000
00000000
00000000
00000000
,
10000000
01000000
10000000
01000000
00100000
00010000
00100000
00010000
01000000
00000000
00000000
00000000
10010000
00000000
00000000
00000000
,
00010000
01000000
00000000
00010000
01000000
00000000
00001000
00010000
00000000
00000100
00001000
00000100
00002000
00000000
00000000
00000000
,
00003100
00000010
00000000
00000001
00000010
00000000
00000100
00001000
00000000
00000001
00000100
00000010
00000200
00000000
00000000
00000000
,
00000310
00001000
00000000
00000010
00010000
00000000
00001000
00010000
00000000
00001000
00100000
00010000
00200000
00000000
00000000
00000000
,
01300000
10000000
00000000
00100000
01000000
00000000
00010000
00100000
00000000
00001000
00010000
00001000
02000000
00000000
00000000
00000000
,
03000000
00000000
00000000
00000000
00100000
10000000
00000000
00010000
01000000
00000000
00001000
00010000
00000000
00001000
00100000
00000000
;
