#TITLE:BABE I LOVE YOUR WAY;
#SUBTITLE:;
#ARTIST:WILDSIDE;
#TITLETRANSLIT:;
#SUBTITLETRANSLIT:;
#ARTISTTRANSLIT:;
#CREDIT:;
#BANNER:Babe I Love Your Way.png;
#BACKGROUND:Babe I Love Your Way-bg.png;
#LYRICSPATH:;
#CDTITLE:;
#MUSIC:BABE I LOVE YOUR WAY.ogg;
#OFFSET:0.846;
#SAMPLESTART:53.842;
#SAMPLELENGTH:12.000;
#SELECTABLE:YES;
#BPMS:0.000=136.030,196.000=135.900;
#STOPS:;
#BGCHANGES:;

//---------------dance-single - ----------------
#NOTES:
     dance-single:
     :
     Hard:
     12:
     0.585,0.532,0.316,0.071,0.255:
0000
0000
0000
0000
,
0000
0000
0000
0000
,
0000
0000
0000
0000
,
0000
1000
0001
0000
0100
0000
0000
0010
0000
0100
0001
0000
1000
0000
0010
0000
,
0000
1000
0001
0000
0100
0000
0000
0010
0000
0100
0001
0000
0001
0000
0010
0000
,
0000
0100
0010
0000
0001
0000
0000
0100
0000
0010
1000
0000
0001
0000
1000
0000
,
0000
0100
0010
0000
0001
0000
0000
0100
0000
0010
1000
0000
1000
0000
0001
0000
,
0000
1000
0100
0000
0010
0000
0001
0100
0000
0100
0001
0000
0100
0000
0010
0000
,
0000
1000
0100
0000
0010
0000
0001
1000
0000
1000
0001
0000
0100
0000
0010
0000
,
0000
0001
0010
0000
1000
0000
0001
0010
0000
0010
0001
0000
0100
0000
0010
0000
,
1000
0001
0010
0000
0100
0000
1000
0010
0000
1000
0001
0000
0001
0000
0010
0000
,
0100
1000
0100
0000
0010
0001
0010
0001
,
1000
0000
0010
0100
0001
0000
0001
0010
,
0100
0000
1000
0000
0010
0000
0100
0101
,
0001
0000
0011
0000
0010
0100
1000
0001
,
0101
0000
1000
0000
0100
0000
0010
1001
,
0001
0000
0100
0000
0010
0000
1000
0001
,
0010
0000
0010
0100
1000
0000
1000
0100
,
0201
0000
0000
0000
0310
0000
0000
0000
0011
0000
0000
0001
0100
0000
0010
0000
,
0100
0001
0101
0000
1000
0100
1100
0100
,
0010
0000
0011
0000
1000
0000
1010
0010
,
0100
0000
0101
0001
1000
0000
1000
0100
,
0110
0000
0011
0000
0001
0100
0010
0100
,
1000
0000
1100
0100
0001
1000
1001
1000
,
0100
0010
0011
0001
0100
0010
0110
0000
,
1010
1100
2001
3100
,
0011
0000
0100
0000
1010
0000
0100
0010
,
2001
0000
3100
0000
0010
0001
0100
0001
,
0010
0000
1100
0000
0010
1000
0100
0000
,
0110
0000
0010
0001
0100
0010
0100
0001
,
1000
1000
0100
0100
0001
0001
0100
1000
,
2001
0010
0001
0010
,
3001
0001
0010
0100
0000
0100
1000
0010
,
0000
0010
0001
0010
0100
0010
1000
0001
,
0000
0010
1000
0010
0100
0010
0001
0010
,
0210
0000
0001
0000
0010
0000
0001
0301
,
0100
0100
1000
0010
0000
0010
0100
1000
,
0000
1000
0100
0010
0100
0001
0100
1000
,
0000
1000
0100
0010
0100
0001
0100
0010
,
2010
0000
0001
0000
0100
0000
0001
0001
,
3100
0100
1000
0010
0000
0010
0100
0001
,
0000
0001
0010
1000
0001
1000
0010
0100
,
0000
1000
0010
0001
1000
0001
0010
0100
,
0102
1000
0010
1000
,
0013
0010
0100
0001
0000
0001
1000
0010
,
0000
0010
0100
0010
1000
0010
0001
0100
,
0000
0000
0101
0000
0001
0000
1001
0000
0000
0000
1000
0100
0010
0000
0010
0000
,
0000
0001
0010
0000
0100
0000
1000
0100
0000
1000
0100
0000
0010
0000
0001
0000
,
0000
0001
0010
0000
0100
0000
1000
0010
0000
1000
0010
0000
0100
0000
1000
0000
,
0000
1000
0100
0000
0010
0000
1000
0001
0000
1000
0001
0000
0010
0000
0100
0000
,
0000
1000
0100
0000
0010
0000
0100
0001
0000
0100
0001
0000
0100
0000
0010
0000
,
0001
1000
0001
0000
0100
0000
0000
0010
0000
1000
0001
0000
0010
0000
0001
0000
,
1000
0001
1000
0000
0010
0000
0000
0100
0000
0001
1000
0000
0100
0000
0010
0000
,
0001
0100
0001
0000
0010
0000
0000
0100
0000
1000
0010
0000
0100
0000
0001
0000
,
1000
0100
1000
0000
0010
0000
0100
0001
0000
1000
0100
0000
0010
0000
0001
0000
;

//---------------dance-double - ----------------
#NOTES:
     dance-double:
     :
     Hard:
     12:
     0.519,0.504,0.051,0.041,0.102:
00000000
00000000
00000000
00000000
,
00000000
00000000
00000000
00000000
,
00000000
00000000
00000000
00000000
,
10000000
01000000
00010000
00000000
00001000
00000100
00001000
00010000
,
00001000
00000010
00000001
00000000
00000001
00000010
00001000
00000010
,
00000100
00010000
00001000
00000000
00010000
00100000
00010000
00001000
,
00010000
01000000
10000000
00000000
10000000
00100000
00010000
00001000
,
00000010
00000000
00000001
00000000
00000100
00000000
00000000
00001000
00000000
00000000
00010000
00000000
00001000
00000000
00100000
00000000
,
00010000
00000000
01000000
00000000
10000000
00000000
00000000
00010000
00000000
00000000
00100000
00000000
01000000
00000000
00001000
00000000
,
00010000
00000000
00000100
00000000
00000010
00000000
00000000
00001000
00000000
00000000
00000010
00000000
00000001
00000000
00000100
00000000
,
00001000
00010000
00001000
00000000
00100000
00000000
00010000
10000000
00000000
01000000
00100000
00000000
00010000
00000000
10000000
00000000
,
00100000
01000000
00010000
00000000
00100000
00001000
00010000
00000100
,
00000010
00000000
00000001
00000100
00000010
00000000
00000010
00010000
,
00001000
00100000
00010000
00000000
10000000
00000000
00100000
00010000
,
00001000
00000000
00000010
00000000
00000001
00000100
00000010
00000100
,
00000001
00000000
00000010
00000000
00000100
00000000
00010000
00001000
,
00000000
00000000
00100000
00000000
00010000
10000000
00100000
01000000
,
00100000
00000000
00100000
10000000
01000000
00000000
00100000
00000000
,
00001000
00000000
00000000
00000000
00010000
00000000
00000000
00000000
00000010
00000000
00000000
00001000
00000001
00000000
00000100
00000000
,
00001000
00010000
01000000
00000000
00010000
00001000
00000100
00000000
,
00001000
00010000
01000000
00010000
00001000
00000010
00000001
00000100
,
00000001
00000000
00000010
00001000
00010000
00000000
00100000
00010000
,
00001000
00000000
00000010
00001000
00010000
01000000
10000000
00000000
,
00100000
10000000
01000000
00010000
00001000
00000100
00000001
00000010
,
00000001
00000100
00001000
00010000
01000000
10000000
00100000
01000000
,
00010000
00001000
00000001
00000010
,
00000100
00010000
00001000
00000000
00100000
00010000
10000000
00000000
,
10100000
00100000
00010000
00000000
00001000
00000010
00000001
00000100
,
00001000
00000000
00010000
00000000
01000000
00100000
00010000
10000000
,
00100000
00000000
00010000
00001000
00000010
00000010
00000001
00000100
,
00001000
00000100
00000001
00000100
00001000
00010000
01000000
10000000
,
10200000
00010000
10000000
00010000
,
10300000
10000000
01000000
00010000
00000000
00010000
00001000
00000100
,
00000000
00000001
00000010
00000100
00001000
00000100
00000001
00000100
,
00000000
00000010
00000001
00000100
00001000
00010000
00001000
00000010
,
00000021
00000000
00001000
00000000
00000001
00000000
00001000
00001030
,
00000010
00000010
00000001
00000100
00000000
00000100
00001000
00010000
,
00000000
00010000
01000000
10000000
00100000
01000000
00010000
10000000
,
00000000
00010000
10000000
00100000
00010000
10000000
01000000
00010000
,
00002000
00000000
00000100
00000000
00000001
00000000
00000010
00000010
,
00013000
00010000
00100000
01000000
00000000
01000000
10000000
00100000
,
00000000
00100000
00010000
00100000
10000000
01000000
00010000
01000000
,
00000000
00100000
00001000
00010000
00000010
00000100
00000001
00001000
,
00020000
00100000
10000000
01000000
,
00031000
00001000
00000010
00000100
00000000
00000100
00000001
00000010
,
00000000
00000010
00001000
00000010
00000001
00000100
00000010
00001000
,
00000000
00000000
00001010
00000000
00000000
00000000
00011000
00000000
00000000
00000000
00000000
00100000
00010000
00000000
10000000
00000000
,
00100000
01000000
00010000
00000000
00010000
00100000
00001000
00000010
,
00000100
00001000
00000001
00000000
00000001
00000100
00001000
00100000
,
00010000
01000000
00100000
00000000
00100000
10000000
01000000
00100000
,
00001000
00010000
00000010
00000000
00000100
00000001
00000010
00001000
,
00000000
00010000
01000000
00000000
10000000
00000000
00000000
00100000
00000000
01000000
00010000
00000000
00100000
00000000
00001000
00000000
,
00000000
00001000
00000010
00000000
00000001
00000000
00000000
00000100
00000000
00000010
00000100
00000000
00001000
00000000
00010000
00000000
,
00000000
00010000
01000000
00000000
10000000
00000000
00000000
00100000
00000000
01000000
00010000
00000000
00100000
00000000
00001000
00000000
,
00010000
00001000
00010000
00000000
00000100
00000000
00000010
00000001
00000000
00001000
00000010
00000000
00000100
00000000
00001000
00000000
;

//---------------dance-single - ----------------
#NOTES:
     dance-single:
     :
     Medium:
     9:
     0.465,0.448,0.173,0.214,0.082: // measure 1
0000
0000
0000
0000
,  // measure 2
0000
0000
0000
0000
,  // measure 3
0000
0000
0000
0000
,  // measure 4
1000
0001
0100
0000
0010
0000
0100
0000
,  // measure 5
0001
1000
0100
0000
0001
0100
1000
0000
,  // measure 6
0010
0001
1000
0000
0100
0000
0010
0000
,  // measure 7
1000
0001
0100
0000
0001
0010
0100
0000
,  // measure 8
1000
0010
0100
0000
0100
0010
0100
0010
,  // measure 9
1000
0001
0010
0000
0010
0100
1000
0001
,  // measure 10
0100
0010
1000
0000
1000
0001
1000
0001
,  // measure 11
0010
0100
1000
0000
0001
0010
0100
0001
,  // measure 12
0100
1000
0010
0100
,  // measure 13
0101
0001
0010
0100
,  // measure 14
2001
0010
0001
3010
,  // measure 15
1010
0000
1100
0000
0010
0000
0001
0001
,  // measure 16
0100
0010
1000
0100
,  // measure 17
0110
0100
1000
0010
,  // measure 18
0100
1000
0010
0001
,  // measure 19
0100
0000
0010
0000
,  // measure 20
1010
1000
0100
0000
0010
0000
0001
0001
,  // measure 21
0100
0010
0100
1000
,  // measure 22
0100
0001
0010
0100
,  // measure 23
1100
0000
1001
0000
0001
0100
0001
0100
,  // measure 24
0010
0000
0010
1000
0100
0000
1000
0100
,  // measure 25
0001
0000
0100
0001
0010
0000
0001
0010
,  // measure 26
1000
0100
0010
0100
,  // measure 27
1100
0000
0000
0000
0101
0000
0000
0001
,  // measure 28
2001
0000
0100
0000
3001
0100
0001
1000
,  // measure 29
0200
0000
0010
0000
1300
0001
0001
0100
,  // measure 30
0020
0000
1000
0000
0130
0001
0001
1000
,  // measure 31
0100
0000
0000
0100
0001
0000
0000
0001
0100
0000
0000
0100
1000
0000
0000
0000
,  // measure 32
2000
0000
0010
0000
0000
0010
0000
0000
0001
0000
0000
0001
0000
0000
3100
0000
,  // measure 33
1000
1000
0001
0200
0000
0301
1000
0100
,  // measure 34
0000
0100
0010
0100
2000
0000
3001
0000
,  // measure 35
0000
0100
0010
0100
0002
0000
1003
0000
,  // measure 36
0002
0000
0010
0000
0000
0010
0000
0000
1000
0000
0000
1000
0000
0000
0103
0000
,  // measure 37
0001
0001
1000
0200
0000
1300
0001
0100
,  // measure 38
0000
0100
0010
0100
0002
0000
1003
0000
,  // measure 39
0000
0100
0010
0100
2000
0000
3001
0000
,  // measure 40
0010
0000
0011
0000
0000
1000
0000
0000
1100
0000
0000
0001
0000
0000
1001
0000
,  // measure 41
0001
0010
0100
2000
0000
3010
0100
0001
,  // measure 42
0000
0001
0010
0001
2000
0000
3010
0000
,  // measure 43
0000
1000
0010
1000
0002
0000
0013
0000
,  // measure 44
0100
0000
1100
0000
0000
0001
0000
0000
0011
0000
0000
1000
0000
0000
1010
0000
,  // measure 45
1000
0010
0100
0002
0000
0013
0100
1000
,  // measure 46
0000
1000
0010
1000
0200
0000
0310
0000
,  // measure 47
0000
0001
0010
0001
0200
0000
0310
0000
,  // measure 48
1000
0001
0010
0000
0100
0000
1000
0000
,  // measure 49
0001
1000
0010
0000
0010
0100
1000
0000
,  // measure 50
0100
0001
1000
0000
0100
0000
0010
0000
,  // measure 51
0001
1000
0100
0000
0100
0001
1000
0000
,  // measure 52
0000
0000
0010
0000
0001
0000
0000
0100
0000
0000
0001
0000
2000
0000
3000
0000
,  // measure 53
0000
0000
0010
0000
1000
0000
0000
0100
0000
0000
1000
0000
0002
0000
0003
0000
,  // measure 54
0000
0000
0100
0000
0010
0000
0000
0001
0000
0000
0010
0000
2000
0000
3000
0000
,  // measure 55
0000
0000
0001
0000
0010
0000
0000
0100
0000
0010
0100
0000
1000
0000
0001
0000
;

//---------------dance-single - ----------------
#NOTES:
     dance-single:
     :
     Easy:
     5:
     0.249,0.252,0.133,0.153,0.000:
0000
0000
0000
0000
,
0000
0000
0000
0000
,
0000
0000
0000
0000
,
1000
0100
0010
0000
,
0010
0100
1000
0000
,
0001
0100
0010
0000
,
0010
0100
0001
0000
,
0011
0010
0100
0000
,
0100
0010
0001
0000
,
1000
0010
0100
0000
,
0100
0010
1000
0001
,
0100
0000
0000
0010
,
0010
0000
1000
0000
,
0001
0000
0000
0000
,
0011
0000
0100
0000
,
1001
0000
0000
0000
,
1000
0000
0000
0000
,
0010
0010
0100
0000
,
0001
0000
1000
0000
,
0011
0010
0100
0000
,
0100
0100
1000
0010
,
0001
0000
0010
0000
,
0100
0100
0001
1000
,
0100
0000
0001
0000
,
0100
0000
1000
0000
,
0001
0001
0100
0010
,
1010
0000
1001
0000
,
0011
0000
0000
0010
,
0100
0000
0000
1000
,
0001
0000
0100
0010
,
0100
0001
0010
0100
,
2200
0000
0000
3300
,
0001
0100
0010
0100
,
1000
0100
0002
0003
,
1000
0100
0002
0003
,
0202
0000
0000
0303
,
0100
1000
0001
0100
,
0010
0100
2000
3000
,
0100
0001
2000
3000
,
2020
0000
0000
3030
,
0001
0010
0100
0010
,
1000
0010
0002
0003
,
0100
0010
0002
0003
,
0022
0000
0000
0033
,
0010
1000
0001
0010
,
0100
0010
2000
3000
,
0000
0110
0000
1001
0000
0000
0001
0000
,
1000
0010
0100
0000
,
0100
0010
1000
0000
,
0001
0010
0100
0000
,
0100
0010
0001
0000
,
1000
0010
1000
0000
,
0010
0001
0010
0000
,
0001
0100
0001
0000
,
0100
0000
1000
0000
0100
0000
0010
0001
;

//---------------dance-double - ----------------
#NOTES:
     dance-double:
     :
     Medium:
     9:
     0.434,0.420,0.133,0.112,0.066:
00000000
00000000
00000000
00000000
,
00000000
00000000
00000000
00000000
,
00000000
00000000
00000000
00000000
,
10000000
00000000
01000000
00000000
00100000
00000000
01000000
10000000
,
01000000
00000000
00010000
00000000
00001000
00000000
00000010
00000001
,
00000100
00000000
00001000
00000000
00010000
00000000
00001000
00000100
,
00001000
00000000
00010000
00000000
01000000
00000000
10000000
00100000
,
00010000
00000000
00100000
00000000
10000000
00000000
01000000
10000000
,
01000000
00000000
00010000
00000000
00001000
00000000
00000010
00000001
,
00000100
00000000
00001000
00000000
00010000
00000000
01000000
10000000
,
01000000
00000000
00010000
00000000
00001000
00000000
00000100
00000001
,
00000010
00000000
00000100
00010000
00001000
00010000
00000100
00000000
,
00000010
00000001
00000100
00001000
,
00010000
00000000
01000000
00000000
10000000
00000000
00010000
01000000
,
00000000
00000000
00100000
00000000
10000000
00010000
10000000
01000000
,
00100000
00000000
00001000
00000000
00010000
00000000
00000010
00000100
,
00000000
00000001
00000010
00001000
,
00011000
00100000
10010000
10000000
,
10100000
00000000
00011000
00000000
,
00001001
00000001
00000010
00000000
00000100
00000000
00010000
00001000
,
00011000
01000000
10010000
00100000
,
10010000
10000000
00100000
01000000
,
00011000
00000000
00000110
00000000
00000001
00000100
00000001
00000010
,
00000001
00000000
00000010
00001000
00010000
00000000
00001000
00010000
,
00100000
00000000
00010000
00100000
10000000
01000000
00100000
00010000
,
10000000
00100000
01000000
00001000
,
00010000
00000000
00000100
00000000
00000010
00000000
00000001
00000100
,
00000101
00000000
00000000
00000000
00000000
00000100
00001000
00010000
,
01000000
10000000
00000000
00000000
00000000
00000000
10000000
00100000
,
01000000
00000000
01000000
00001000
00010000
00000100
00000010
00000001
,
00000100
00000001
00001000
00000000
00010000
00000000
10000000
00000000
,
20000000
00000000
00100000
00000000
00000000
00100000
00000000
00000000
00010000
00000000
00000000
00010000
00000000
00000000
31000000
00000000
,
10000000
00100000
00010000
00001000
00000000
00001000
00000010
00000100
,
00000000
00000100
00001000
00000001
00000200
00000000
00001300
00000000
,
00000000
00000100
00000001
00000010
00000200
00001000
00001300
00000000
,
00000002
00000000
00000010
00000000
00000000
00000010
00000000
00000000
00001000
00000000
00000000
00001000
00000000
00000000
00000103
00000000
,
00000100
00000001
00000010
00001000
00000000
00001000
00010000
01000000
,
00000000
01000000
10000000
00100000
02000000
00000000
03010000
00000000
,
00000000
00010000
00100000
01000000
20000000
00000000
30100000
00000000
,
00020000
00000000
00001000
00000000
00000000
00001000
00000000
00000000
00100000
00000000
00000000
00100000
00000000
00000000
00031000
00000000
,
00010000
00010000
00001000
00000010
00000000
00000010
00000001
00000100
,
00000000
00000100
00001000
00010000
02000000
00000000
13000000
00000000
,
00000000
10000000
00100000
00010000
00002000
00000000
00003010
00000000
,
00002000
00000000
00010000
00000000
00000000
00010000
00000000
00000000
00000100
00000000
00000000
00000100
00000000
00000000
00013000
00000000
,
00001000
00001000
00000100
00000001
00000000
00000010
00001000
00010000
,
00000000
00010000
01000000
00100000
00020000
00000000
10030000
00000000
,
00000000
00000000
10100000
00000000
00000000
00000000
01010000
00000000
00000000
00000000
00000000
00001000
00010000
00000000
00001000
00000000
,
00000010
00000000
00000001
00000000
00000100
00001000
00000100
00000010
,
00000100
00000000
00001000
00000000
00010000
01000000
00100000
01000000
,
00010000
00000000
00001000
00000000
00000100
00000001
00000010
00000100
,
00010000
00000000
00001000
00000000
01000000
00100000
10000000
01000000
,
00100000
00000000
00000000
00000000
00001000
00000000
00000000
00010000
00000000
00000000
00000100
00000000
00001000
00000000
00000000
00000000
,
00000001
00000000
00000000
00000000
00000100
00000000
00000000
00000010
00000000
00000000
00010000
00000000
00001000
00000000
00000000
00000000
,
00100000
00000000
00000000
00000000
00010000
00000000
00000000
01000000
00000000
00000000
00100000
00000000
10000000
00000000
00000000
00000000
,
01000000
00000000
00000000
00010000
00000000
00000000
00001000
00000000
00000000
00000000
00000100
00000000
00000001
00000000
00000010
00000000
;

//---------------dance-double - ----------------
#NOTES:
     dance-double:
     :
     Easy:
     4:
     0.203,0.196,0.051,0.143,0.000:
00000000
00000000
00000000
00000000
,
00000000
00000000
00000000
00000000
,
00000000
00000000
00000000
00000000
,
10000000
00000000
01000000
00000000
,
10000000
00000000
00100000
00000000
,
00010000
00000000
00001000
00000000
,
00010000
00000000
00000100
00000000
,
00000010
00000000
00000001
00000100
,
00000001
00000000
00000100
00001000
,
00010000
00000000
01000000
00010000
,
01000000
00000000
01000000
10000000
,
00100000
00000000
00000000
00100000
,
01000000
00000000
00001000
00010000
,
00000020
00000030
00000000
00000000
,
00000200
00000300
00000000
00000001
,
00001000
00000000
00000000
00000000
,
00001000
00000000
00000000
00000000
,
00000100
00000010
00000100
00000000
,
00010000
00000000
00001000
00000000
,
01000000
00010000
00000000
10000000
,
01000000
01000000
00010000
00010000
,
00002000
00003000
00000000
00000000
,
00000200
00000300
00000000
00000100
,
00000001
00000000
00000010
00000000
,
00001000
00000000
00010000
00000000
,
01000000
10000000
00020000
00030000
,
01000000
00000000
00100000
00000000
,
10010000
00000000
00000000
10000000
,
01000000
00000000
00000000
00010000
,
00001000
00000000
00000100
00000001
,
00002000
00000000
00003000
00000000
,
00002002
00000000
00000000
00003003
,
00000001
00000100
00001000
00010000
,
00001000
00000000
00001000
00000000
,
00010000
00000000
00010000
00000000
,
20020000
00000000
00000000
30030000
,
10000000
01000000
00010000
00001000
,
00010000
00000000
00010000
00000000
,
00001000
00000000
00001000
00000000
,
00002002
00000000
00000000
00003003
,
00000001
00000010
00001000
00010000
,
00001000
00000000
00001000
00000000
,
00010000
00000000
00010000
00000000
,
20020000
00000000
00000000
30030000
,
10000000
00100000
00010000
00001000
,
00010000
00000000
00010000
00000000
,
00001000
00000000
00001000
00000000
,
00010000
00000000
01000000
10000000
,
01000000
00000000
10000000
00100000
,
00010000
00000000
00001000
00000010
,
00001000
00000000
00000010
00000001
,
00000100
00000000
00001000
00000000
,
00010000
00000000
01000000
00000000
,
10000000
00000000
00100000
00000000
,
00010000
00000000
00000000
00000000
00001000
00000000
00001000
00010000
;

//---------------dance-single - ----------------
#NOTES:
     dance-single:
     :
     Beginner:
     2:
     0.141,0.251,0.071,0.112,0.000:
0000
0000
0000
0000
,
0000
0000
0000
0000
,
0000
0000
0000
0000
,
1000
0000
0000
0000
,
0100
0000
0000
0000
,
0010
0000
0000
0000
,
0001
0000
0000
0000
,
0001
0000
0000
0000
,
0100
0000
0000
0000
,
0010
0000
0000
0000
,
1000
0000
0000
0000
,
0001
0000
0000
1000
,
1000
0000
0100
0000
,
0020
0030
0000
0000
,
0000
0000
0000
0000
,
0001
0000
0000
0000
,
0001
0000
0000
0000
,
0100
0000
0010
0000
,
1000
0000
0001
0000
,
1000
0000
1000
0000
,
0100
0100
0100
0000
,
0010
0000
0000
0000
,
0001
0000
0001
0000
,
0100
0000
0010
0000
,
1000
0000
0010
0000
,
0100
0100
0100
0000
,
0001
0000
1000
0000
,
1001
0000
0000
1000
,
1000
0000
0000
0100
,
0100
0000
0010
0000
,
0001
0000
0000
0000
,
2002
0000
0000
3003
,
0001
0000
0100
0000
,
0010
0000
0000
0000
,
0000
1000
2000
3000
,
2002
0000
0000
3003
,
1000
0000
0100
0000
,
0010
0000
0000
0001
,
0001
0000
0000
0000
,
2002
0000
0000
3003
,
0001
0000
0100
0000
,
0010
0000
0000
0000
,
1000
1000
2000
3000
,
2002
0000
0000
3003
,
1000
0000
0100
0000
,
0010
0000
0000
0000
,
0001
0001
0001
0000
,
0101
0000
0000
0000
,
0100
0000
0000
0000
,
0010
0000
0000
0000
,
1000
0000
0000
0000
,
0100
0000
0000
0000
,
0010
0000
0000
0000
,
0001
0000
0000
0000
,
0100
0000
0010
0110
;
