#VERSION:0.83;
#TITLE:Awakening;
#SUBTITLE:;
#ARTIST:technoplanet;
#TITLETRANSLIT:;
#SUBTITLETRANSLIT:;
#ARTISTTRANSLIT:;
#GENRE:;
#ORIGIN:SOUND VOLTEX IV HEAVENLY HAVEN;
#TAGS:;
#CREDIT:;
#BANNER:Awakening.png;
#BACKGROUND:Awakening-bg.png;
#PREVIEWVID:;
#JACKET:Awakening-jacket.png;
#CDIMAGE:;
#DISCIMAGE:;
#LYRICSPATH:;
#CDTITLE:cdtitle.png;
#MUSIC:Awakening.ogg;
#OFFSET:-0.813000;
#SAMPLESTART:5.428000;
#SAMPLELENGTH:18.462000;
#SELECTABLE:YES;
#BPMS:0.000000=208.000000
;
#STOPS:;
#DELAYS:;
#WARPS:;
#TIMESIGNATURES:0.000000=4=4
;
#TICKCOUNTS:0.000000=4
;
#COMBOS:0.000000=1
;
#SPEEDS:0.000000=1.000000=0.000000=0
;
#SCROLLS:0.000000=1.000000
,108.625000=0.000000
,108.812500=2.000000
,109.000000=1.000000
,109.750000=0.000000
,109.875000=2.000000
,110.000000=1.000000
,110.375000=0.000000
,110.437500=2.000000
,110.500000=1.000000
,111.500000=0.000000
,111.750000=2.000000
,112.000000=0.750000
,172.000000=0.700000
,173.000000=0.650000
,174.000000=0.600000
,175.000000=0.550000
,176.000000=0.500000
,240.000000=0.600000
,241.000000=0.700000
,242.000000=0.800000
,243.000000=0.900000
,244.000000=1.000000
,308.000000=0.750000
,314.000000=1.000000
;
#FAKES:;
#LABELS:0.000000=Song Start
;
#BGCHANGES:;
#KEYSOUNDS:;
#ATTACKS:
;

//---------------dance-single - ----------------
#NOTEDATA:;
#CHARTNAME:;
#CHARTHASH:1370308458;
#STEPSTYPE:dance-single;
#BANNER:;
#DESCRIPTION:;
#CHARTSTYLE:;
#DIFFICULTY:Beginner;
#METER:6;
#METERF:0.000000;
#LASTSECONDHINT:113.889923;
#RADARVALUES:0.195201,0.408255,0.258284,0.266616,0.000000,164.000000,133.000000,31.000000,32.000000,0.000000,0.000000,0.000000,0.000000,0.000000,0.195201,0.408255,0.258284,0.266616,0.000000,164.000000,133.000000,31.000000,32.000000,0.000000,0.000000,0.000000,0.000000,0.000000;
#CREDIT:ヨセフ;
#NOTES:
// measure 0
0000
0000
0000
0000
,  // measure 1
0000
0000
0000
0000
,  // measure 2
0000
0000
0000
0000
,  // measure 3
0000
0000
0000
0000
,  // measure 4
1001
0000
1000
0000
,  // measure 5
0002
0000
0003
0000
,  // measure 6
0200
0000
0300
0000
,  // measure 7
0010
0000
1000
0000
,  // measure 8
0002
0000
0003
0000
,  // measure 9
0020
0000
0030
0000
,  // measure 10
0200
0000
0000
0300
,  // measure 11
0000
1001
0000
0000
0110
0000
0000
1001
,  // measure 12
0000
1001
0000
0000
,  // measure 13
0010
0000
0000
0000
,  // measure 14
0100
0000
0000
0000
,  // measure 15
0001
0000
1000
0000
,  // measure 16
0100
0000
0000
0000
,  // measure 17
0010
0000
0000
0000
,  // measure 18
0001
0000
0000
0000
,  // measure 19
2000
0000
0000
3000
,  // measure 20
1001
0000
0001
0000
,  // measure 21
0200
0000
0300
0000
,  // measure 22
0020
0000
0030
0000
,  // measure 23
2000
0000
0000
3000
,  // measure 24
0002
0000
0003
0000
,  // measure 25
2000
0000
3000
0000
,  // measure 26
0200
0000
0300
0000
,  // measure 27
0010
0010
0010
0000
,  // measure 28
0011
0000
0001
0000
,  // measure 29
0200
0000
0300
0000
,  // measure 30
0020
0000
0030
0000
,  // measure 31
2000
0000
3000
0000
,  // measure 32
2002
0000
3003
0000
,  // measure 33
0002
0000
0003
0000
,  // measure 34
0020
0000
0030
0000
,  // measure 35
0200
0000
0300
0000
,  // measure 36
1001
0000
1001
0000
,  // measure 37
0110
0000
0110
0000
,  // measure 38
1001
0000
1001
0000
,  // measure 39
0110
0000
0110
0000
,  // measure 40
2002
0000
0000
0000
,  // measure 41
3003
0000
0000
0000
,  // measure 42
0200
0000
0000
0000
,  // measure 43
0300
0000
0000
0000
,  // measure 44
1001
0000
0000
0000
,  // measure 45
0001
0000
0000
0000
,  // measure 46
0100
0000
0000
0000
,  // measure 47
0010
0000
0000
0000
,  // measure 48
1000
0000
0000
0000
,  // measure 49
0001
0000
0000
0000
,  // measure 50
1000
0000
0000
0000
,  // measure 51
0100
0000
0000
0000
,  // measure 52
0110
0000
0000
0000
,  // measure 53
0001
0000
0000
0000
,  // measure 54
1001
0000
0000
0000
,  // measure 55
1000
0000
0000
0000
,  // measure 56
1001
0000
0000
0000
,  // measure 57
1000
0000
0000
0000
,  // measure 58
0010
0000
0000
0000
,  // measure 59
0100
0000
0000
0000
,  // measure 60
0001
0000
0000
0000
,  // measure 61
1001
0000
0000
0000
,  // measure 62
1000
0000
0000
0000
,  // measure 63
0010
0000
0100
0000
,  // measure 64
0010
0000
0000
0000
,  // measure 65
1000
0000
0001
0000
,  // measure 66
1000
0000
0000
0000
,  // measure 67
0100
0000
0010
0000
,  // measure 68
0100
0000
0000
0000
,  // measure 69
0110
0000
1001
0000
,  // measure 70
0110
0000
1001
0000
,  // measure 71
1000
0000
0010
0000
,  // measure 72
0100
0000
0001
0000
,  // measure 73
0100
0000
0010
0000
,  // measure 74
1000
0000
0010
0000
,  // measure 75
0100
0000
0001
0000
,  // measure 76
1000
0000
0100
0000
,  // measure 77
0220
0000
0000
0000
,  // measure 78
0000
0000
0330
0000
,  // measure 79
1001
0000
0001
0000
,  // measure 80
1000
0000
0010
0000
,  // measure 81
0100
0000
0001
0001
,  // measure 82
0001
0000
1000
1000
,  // measure 83
1000
0000
0100
0000
,  // measure 84
0010
0000
0100
0000
,  // measure 85
1000
0000
0001
0000
,  // measure 86
0100
0000
0010
0010
,  // measure 87
0020
0000
0000
0030
,  // measure 88
1000
0000
1001
0000
,  // measure 89
0020
0000
0000
0000
,  // measure 90
0130
0100
0200
0300
,  // measure 91
1001
0000
0100
0000
,  // measure 92
0010
0000
0100
0000
,  // measure 93
1001
0000
1000
0100
,  // measure 94
0020
0030
0002
0003
,  // measure 95
0200
0000
0000
0300
,  // measure 96
0200
0000
0000
0000
,  // measure 97
0000
0000
0000
0000
,  // measure 98
0300
0000
0000
0000
;

//---------------dance-single - ----------------
#NOTEDATA:;
#CHARTNAME:;
#CHARTHASH:3415210505;
#STEPSTYPE:dance-single;
#BANNER:;
#DESCRIPTION:;
#CHARTSTYLE:;
#DIFFICULTY:Easy;
#METER:10;
#METERF:0.000000;
#LASTSECONDHINT:113.889923;
#RADARVALUES:0.311845,0.489906,0.258284,0.399923,0.054156,262.000000,231.000000,31.000000,48.000000,0.000000,0.000000,0.000000,0.000000,0.000000,0.311845,0.489906,0.258284,0.399923,0.054156,262.000000,231.000000,31.000000,48.000000,0.000000,0.000000,0.000000,0.000000,0.000000;
#CREDIT:ヨセフ;
#NOTES:
// measure 0
0000
0000
0000
0000
,  // measure 1
0000
0000
0000
0000
,  // measure 2
0000
0000
0000
0000
,  // measure 3
0000
0000
0000
0000
,  // measure 4
1001
0000
0000
0000
1000
0001
0000
1000
,  // measure 5
0000
0000
0020
0000
0000
0030
0000
0000
0010
0000
0000
0000
0000
0000
0100
0000
,  // measure 6
0002
0000
2003
0000
,  // measure 7
3100
0000
0000
0000
0000
0000
0000
0000
0100
0000
0000
0010
0000
0010
0000
0000
,  // measure 8
0001
0000
0000
0001
0000
0000
1000
0000
,  // measure 9
0200
0000
0000
0000
,  // measure 10
0320
0000
0000
0030
,  // measure 11
0000
0000
0001
0000
0000
0010
0000
0000
0100
0000
0000
1000
0000
0000
0001
0000
,  // measure 12
0000
0000
1001
0000
1000
0001
0000
1000
,  // measure 13
0000
0000
0020
0000
0000
0030
0000
0000
0010
0000
0000
0000
0000
0000
0100
0000
,  // measure 14
0002
0000
0000
0000
,  // measure 15
0013
0000
0000
0000
0100
0000
0000
0000
1000
0000
0000
0001
0000
0001
0000
0000
,  // measure 16
0100
0000
0000
0100
0010
0000
1000
0000
,  // measure 17
0002
0000
0000
0000
0000
0000
0013
0100
,  // measure 18
2000
0000
0000
0000
,  // measure 19
3002
0000
0000
0003
,  // measure 20
1000
0000
0000
0000
0010
1000
0000
0010
,  // measure 21
0000
0000
0200
0000
0000
0300
0000
0000
0002
0003
0000
0000
0000
0000
1000
0000
,  // measure 22
0001
0010
0200
1300
,  // measure 23
0020
0000
0000
0000
,  // measure 24
0130
0000
0001
0000
1000
0001
0000
0010
,  // measure 25
0000
0000
0200
0000
0000
0300
0000
0000
1000
0000
0000
0000
0000
0000
1000
0000
,  // measure 26
0001
0100
0020
1030
,  // measure 27
0001
0001
0001
0000
,  // measure 28
2001
0000
3200
0000
,  // measure 29
0320
0000
0000
0031
,  // measure 30
2001
0000
0000
0000
,  // measure 31
0001
0000
0000
0000
0000
3010
0000
0000
,  // measure 32
0101
0000
0000
0000
0000
0001
0000
0000
,  // measure 33
1001
0000
0000
0000
0000
1000
0000
0000
,  // measure 34
1100
0000
0000
0000
0000
0001
0000
0000
,  // measure 35
0202
0000
0303
0000
,  // measure 36
1001
0000
0101
0000
,  // measure 37
1001
0000
1100
0000
,  // measure 38
0011
0000
0101
0000
,  // measure 39
1010
0000
1100
0000
,  // measure 40
1002
0000
0000
0000
,  // measure 41
0000
0000
0203
0320
,  // measure 42
2030
0000
0000
0000
,  // measure 43
3200
0000
0000
0000
,  // measure 44
0310
0000
0000
0000
,  // measure 45
0001
0000
0000
0000
,  // measure 46
1000
0000
0000
0000
,  // measure 47
0010
0000
0000
0000
,  // measure 48
0100
0000
0000
0000
,  // measure 49
0001
0000
0000
0000
,  // measure 50
1000
0000
0000
0000
,  // measure 51
0001
0000
0000
0000
,  // measure 52
1001
0000
0000
0000
,  // measure 53
1000
0000
0000
0010
,  // measure 54
0110
0000
0000
0000
,  // measure 55
0101
0000
0000
0000
,  // measure 56
1001
0000
0000
0000
,  // measure 57
1000
0000
0000
0000
,  // measure 58
0110
0000
0000
0000
,  // measure 59
0010
0000
0000
0000
,  // measure 60
0001
0000
1000
0000
,  // measure 61
0001
0000
0100
0000
,  // measure 62
0001
1000
0001
0000
,  // measure 63
1000
0100
1000
0100
,  // measure 64
0010
0000
0000
0001
0000
0000
0100
0000
,  // measure 65
0010
1000
0001
0100
,  // measure 66
0010
1000
0001
1000
,  // measure 67
0200
0000
0320
0000
,  // measure 68
0031
1000
0001
0000
,  // measure 69
0220
0330
2002
3003
,  // measure 70
0202
0303
2020
3030
,  // measure 71
1001
0000
1000
0100
,  // measure 72
0010
0001
0010
0100
,  // measure 73
1000
0000
0001
0100
,  // measure 74
0001
0000
1000
0100
,  // measure 75
0010
0100
1000
0001
,  // measure 76
0100
0010
1000
0001
,  // measure 77
1000
0000
0100
0000
,  // measure 78
0010
0000
0002
1003
,  // measure 79
0010
0100
0001
1000
,  // measure 80
0100
0001
0100
1000
,  // measure 81
0001
0100
0010
1000
,  // measure 82
1001
0001
1000
0100
,  // measure 83
0110
0010
0100
1000
,  // measure 84
0001
0100
0010
0100
,  // measure 85
0001
1000
0100
0001
,  // measure 86
0200
0000
2300
0000
,  // measure 87
3020
0000
0000
0000
,  // measure 88
0130
0000
0000
0100
0000
0100
0000
0000
0000
0000
0001
0000
1000
0000
0000
0000
,  // measure 89
2002
0000
0000
0003
,  // measure 90
0020
0000
3030
0100
,  // measure 91
1001
0000
0001
0010
0000
0001
0010
0000
,  // measure 92
0100
0000
1000
0001
0000
1000
0001
0000
,  // measure 93
0100
0000
0010
0000
1000
0000
0100
0010
,  // measure 94
0002
0000
0203
0000
,  // measure 95
0320
0000
0000
0000
,  // measure 96
2030
0000
0000
0000
,  // measure 97
0000
0000
0000
0000
,  // measure 98
3000
0000
0000
0000
;

//---------------dance-single - ----------------
#NOTEDATA:;
#CHARTNAME:;
#CHARTHASH:665946592;
#STEPSTYPE:dance-single;
#BANNER:;
#DESCRIPTION:;
#CHARTSTYLE:;
#DIFFICULTY:Medium;
#METER:13;
#METERF:0.000000;
#LASTSECONDHINT:113.889923;
#RADARVALUES:0.509426,0.694034,0.308274,0.416587,0.149971,428.000000,391.000000,37.000000,50.000000,0.000000,0.000000,0.000000,0.000000,0.000000,0.509426,0.694034,0.308274,0.416587,0.149971,428.000000,391.000000,37.000000,50.000000,0.000000,0.000000,0.000000,0.000000,0.000000;
#CREDIT:ヨセフ;
#NOTES:
// measure 0
0000
0000
0000
0000
,  // measure 1
0000
0000
0000
0000
,  // measure 2
0000
0000
0000
0000
,  // measure 3
0000
0000
0000
0000
,  // measure 4
1000
0020
0030
0200
0301
1000
0001
1000
,  // measure 5
0000
0000
0000
0000
0200
0000
0000
0300
0000
0000
0100
0000
0000
0000
0000
0000
0010
0000
0000
0000
0000
0000
0010
0000
0000
0000
0000
0000
0001
0000
0000
0000
,  // measure 6
2000
0000
0000
0000
3010
0100
0001
0010
,  // measure 7
0100
0000
0000
0000
1000
0000
1000
0000
0001
0000
0000
0100
0000
0010
0000
0010
,  // measure 8
0000
0000
0000
1000
0000
0000
1000
0000
0001
0000
1000
0000
0100
0000
0010
0000
,  // measure 9
0002
0000
0000
0000
,  // measure 10
0203
0000
0010
0000
0000
0000
0301
1000
,  // measure 11
0000
0000
1010
0000
0000
1000
0000
0000
1001
0000
0000
0001
0000
0000
0011
0000
,  // measure 12
0000
0000
0010
0100
1000
0001
1000
0001
,  // measure 13
0000
0000
0000
0000
0200
0000
0000
0300
0000
0000
0100
0000
0000
0000
0000
0000
0010
0000
0000
0000
0000
0000
0010
0000
0000
0000
0000
0000
1000
0000
0000
0000
,  // measure 14
0001
0010
0100
1000
0010
0100
0001
1000
,  // measure 15
0100
0000
0000
0000
0010
0000
0010
0000
0001
0000
0000
1000
0000
0010
0000
0010
,  // measure 16
0000
0000
0000
0100
0000
0000
0100
0000
0001
0000
1000
0000
0001
0000
0010
0000
,  // measure 17
0200
0000
0000
0000
0000
0000
0310
0001
,  // measure 18
0200
0000
0010
0000
0000
0000
1300
0100
,  // measure 19
0001
0000
0000
0000
0001
0000
0000
0001
0000
0001
0000
0000
0001
0000
0001
0000
,  // measure 20
0001
2000
3000
0200
0310
0001
0010
0001
,  // measure 21
0000
0000
0000
0000
0200
0000
0000
0300
0000
0000
0100
0000
0000
0000
0000
0000
0020
0000
0030
0000
0000
0000
1000
0000
0000
0000
0000
0000
0001
0000
0000
0000
,  // measure 22
0010
0010
0100
0100
2000
0000
3001
0100
,  // measure 23
0020
0000
0000
0000
,  // measure 24
1030
0000
0001
0010
0100
1000
0100
1000
,  // measure 25
0000
0000
0000
0000
0002
0000
0000
0003
0000
0000
0001
0000
0000
0000
0000
0000
0100
0000
0000
0000
0000
0000
0100
0000
0000
0000
0000
0000
0010
0000
0000
0000
,  // measure 26
1000
0001
1000
0000
0200
0000
0310
0000
,  // measure 27
0002
0000
0003
0000
0002
0000
0003
0000
0002
0003
0002
0000
0003
0000
0000
0000
,  // measure 28
1002
0000
0000
0000
,  // measure 29
0023
0000
0000
0001
,  // measure 30
0230
0000
0000
0000
,  // measure 31
0000
0000
0000
0000
0000
1300
0000
0000
,  // measure 32
2002
3003
0000
0000
0000
0101
0000
0000
,  // measure 33
1010
0000
0000
1000
0000
0001
0010
0100
,  // measure 34
1000
0000
0000
0001
0000
0100
0001
0010
,  // measure 35
0200
0000
0000
0300
,  // measure 36
1100
0010
0101
0010
,  // measure 37
1100
0001
0110
1000
,  // measure 38
0110
0001
1010
0100
,  // measure 39
0011
1000
0101
0010
,  // measure 40
2001
0000
0000
0000
,  // measure 41
0100
0000
3010
1000
,  // measure 42
0200
0000
0000
0000
,  // measure 43
0320
0000
0000
0000
,  // measure 44
0031
0000
0000
0000
,  // measure 45
1000
0000
0000
0000
,  // measure 46
0010
0000
0000
0000
,  // measure 47
0100
0000
0000
0000
,  // measure 48
0001
0000
0000
0000
,  // measure 49
0010
0000
0000
0000
,  // measure 50
1000
0000
0000
0000
,  // measure 51
0010
0000
0000
0000
,  // measure 52
0001
0000
1000
0000
,  // measure 53
0010
0000
0100
0001
,  // measure 54
1001
0000
1000
0000
,  // measure 55
1100
0000
0100
0000
,  // measure 56
0110
0000
0010
0000
,  // measure 57
0001
0000
0100
0000
,  // measure 58
1000
0000
0100
0010
,  // measure 59
2000
0000
3002
0000
,  // measure 60
0013
0100
0000
1000
0000
0001
0100
0010
,  // measure 61
1000
0000
0000
1010
0000
0010
0100
0001
,  // measure 62
1000
0001
0000
0010
0100
0010
0100
1000
,  // measure 63
0001
0000
0000
1001
0000
0101
0000
1001
,  // measure 64
0000
1100
0000
0110
0000
0011
0000
0001
,  // measure 65
0100
0000
0000
1010
0000
1000
0001
0010
,  // measure 66
0100
0010
0000
0011
0000
0001
1000
0010
,  // measure 67
0100
0000
0001
0010
0100
0000
1000
0010
,  // measure 68
0100
0000
0001
0000
1000
0100
0010
0001
,  // measure 69
2001
3010
1002
0013
,  // measure 70
2001
3020
0230
0302
,  // measure 71
1003
0000
0000
1001
0000
0011
0000
0010
,  // measure 72
0100
1000
0000
1001
0000
0001
0100
0010
,  // measure 73
0100
0000
0000
0101
0000
0001
1000
0100
,  // measure 74
1000
0100
0000
0010
0001
0010
0100
1000
,  // measure 75
0010
1000
0010
1000
0001
0100
0001
0100
,  // measure 76
0001
0010
0001
0010
0100
1000
0100
1000
,  // measure 77
0010
0000
0100
0000
,  // measure 78
0001
0000
2002
3003
,  // measure 79
1000
0000
0000
0000
0100
0000
0010
0000
0000
0001
0000
0001
1000
0000
0001
0000
,  // measure 80
0100
0010
1000
0010
1000
0001
1000
0001
,  // measure 81
0010
1000
0010
0001
1000
0001
0200
0000
,  // measure 82
0310
0000
0000
1000
0000
1000
0000
1000
0001
0000
0000
0000
0020
0000
0000
0000
,  // measure 83
0130
0000
1000
0010
0001
0010
1000
0001
,  // measure 84
0100
0000
0010
1000
0100
0001
0100
1000
,  // measure 85
0002
0000
0203
0000
,  // measure 86
0310
0000
0000
0010
0000
0000
0010
0000
1000
0000
0100
0000
0001
0000
0100
0000
,  // measure 87
2000
0000
0000
0000
,  // measure 88
3001
0100
0000
0100
0000
0100
0000
0100
0000
0000
0000
0000
0001
0000
0000
0000
,  // measure 89
0021
0000
0000
0000
,  // measure 90
0130
0001
0100
1000
0002
0000
1003
0000
,  // measure 91
0001
0100
0001
0100
0010
1000
0010
1000
,  // measure 92
0001
0010
0001
0010
0100
1000
0100
1000
,  // measure 93
0001
0100
1000
0001
0010
1000
0100
0010
,  // measure 94
2000
0000
3020
0000
,  // measure 95
0031
1000
0001
1000
0001
1000
0001
1000
,  // measure 96
0002
0000
0000
0000
,  // measure 97
0000
0000
0000
0000
,  // measure 98
0003
0000
0000
0000
;

//---------------dance-single - ----------------
#NOTEDATA:;
#CHARTNAME:;
#CHARTHASH:1768189500;
#STEPSTYPE:dance-single;
#BANNER:;
#DESCRIPTION:;
#CHARTSTYLE:;
#DIFFICULTY:Hard;
#METER:17;
#METERF:0.000000;
#LASTSECONDHINT:113.889923;
#RADARVALUES:0.693915,0.938987,0.224957,0.416587,0.649875,583.000000,556.000000,27.000000,50.000000,0.000000,0.000000,0.000000,0.000000,0.000000,0.693915,0.938987,0.224957,0.416587,0.649875,583.000000,556.000000,27.000000,50.000000,0.000000,0.000000,0.000000,0.000000,0.000000;
#CREDIT:ヨセフ;
#NOTES:
0000
0000
0000
0000
,
0000
0000
0000
0000
,
0000
0000
0000
0000
,
0000
0000
0000
0000
,
1000
0000
0020
0000
0030
0000
0200
0000
0301
1000
0001
1000
0001
0000
1000
0000
,
0000
0000
0200
0000
0000
0310
0000
0000
0001
0000
0000
1000
0000
0000
0010
0000
,
0200
0000
0000
0000
0000
0000
0000
0000
0301
1000
0001
1000
0002
0000
0000
0000
,
0013
0000
0000
0000
0100
0000
0100
0000
1000
0010
0000
0100
0000
0010
0000
0010
,
1000
0000
0000
1000
0000
0000
1000
0000
0001
0000
0000
0000
1000
0100
1000
0000
,
0002
0000
0000
0000
,
0203
0000
0000
0000
0000
0000
0000
0000
0310
0000
1000
0000
0001
0010
0100
1000
,
0000
0000
1100
0000
0000
1001
0000
0000
0101
0000
0000
1001
0000
0000
1100
0000
,
0000
0000
0000
0000
1000
0000
0020
0000
0130
0001
0100
0001
0100
0000
0010
0000
,
1000
0000
0002
0000
0000
0013
0000
0000
0100
0000
0000
1000
0000
0000
0001
0000
,
0200
0000
0000
0000
0000
0000
0000
0000
0310
1000
0010
1000
0001
1000
0001
1000
,
0100
0000
0000
0000
0010
0000
0010
0000
0001
0100
0000
0010
0000
0100
0000
0100
,
0001
0000
0000
0001
0000
0000
0001
0000
2000
0000
0000
0000
3001
0010
0001
0000
,
0200
0000
0000
0000
0000
0000
0000
0000
0000
0000
0000
0000
0310
1000
0010
1000
,
0002
0000
0000
0000
0000
0000
0000
0000
0000
0000
0000
0000
0013
0100
1000
0001
,
1000
0000
0000
0000
0001
0000
0000
1000
0000
0001
1000
0000
0001
1000
0001
0000
,
1000
0000
0020
0000
0030
0000
0200
0000
0301
1000
0001
1000
0001
0000
0010
0000
,
0100
0000
2000
0000
0000
3010
0000
0000
0200
0300
0000
0001
0000
0000
0010
0000
,
0100
0100
1000
0000
0002
0000
0103
0010
,
2000
0000
0000
0000
,
3001
0000
0000
0000
0010
0000
0100
0000
1000
0001
1000
0001
1000
0000
0010
0000
,
0100
0000
0002
0000
0000
0013
0000
0000
0100
0000
0000
1000
0000
0000
0001
0000
,
0100
0001
0100
0001
1000
0000
0000
0000
0200
0000
0000
0000
0310
0000
0001
0000
,
0200
0000
0300
0000
0200
0000
0300
0000
0200
0300
0200
0000
0300
0000
0000
0000
,
1002
0000
0000
0000
,
0023
0000
0000
0130
,
2100
0100
0000
0000
,
0000
0000
0000
0000
0000
3010
0000
0000
,
0101
0001
0000
0000
0000
1001
0000
0000
,
1100
0000
0000
0110
0000
0010
0001
0010
,
0100
0000
0000
0000
0000
0000
1100
0000
0000
0000
1000
0000
0001
0100
0001
0000
,
2000
0000
0000
3000
,
1001
0000
0000
1000
0100
0010
0001
0000
0000
1000
0010
0100
,
0001
0000
0000
1000
0100
0010
0001
0000
0000
0100
0010
1000
,
0001
0000
0000
0010
0100
1000
0010
0000
0000
0100
0001
0010
,
0100
0000
0000
1000
0010
1000
0100
0000
0000
0010
0001
0100
,
0002
0000
0000
0000
,
0100
0000
0013
0100
,
2000
0000
0001
0001
,
3010
0000
1000
0000
0001
0000
0010
0000
0100
0000
1000
0000
,
0001
0000
0100
0000
,
0010
0000
1000
0000
,
0001
0000
0010
0000
,
0100
0000
0100
0000
,
1000
0000
0010
0000
,
0100
0000
0001
0000
,
1000
0000
0000
0000
,
0100
0000
0000
0000
,
0011
0000
0000
0000
0000
0000
0001
0000
0100
0000
0000
0010
0000
0000
1000
0000
,
0001
0000
0000
0010
0000
0000
0100
0000
1000
0000
0000
0000
1001
0000
0000
0000
,
1001
0000
0000
0001
0000
0000
0100
0000
0010
0000
0000
1000
0000
0000
0001
0000
,
0010
0000
0000
0100
0000
0000
0010
0000
0001
0000
0000
1000
0000
0000
0010
0000
,
0100
0000
0000
0001
0000
0000
1000
0000
0100
0000
0000
0010
0000
0000
0001
0000
,
0100
0000
0000
0010
0000
0000
1000
0000
0001
0000
0000
0010
0000
0000
0100
0000
,
1000
0000
0000
0010
0000
0000
0100
0000
0001
0000
0000
0000
1000
0000
0000
0000
,
0200
0000
0320
0000
,
0031
0000
1000
0000
0000
0000
0100
0000
0000
0000
1000
0000
0001
1000
0001
0000
,
0100
0000
0000
0000
0000
0000
0101
0000
0000
0000
0001
0000
1000
0100
1000
0000
,
0001
0000
0100
0010
0100
0000
0001
0000
1000
0000
0100
0000
0010
0000
0100
1000
,
0100
0000
0000
1100
0000
0011
0000
0101
,
0000
1010
0000
1000
0100
0010
0001
0100
,
0010
0000
0000
0000
0000
0000
1000
0000
0001
0000
0010
0000
0001
1000
0001
0000
,
0000
0000
0100
0001
0100
0000
0010
1000
0010
0000
0100
0001
0100
0000
0010
0000
,
1000
0100
0010
0001
0100
0010
1000
0100
,
0001
0000
0100
0010
0100
0000
1000
0000
0001
0000
0100
0010
0100
0000
0001
0000
,
1002
0013
2001
3010
,
0102
0000
0000
0000
0023
0000
0000
0000
0230
0000
0000
0000
1300
0000
0001
1000
,
0001
0100
0000
1010
0000
1000
0100
0010
,
0001
0000
0100
0000
0000
0000
0010
1000
0010
0000
0100
0000
0001
1000
0001
1000
,
0001
0000
0000
0000
0000
0000
1100
0000
0000
0000
1000
0100
1000
0000
0000
0000
,
0001
0100
0000
0001
0010
0100
0010
0001
,
1000
0000
0001
0100
0001
0100
0001
0000
1000
0000
0100
0010
0100
0010
0100
0000
,
1000
0000
0100
0000
0010
0000
0001
0000
0100
0000
0001
0000
1000
0010
1000
0010
,
1000
0000
0010
0000
,
0100
0000
2002
3003
,
1000
0000
0001
0000
0100
0010
0000
0010
0000
0010
0000
0010
1000
0000
0001
0010
,
0100
0000
1000
0000
0001
0100
0010
0000
1000
0001
0010
0000
0200
0000
0000
0000
,
1300
0000
0001
0000
0100
0000
1000
0000
0100
0000
0001
0000
0010
0100
0010
0100
,
1000
0000
0000
0001
0000
0001
0000
0001
0100
0000
0010
0000
1000
0001
1000
0001
,
0010
0000
0100
0000
1000
0001
0100
0000
0010
1000
0001
0000
0020
0000
0000
0000
,
0130
0000
0000
0000
1000
0001
0100
0000
0010
1000
0001
1000
0001
0000
0000
0000
,
0010
0000
0100
0000
0001
0000
0100
0000
0010
0000
0001
0000
1000
0001
1000
0001
,
1000
0000
0000
1000
0000
0000
1000
0000
0001
0100
0001
0100
0001
0100
0001
0100
,
0002
0000
0000
0000
,
0013
0100
0000
0100
0000
0100
0000
0100
2000
0000
0000
0000
3001
0100
0001
0100
,
0020
0000
0000
0000
,
1030
0001
1000
0001
1000
0001
1000
0001
2000
0000
0000
0000
0000
0000
0000
0000
,
3100
0000
0010
0000
0001
0000
1000
0000
0010
1000
0010
1000
0001
0000
0010
0000
,
0100
0000
0010
0000
0001
0000
1000
0000
0010
0100
0010
0100
0002
0000
0000
0000
,
0013
0100
0010
0100
1000
0000
0000
0000
0001
0010
0100
1000
0100
1000
0001
1000
,
0020
0000
0230
0000
,
0301
1000
0001
1000
0001
1000
0001
1000
0001
1000
0001
1000
0001
1000
0001
1000
,
0002
0000
0000
0000
,
0000
0000
0000
0000
,
0003
0000
0000
0000
;

//---------------dance-single - ----------------
#NOTEDATA:;
#CHARTNAME:;
#CHARTHASH:53985423;
#STEPSTYPE:dance-single;
#BANNER:;
#DESCRIPTION:;
#CHARTSTYLE:Pad Singles;
#DIFFICULTY:Challenge;
#METER:18;
#METERF:0.000000;
#LASTSECONDHINT:113.889923;
#RADARVALUES:0.960530,1.347242,0.216625,0.341601,1.303917,807.000000,781.000000,26.000000,41.000000,0.000000,0.000000,0.000000,0.000000,0.000000,0.960530,1.347242,0.216625,0.341601,1.303917,807.000000,781.000000,26.000000,41.000000,0.000000,0.000000,0.000000,0.000000,0.000000;
#CREDIT:ヨセフMethod Infrared;
#NOTES:
0000
0000
0000
0000
,
0000
0000
0000
0000
,
0000
0000
0000
0000
,
0000
0000
0000
0000
,
1000
0000
0020
0000
0130
0001
1000
0000
0001
0010
0001
0010
0100
0000
1000
0000
,
0000
0000
2010
0000
0000
3001
0000
0000
0010
0000
0000
0100
0000
0000
1000
0000
,
0002
0000
0000
0000
0000
0000
0000
0000
0103
0010
1000
0100
0010
0001
1000
0010
,
0100
0000
0000
0000
0001
0000
1000
0001
1000
0100
0000
0001
0000
0100
0000
0100
,
1000
0000
0000
1000
0000
0000
1000
0000
0010
1000
0010
1000
0001
0100
0001
0000
,
2000
0000
0000
0000
0000
0000
0000
0000
3010
0100
0001
0000
1000
0000
0100
0000
,
0010
0000
0010
0000
0002
0000
0000
0000
1000
0000
0003
0000
0001
0010
0100
1000
,
0000
0000
1010
0000
0000
1001
0000
0000
0101
0000
0000
1001
0000
0000
0011
0000
,
0000
0000
0000
0000
1001
0000
2000
0000
3001
0100
0001
0100
0010
0000
1000
0000
,
0100
0000
2100
0000
0000
3010
0000
0000
0100
0000
0000
0001
0000
0000
0010
0000
,
0100
1000
0100
0010
0001
0100
0001
1000
0010
0100
0001
1000
0001
0010
0100
1000
,
0001
0000
0000
0000
0100
0000
0001
1000
0001
0010
0000
1000
0000
0010
0000
0010
,
0001
0000
0000
0001
0000
0000
0001
0000
0100
0001
0100
0001
1000
0010
1000
0000
,
0002
0000
0000
0000
0000
0000
0000
0000
0000
0000
0000
0000
1003
0100
1000
0010
,
0100
0000
0100
0000
0002
0000
0000
0000
1000
0000
0003
0000
0001
0100
0010
0001
,
0010
0000
0100
0000
0010
0100
0000
0010
0100
0010
0100
0000
0010
0100
0010
0100
,
0010
0000
2000
0000
3000
0000
0002
0000
0013
0100
0010
0100
1000
0000
0001
0000
,
0000
0000
0200
0000
0000
0310
0000
0000
2000
3000
0000
0001
0000
0000
0010
0000
,
0100
0000
0100
0000
1000
0000
0001
0100
0020
0000
0000
0000
1030
0000
0001
0000
,
0010
0100
1000
0010
0100
0001
0010
0001
1000
0010
0100
0001
1000
0100
0010
0001
,
0100
0000
0000
0000
0001
0000
0010
0000
0100
1000
0100
1000
0001
0000
0100
0010
,
1000
0000
2010
0000
0000
3001
0000
0000
0010
0000
0000
0100
0000
0000
1000
0000
,
0010
1000
0010
1000
0001
0000
0000
0000
0020
0000
0000
0000
0031
0000
1000
0010
,
0200
0000
0300
0000
0200
0000
0300
0000
0200
0300
0200
0000
0300
0000
0000
0000
,
2001
0000
0000
0000
,
3200
0000
0000
0310
,
0012
1000
0000
0000
,
0100
0000
0000
0000
0000
0013
0000
0000
,
0210
0010
0000
0300
0000
2002
3003
0000
,
0012
0000
0000
0103
0000
0010
1000
0001
,
0102
0000
0000
0000
0000
0000
0013
0000
0000
0000
0100
0000
1000
0001
0100
0010
,
2000
0000
0000
0000
,
3001
0010
0100
1000
0100
0010
0001
0100
0010
1000
0010
0100
,
0001
0010
0100
1000
0100
0010
0001
0100
0010
1000
0010
0100
,
0001
1000
0100
0010
0001
0100
0010
1000
0001
0010
0100
1000
,
0010
0100
0001
0010
0001
0100
0010
1000
0100
1000
0001
0010
,
0200
0000
0000
0000
,
1000
0000
0320
0032
,
0203
0000
0001
0001
,
0310
1000
0001
0100
0010
1000
0001
0010
0100
1000
0001
0100
,
0010
0000
1000
0000
,
0001
0000
1000
0000
,
0100
0000
0010
0000
,
0001
0000
0001
0000
,
0100
0000
0010
0000
,
0001
0000
0010
0000
,
1000
0000
0000
0000
,
0001
0000
0000
0000
,
0011
0000
0000
0001
0000
0000
1000
0000
0010
0000
0000
0100
0000
0000
0001
0000
,
1000
0000
0000
0001
0000
0000
1000
0000
0100
0000
0000
0000
1100
0000
0000
0000
,
1100
0000
0000
1000
0000
0000
0001
0000
0100
0000
0000
0010
0000
0000
1000
0000
,
1001
0000
0000
0001
0000
0000
0010
0000
0100
0000
0000
1000
0000
0000
0001
0000
,
0101
0000
0000
0100
0000
0000
0001
0000
1000
0000
0000
0100
0000
0000
1000
0000
,
0010
0000
0000
0100
0000
0000
0001
0000
0100
0000
0000
1000
0000
0000
0100
0000
,
0001
0000
0000
1000
0000
0000
0100
0010
0100
0000
0000
0000
1000
0000
0000
0000
,
0020
0000
0230
0000
,
0301
0000
1000
0000
0000
0000
0001
0000
0000
0000
0010
0000
0100
1000
0100
0010
,
0001
0000
0000
0000
1000
0010
1000
0001
0010
0100
1000
0100
0010
0000
0000
0000
,
0001
0000
0010
0100
1000
0000
0001
0100
0010
0000
1000
0001
0010
0100
1000
0001
,
0100
0000
0010
1000
0001
1000
0100
0010
0001
0000
1000
0001
1000
0100
0010
0001
,
0100
0000
0001
0010
0100
0010
2000
0000
0000
0000
3010
0000
0001
1000
0010
0100
,
0001
1000
0100
1000
0001
0100
0010
0000
1000
0001
0010
0100
0010
0001
1000
0010
,
0100
0000
0001
1000
0100
0010
0001
1000
0010
0000
0100
0001
1000
0000
0100
0010
,
0001
0010
0100
1000
0010
1000
0001
0000
1000
0100
0010
0001
0100
0001
1000
0010
,
0100
0001
1000
0100
0010
0001
0100
0010
1000
0001
0010
0100
,
1001
0000
0000
0000
1000
0010
1000
0000
1001
0000
0000
0000
0001
0010
0001
0000
,
1001
0000
0000
0000
1000
0010
1000
0000
0001
0010
0001
0000
1000
0100
1000
0000
,
0001
0000
0000
0000
0100
0001
1000
0010
0100
0001
0010
0100
0001
0100
0010
0001
,
1000
0000
0000
0000
0001
0010
0100
0010
1000
0010
0100
0010
0001
1000
0010
1000
,
0001
0000
0100
0001
1000
0100
0010
0001
0010
0100
1000
0001
0100
0001
0010
0100
,
1000
0001
0000
0001
0010
0100
0010
0001
,
0100
0001
0010
0100
1000
0001
0100
0010
1000
0001
1000
0100
0010
0001
1000
0010
,
0100
0001
0100
0001
1000
0100
1000
0100
0010
0001
0100
0010
1000
0001
0010
0100
,
1000
0000
0100
0000
,
0010
0000
0000
0000
0000
0000
0000
0000
0001
0000
0000
0000
1000
0010
1000
0010
,
1000
0000
0001
0000
1000
0010
0100
0001
0010
0001
0100
0001
0010
0100
1000
0010
,
1000
0000
0001
0000
0010
0000
0100
1000
0001
0100
0010
0100
0001
0010
0100
1000
,
0010
0000
0001
0010
0100
0001
0100
0001
1000
0100
0010
0001
1000
0001
1000
0001
,
1000
0000
0010
1000
0100
1000
0010
1000
0100
0000
1000
0000
0001
0100
0001
0100
,
0010
0000
0100
0001
1000
0100
0010
0001
1000
0010
0100
0010
0001
0010
0100
0000
,
0001
0000
1000
0000
0100
0010
0001
1000
0001
0100
0001
0010
0100
0000
1000
0000
,
1001
0000
0000
0000
0001
0100
0010
1000
0001
0010
0100
0010
0001
0100
0010
1000
,
0100
0000
0000
0100
0000
0000
0100
0000
0010
0001
0010
0001
0010
0001
0010
0001
,
0010
0000
0000
0000
0001
0100
0010
0100
1000
0100
0010
0100
0001
1000
0100
0010
,
0001
1000
0100
1000
0010
1000
0100
1000
0001
0000
0000
0000
1000
0100
0010
0001
,
2000
0000
0000
0000
0000
0000
0000
0000
3001
0010
0001
0010
0100
1000
0001
0100
,
0010
1000
0010
1000
0010
1000
0010
1000
0100
0000
0000
0000
0110
0000
0000
0000
,
0011
0000
0001
0010
0100
1000
0010
1000
0010
1000
0001
0010
0001
1000
0010
0100
,
0001
0000
0010
0100
1000
0010
1000
0001
0100
0001
0100
0001
0020
0000
0000
0000
,
0130
1000
0001
0100
0010
0001
0010
0100
0001
0010
0100
1000
0010
0001
0010
1000
,
0002
0000
2003
0100
,
3010
0100
0010
0100
0010
0100
0010
0100
0010
0100
0010
0100
0010
0100
0010
0100
,
0020
0000
0000
0000
,
0000
0000
0000
0000
,
0030
0000
0000
0000
;
