#VERSION:0.83;
#TITLE:朝焼けから始まるボクらの小さな旅;
#SUBTITLE:;
#ARTIST:cosMo@暴走P;
#TITLETRANSLIT:Asayake kara hajimaru bokura no chiisana tabi;
#SUBTITLETRANSLIT:;
#ARTISTTRANSLIT:cosMo@BousouP;
#GENRE:ARTCORE ROCK;
#CREDIT:Graphics by forcednature;
#MUSIC:Asayake kara hajimaru bokura no chiisana tabi.ogg;
#BANNER:Asayake kara hajimaru bokura no chiisana tabi.png;
#BACKGROUND:Asayake kara hajimaru bokura no chiisana tabi-bg.png;
#CDTITLE:;
#SAMPLESTART:30.826;
#SAMPLELENGTH:15.000;
#SELECTABLE:YES;
#OFFSET:-0.001;
#BPMS:0.000=109.000
,16.000=218.000
,66.000=109.000
,81.000=218.000
,248.000=109.000
,271.000=38.250
,272.000=218.000
,337.750=109.000
;
#STOPS:16.000=0.550
,81.000=0.275
,126.000=0.550
,248.000=0.550
,249.000=0.550
,271.000=0.688
,272.000=1.696
,337.750=0.619
;
#TIMESIGNATURES:0.000=2=4,
18.000=4=4,
66.000=2=4,
82.000=4=4,
126.000=2=4,
128.000=4=4,
248.000=2=4,
250.000=3=4,
271.000=1=4,
272.000=2=4,
274.000=4=4,
338.000=2=4
;
#DISPLAYBPM:109.000:218.000;
#BGCHANGES:0.000=Asayake kara hajimaru bokura no chiisana tabi.mp4=1.000=0=0=0=StretchNoLoop====,
99999.000=-nosongbg-=1.000=0=0=0=StretchNoLoop====
;
#FGCHANGES:;

//--------------- dance-single - Extraordiberry ----------------
#NOTEDATA:;
#STEPSTYPE:dance-single;
#DESCRIPTION:Extraordiberry;
#DIFFICULTY:Beginner;
#METER:5;
#RADARVALUES:0,0,0,0,0;
#CREDIT:Extraordiberry;
#NOTES:
0000
0000
0000
0000
,
0000
0000
0000
0000
,
0000
0000
1000
0000
,
0001
0000
1000
0000
,
0001
0000
1000
0000
,
0000
0000
0100
0000
,
0000
0000
0010
0000
,
0000
0000
0001
0000
,
0000
0000
1000
0000
,
0000
0000
0010
0000
,
0000
0000
0100
0000
,
0000
0000
0001
0000
,
0000
0000
1000
0000
,
0000
0000
0001
0000
,
0000
0000
1000
0000
,
1000
0000
0001
0000
,
0001
0000
2000
0000
,
3000
0000
0200
0000
,
0300
0000
0020
0000
,
0030
0000
0002
0000
,
1003
0000
0001
0000
,
0000
0000
0100
0000
,
0000
0000
0010
0000
,
0000
0000
1000
0000
,
0000
0000
0001
0000
,
0000
0000
0010
0000
,
0000
0000
0100
0000
,
0000
0000
1000
0000
,
0000
0000
0001
0000
,
0001
0000
1000
0000
,
1000
0000
0001
0000
,
0100
0000
0010
0000
,
1000
0000
0000
0000
,
0001
0000
0000
0000
,
0010
0000
0000
0000
,
0100
0000
0100
0000
,
1000
0000
0000
0000
,
0001
0000
0000
0000
,
0100
0000
0100
0000
,
0100
0000
0100
0000
,
0001
0000
0000
0000
,
1000
0000
0000
0000
,
0100
0000
0000
0000
,
0010
0000
0010
0000
,
0001
0000
0000
0000
,
0100
0000
0000
0000
,
0010
0000
0010
0000
,
0010
0000
0010
0000
,
1000
0000
0000
0000
,
0001
0000
0000
0000
,
1000
0000
1000
0000
,
0001
0000
0001
0000
,
1000
0000
0000
0000
,
0100
0000
0000
0000
,
0010
0000
0010
0000
,
0100
0000
0100
0000
,
1000
0000
0000
0000
,
0001
0000
0001
0000
,
1000
0000
0000
0000
,
0010
0000
0010
0000
,
0100
0000
0000
0000
,
0001
0000
0000
0000
,
2002
0000
3003
0000
,
0000
0000
0000
0000
,
0000
0000
0000
0000
,
0000
0000
1000
0000
,
0000
0100
0000
0000
,
0010
0000
0000
0002
,
0003
0000
1000
0000
,
0000
0000
0010
0000
,
0000
0000
0100
0000
,
0000
0000
0001
0000
,
0000
0000
1000
0000
,
0000
0000
0100
0000
,
0000
0000
0010
0000
,
0000
0000
0001
0000
,
0001
0000
1000
0000
,
0000
0000
0100
0000
,
0000
0000
0001
0000
,
0000
0000
0100
0000
,
0000
0000
1000
0000
,
1000
0000
0001
0000
,
0001
0000
0100
0000
,
0100
0000
0010
0000
,
0010
0000
0000
0000
;

//--------------- dance-single - Extraordiberry ----------------
#NOTEDATA:;
#STEPSTYPE:dance-single;
#DESCRIPTION:Extraordiberry;
#DIFFICULTY:Easy;
#METER:9;
#RADARVALUES:0,0,0,0,0;
#CREDIT:Extraordiberry;
#NOTES:
0000
0000
0000
0000
,
0000
0000
0000
0000
,
0000
0000
0000
0000
1000
1000
1000
0000
,
0001
0001
0001
0000
1000
0000
0001
0000
,
2002
3003
0000
0000
0000
0000
0000
0000
1000
0000
0000
0000
0100
0000
0000
0000
,
0010
0100
1000
0001
,
0100
0001
1000
0100
,
0010
0001
2000
0000
,
0010
0000
3001
0010
,
0100
0010
0001
1000
,
0010
1000
0001
0010
,
0100
1000
0002
0000
,
0100
0000
1003
0000
,
1001
0000
0100
0000
,
0110
0000
1000
0100
,
0001
0100
1000
1000
,
0001
0001
0200
0000
,
0001
0000
0320
0000
,
1000
0000
0000
0000
0130
0100
0001
0000
,
1000
1000
0100
0000
0010
0001
1000
0001
,
0100
0000
0010
0000
2000
3000
0000
0000
0001
0000
0000
0000
0010
0000
0000
0000
,
0100
0010
0001
1000
,
0010
0100
0001
1000
,
0001
0010
0100
0100
,
0000
0100
1000
0001
,
0100
0001
1000
0100
,
0010
0001
1000
1000
,
0010
0100
0001
0001
,
1000
0100
1000
0010
,
1000
0100
0020
0000
,
0001
0031
1000
0001
,
1000
0000
0001
0000
1000
0000
0000
0000
2002
3003
0000
0000
0000
0000
0000
0000
,
0001
0100
0010
0100
,
1000
0100
0001
0000
,
1000
0100
0010
0100
,
1000
0001
0100
0010
,
2000
0000
3001
1000
,
0200
0000
0310
0001
,
1000
0000
0000
0010
0000
0000
0000
0100
,
0000
0000
1001
0000
,
1000
0100
0010
0100
,
0001
0100
1000
0000
,
0001
0100
0010
0100
,
0001
1000
0100
0010
,
0002
0000
0103
0010
,
2000
0000
3100
0010
,
0001
0000
1000
0001
0000
0000
1000
0001
,
0000
0000
1001
0000
,
0002
0000
0203
0000
,
0320
0000
2030
0000
,
3001
0001
0001
0001
,
1000
1000
1000
1000
,
0002
0000
0023
0000
,
0230
0000
2300
0000
,
3010
0010
0010
0010
,
0100
0100
0100
0100
,
0002
0000
0023
0000
,
0230
0000
1300
1000
,
2000
0000
3020
0000
,
0230
0000
0301
0001
,
0002
0000
0023
0000
,
0230
0000
1300
0001
,
2002
3003
0000
0000
0220
0330
0000
0000
2002
0000
0000
0000
0000
0000
0000
0000
,
0000
0000
0000
0000
,
0000
0000
0000
3003
,
0000
0000
0000
0000
1000
0000
0000
0100
,
0000
0000
0010
0000
0000
0001
0000
0000
,
1000
0000
0000
0010
0000
0000
0200
0000
,
0300
0000
0001
0100
,
0010
0000
1000
0100
,
0010
0000
0001
0100
,
0010
1000
0001
1000
,
0100
0100
1000
0001
,
0100
0010
1000
0001
,
0010
0000
0100
1000
,
0001
0000
0100
0100
,
0100
0100
0001
1000
,
0100
0010
0100
0001
,
0100
1000
0001
0100
,
0020
0000
1030
0100
,
0020
0000
0031
0100
,
0010
0100
1000
0001
,
0010
0100
0010
0010
,
1000
1000
0001
0001
,
1000
0001
2000
0000
3000
0000
0000
0000
;

//--------------- dance-single - Extraordiberry ----------------
#NOTEDATA:;
#STEPSTYPE:dance-single;
#DESCRIPTION:Extraordiberry;
#DIFFICULTY:Medium;
#METER:14;
#RADARVALUES:0,0,0,0,0;
#CREDIT:Extraordiberry;
#NOTES:
0000
0000
0000
0000
,
0000
0000
0000
0000
,
0000
0000
0000
0000
1000
0100
0010
0000
,
0001
0100
0010
0000
1000
0100
0010
0001
,
2000
3000
0000
0000
0000
0000
0000
0000
0001
0000
0000
0000
0100
0000
0000
0000
,
0010
0100
0001
0000
1000
0000
0100
0000
,
0010
0100
1000
0000
0001
0100
0001
0100
,
0010
1000
0010
0000
2010
0000
0000
0000
,
0001
0000
3100
0000
1000
0100
0010
0000
,
0001
0100
0010
0000
1000
0001
0010
0100
,
1000
0001
0100
0000
0001
0010
0100
1000
,
0010
0100
0001
0000
0012
0000
0000
0000
,
1000
0000
0000
0103
0000
0000
0101
0000
0000
0001
0000
0001
,
0100
0000
0100
0010
0000
0010
1000
0000
1000
0001
0000
0001
,
0010
0000
0010
0100
0000
0100
1000
0001
1000
0001
0000
1000
,
0010
0100
0010
0100
0000
0001
1000
0100
1000
0100
1000
0100
,
0010
0001
2001
0000
,
3020
0000
0000
0000
0000
0000
0000
0000
0130
0000
0001
0000
1000
0001
1000
0000
,
0200
0000
0000
0000
0000
0000
0000
0000
0310
0000
0001
0000
1000
0001
1000
0000
,
0010
0000
0100
0000
0001
0000
0000
0000
1000
0100
1000
0000
0100
0010
0100
0000
,
0010
0001
0010
0000
0002
0003
0000
0000
1000
0000
0001
0000
0100
0000
0001
0000
,
1000
0001
0010
0100
1000
0001
0100
0010
,
0100
0001
1000
0100
0010
0100
1000
0001
,
0010
0100
0010
0001
1000
0001
1000
0010
,
0000
0010
1000
0000
0001
1000
0100
1000
,
0001
1000
0010
0100
0001
0010
0100
1000
,
0001
0100
0010
1000
1010
0000
1001
0000
,
0011
0000
1001
0000
1000
0100
0010
0001
,
0100
0010
1000
0001
0010
0010
0100
0100
,
1000
1000
0001
0001
0100
0010
0100
1000
,
0100
0000
0010
0000
0100
0000
0001
0000
1000
0100
1000
0000
0001
0000
0010
0000
,
0001
0010
0001
0000
1000
0000
0000
0000
2002
3003
0000
0000
0000
0000
0000
0000
,
0001
0000
0010
0000
0100
0000
1000
0000
0001
0000
0000
0100
0010
0000
1000
0000
,
0001
0010
0100
0010
0000
0001
0100
0010
,
1000
0100
0010
0000
0001
0100
0010
0000
,
1000
0100
0010
0001
0100
0010
1000
0001
,
0020
0000
0100
0000
0031
1000
0010
0100
,
0000
0100
0001
1000
0100
0010
0001
0000
,
0001
0100
0010
1010
0000
1000
0001
1001
,
0000
1000
0100
0010
0110
0000
1001
0000
,
1000
0000
0010
0000
0100
0000
0001
0000
1000
0000
0000
0100
0010
0000
0001
0000
,
1000
0010
0100
0010
0000
1000
0100
0010
,
0001
0100
0010
0000
1000
0100
0010
0000
,
0001
0100
0010
0100
1000
0100
0001
1000
,
0200
0000
0010
0000
1300
0001
0100
0010
,
0000
0010
1000
0100
0010
0001
1000
0000
,
0001
0100
0010
1010
0000
1000
0001
1001
,
0000
0000
1000
0000
0100
0000
0000
0000
0010
0100
0010
0100
0010
0000
0000
0000
,
0002
0203
0320
2030
,
3002
0023
0230
1300
,
0001
0100
0001
0100
0000
0000
0010
1000
0010
1000
0000
0000
,
0001
1000
0001
1000
0001
1000
0001
1000
0001
1000
0000
0000
,
2000
3200
0302
0203
,
2300
3002
0203
0301
,
1000
0100
1000
0100
0000
0000
0010
0001
0010
0001
0000
0000
,
1000
0010
1000
0010
1000
0010
1000
0010
1000
0010
0000
0000
,
0020
0230
0302
0023
,
0230
0000
0000
1300
0000
0000
0001
0100
0001
0100
0001
0100
,
0002
0023
2030
3020
,
0032
0000
0000
0103
0000
0000
0010
0100
0010
0100
0010
0100
,
0002
0100
1000
0013
,
0120
0000
0000
0100
0000
0000
0031
1000
0001
1000
0000
0000
,
2002
3003
0000
0000
0220
0330
0000
0000
2002
0000
0000
0000
0000
0000
0000
0000
,
0000
0000
0000
0000
,
0000
0000
0000
3003
,
0000
0000
0000
0000
2000
3200
0320
0230
,
2300
3002
0203
0320
0230
0302
2003
3200
,
0320
0032
0203
0320
2030
3002
0023
0000
,
0030
0000
0000
0000
0000
0000
0001
0000
0001
0100
0000
0100
,
0010
0000
0010
1000
0000
1000
0100
0000
0100
0010
0000
0010
,
0001
0000
0001
0100
0000
0000
0101
0000
0100
0010
0000
0000
,
1010
0000
0010
1000
0000
0000
0001
1000
0001
1000
0000
0001
,
0010
0100
0010
0100
0000
0000
1000
0000
1000
0001
0000
0001
,
0100
0000
0100
1000
0000
1000
0100
0000
0100
0001
0000
0001
,
1000
0000
1000
0100
0000
0000
1100
0000
0100
0010
0000
0000
,
0011
0000
0010
0001
0000
0000
1000
0010
1000
0010
0000
0100
,
0001
0000
1000
0000
0001
0000
1000
0000
0001
0000
1000
0000
0100
0000
0000
0010
0000
0000
0100
0000
0000
0010
0000
0000
,
0001
1000
0001
1000
0010
0100
0001
1000
,
0100
0010
0001
0000
1000
0010
1010
0000
,
0001
0010
0011
0000
2000
0000
0010
0000
,
0001
0000
3100
0000
1000
1000
0100
0100
,
0010
0010
0001
0001
1000
1000
0010
0010
,
0100
0100
0001
0001
1000
0100
0001
0100
,
1000
0000
0010
0000
0001
0000
0010
0000
1000
0000
0001
0000
0010
0100
0010
0000
,
0001
0000
1000
0000
0010
0100
0010
0200
0300
0000
0000
0000
0000
0000
0000
0000
;

//--------------- dance-single - Extraordiberry ----------------
#NOTEDATA:;
#STEPSTYPE:dance-single;
#DESCRIPTION:Extraordiberry;
#DIFFICULTY:Hard;
#METER:18;
#RADARVALUES:0,0,0,0,0;
#CREDIT:Extraordiberry;
#NOTES:
0000
0000
0000
0000
,
0000
0000
0000
0000
,
0000
0000
0000
0000
1000
1000
0100
0100
,
0010
0000
0010
0000
0001
0000
0001
0000
0100
0010
0100
0010
1000
0001
1000
0001
,
0020
0030
0000
0000
0000
0000
0000
0000
0100
0000
1000
0000
0100
0000
1000
0000
,
0001
0100
0001
0100
0010
1000
0010
1000
,
0100
0010
0100
0010
0001
0100
0010
1000
,
0100
0010
0001
0100
0020
0000
0000
0000
,
1030
0000
0100
0000
0001
0000
0100
0000
1000
0000
0001
0000
0100
0001
0100
0000
,
0001
0000
1000
0000
0100
1000
0100
0000
0010
0000
0001
0000
0100
0001
0100
0000
,
0010
0000
1000
0000
0100
1000
0100
0000
0010
0000
0001
0000
1000
0000
0010
0000
,
0001
1000
0100
0001
2000
0000
0000
0000
,
3100
0000
0000
0000
0000
0000
0010
0000
0000
0000
0000
0000
0001
0000
0000
1000
0000
0000
0001
0000
0000
1000
0000
0000
0001
0000
0000
0000
0000
0000
0000
0000
0000
0000
0000
0000
1000
0000
0000
0000
0000
0000
0000
0000
1000
0000
0000
0000
,
0010
0000
0010
0100
0000
0100
0001
1000
0100
0010
0000
0010
,
0001
1000
0010
0100
0000
0001
1000
0100
0010
0001
0100
0010
,
1000
0100
0010
0001
0100
0010
1000
1000
0100
0010
0010
0001
,
1000
1001
0002
0000
,
0203
0000
0000
0000
0000
0000
0310
0000
1000
0000
0001
0000
0010
0100
1000
0000
,
0002
0000
0000
0000
0000
0000
0103
0000
0001
0000
1000
0000
0100
0010
0001
0000
,
1000
0000
0001
0000
0100
0010
1000
0000
0001
0010
0100
0000
1000
0010
0100
0000
,
0001
0001
1000
1000
2002
3003
0000
0000
1000
0000
0100
0000
0010
0000
0001
0000
,
1000
0000
0001
0000
0100
0000
0010
0000
1000
0000
0001
0010
0100
0000
0010
0000
,
0001
1000
0010
0100
0001
1000
0001
0010
,
0100
0010
0001
0100
0010
1000
0001
0010
,
0000
0001
1000
1000
0001
0100
0010
0100
,
1000
0000
0100
0000
0001
0000
1000
0000
0100
0000
0010
0100
1000
0000
0001
0000
,
0100
0000
0010
0000
1000
0000
0001
0000
1000
0000
0100
1000
0100
0000
0010
0000
,
0001
0000
0100
0001
0100
0000
0010
0000
1000
0000
0100
1000
0100
0000
0010
0100
,
0010
0000
0001
0010
0001
0000
1000
0000
0001
1000
0010
1000
0001
0000
1000
0000
,
0001
0010
0100
0010
0001
0000
1000
0000
0001
0000
0001
0000
0100
0000
0100
0000
,
0010
0000
0010
0000
1000
0000
1000
0000
0001
0100
0001
0100
0010
1000
0010
1000
,
0001
0010
0100
1000
0100
0010
0001
1000
0020
0030
0000
0000
0000
0000
0000
0000
,
1000
0000
0100
0000
0010
0000
0001
0000
0100
0000
0000
0100
0010
0000
0100
0000
,
0001
1000
0100
0020
0000
0130
1000
0001
,
0100
0010
0001
1000
0100
0010
1000
0001
,
0010
0001
0010
0000
0001
1000
0001
0000
0100
0001
0100
0000
0010
1000
0010
0000
,
2000
0000
0001
0000
3100
0010
0001
0200
,
0000
0000
0310
0000
1000
0001
0010
0000
,
0001
0100
0010
1010
0000
0100
0010
0011
,
0000
0000
0100
0000
0010
0000
1000
0000
1010
0000
0010
0100
0001
0000
0000
0000
,
0001
0000
0100
0000
0010
0000
1000
0000
0001
0000
1000
0100
0010
0100
1000
0000
,
0001
1000
0010
0100
0010
1000
0001
1000
,
0100
0001
1000
0010
0001
1000
0010
0100
,
0001
0100
0010
0000
0100
0001
1000
0000
0001
0010
0100
0000
0010
0100
1000
0000
,
0020
0000
0001
0000
0130
0001
1000
0200
,
0010
0000
1300
0000
1000
0001
0100
0000
,
0010
0000
0100
0010
1000
0000
1010
0000
0000
0000
0100
0010
0001
0000
0011
0000
,
0000
0000
0100
0000
0010
1000
0010
0000
1010
0000
1000
0001
1000
0000
0000
0000
,
1001
0002
0023
0230
,
2300
3020
0230
0302
,
1003
0100
1000
0001
0010
0001
1000
0010
1000
0001
0100
0001
,
1000
1000
0100
0010
0010
0001
1000
1000
0010
0100
0000
0000
,
1001
2000
3200
0302
,
0203
2300
3020
0230
,
0301
0100
0010
1000
0100
1000
0001
0100
0010
1000
0100
1000
,
0001
0001
0001
0100
0100
0100
0010
0010
0010
1000
0000
0000
,
1001
0002
0023
2030
,
3002
0000
0000
0203
0000
0000
1300
0010
0100
0001
0010
0100
,
1000
2000
3020
0032
,
2003
0000
0000
3200
0000
0000
0301
0001
0001
1000
1000
1000
,
0200
0000
0000
0001
0000
0000
0010
0000
0000
1300
0100
1000
,
0002
0000
0000
0103
0000
0000
0001
1000
0100
0010
0001
1000
,
2020
3030
0000
0000
0220
0330
0000
0000
1002
0000
0000
0000
0000
0000
0000
0000
,
0000
0000
0000
0000
,
0000
0000
0000
0003
,
0000
0000
0000
0000
2000
3200
0302
2003
,
3020
0230
2300
3020
0032
2003
3200
0320
,
2030
3002
0023
2030
3002
0203
2300
0000
,
3000
0000
0000
0000
0000
0000
0001
0100
0010
0100
0000
0001
,
1000
0100
0010
0100
0000
1000
0010
0100
0010
1000
0001
0010
,
0100
0010
0001
1000
0000
0001
1000
0010
0100
0001
1000
0100
,
0010
0001
1000
0010
0100
0001
1000
1000
1000
0001
0000
0010
,
0001
0001
0001
1000
1000
1000
0001
0100
0010
0100
0001
1000
,
0100
0010
0100
1000
0001
0100
0010
1000
0001
0010
0100
1000
,
0010
0100
0001
1000
0100
0010
0001
1000
0010
0100
1000
0001
,
0010
0100
0001
1000
0100
0010
0001
0001
0001
1000
0000
0010
,
1000
0000
0001
0000
1000
0000
0000
0000
0001
0000
0000
0000
1000
0000
0001
0000
1000
0000
0000
0000
0001
0000
0000
0000
0010
0000
0000
0000
0000
0000
0001
0000
0000
1000
0000
0000
0010
0000
0000
1000
0000
0000
0001
0000
0000
0000
0000
0000
,
1000
0000
0001
0010
0100
0010
0001
0000
1000
0000
0010
0100
0001
1000
0001
0000
,
0010
0000
0100
0010
0001
1000
0001
0000
0100
0000
1000
0000
0001
0000
0010
0000
,
1000
0001
0010
0100
2000
0000
0001
0000
,
3010
0000
0100
0000
0010
1000
0010
0000
1010
0000
1000
0000
0100
0000
0010
0000
,
0011
0001
0100
0010
1010
1000
0100
0010
,
0011
0000
0001
0000
0100
0000
0010
0000
1000
0100
0010
0100
0010
0100
0010
0001
,
1000
0010
0100
0010
0100
0010
0100
0001
1000
0100
0010
0001
1000
0001
0100
0010
,
1000
0001
0010
0100
1000
0001
0100
0020
0030
0000
0000
0000
0000
0000
0000
0000
;
