#VERSION:0.83;
#TITLE:全人類ノ非想天則;
#SUBTITLE:;
#ARTIST:SOUND HOLIC;
#TITLETRANSLIT:All Mankind's Hisoutensoku;
#SUBTITLETRANSLIT:;
#ARTISTTRANSLIT:;
#GENRE:;
#CREDIT:;
#MUSIC:hisoutensoku_cut.ogg;
#BANNER:;
#BACKGROUND:;
#CDTITLE:create_cdtitle.png;
#SAMPLESTART:6.467;
#SAMPLELENGTH:12.146;
#SELECTABLE:YES;
#OFFSET:0.678;
#BPMS:0.000=167.956;
#STOPS:;
#SCROLLS:0.000=1.000;
#DISPLAYBPM:168.000;
#BGCHANGES:1.898=bgvideo.mp4=1.000=1=0=0=StretchNoLoop==CrossFade==,
99999.000=-nosongbg-=1.000=0=0=0=StretchNoLoop====
;
#FGCHANGES:;

//--------------- dance-single - ----------------
#NOTEDATA:;
#STEPSTYPE:dance-single;
#DESCRIPTION:;
#DIFFICULTY:Hard;
#METER:13;
#RADARVALUES:0,0,0,0,0;
#NOTES:
0000
0000
0000
0000
,
0001
0000
0010
0000
0001
0000
0010
0000
0100
0000
0000
1000
0000
0000
0001
0000
,
0100
0010
1000
0200
0300
0010
0001
1000
,
1000
0000
0010
0000
1000
0000
0010
0000
0100
0000
0000
0001
0000
0000
1000
0000
,
0100
0010
0001
0200
0300
0010
1000
0001
,
0001
0000
0010
0000
0001
0000
0010
0000
0100
0000
0000
1000
0000
0000
0001
0000
,
0100
0010
1000
0200
0300
0010
0001
1000
,
1000
0000
0010
0000
1000
0000
0010
0000
0100
0000
0000
0001
0000
0000
1000
0000
,
0200
0000
0000
0000
,
0310
0001
1000
0100
0010
0001
0100
0010
,
1000
0000
0001
0100
0000
0010
1000
0001
,
0010
0100
0010
0001
0000
1000
0010
0100
,
0001
0000
1000
0001
0010
0100
0010
0001
,
0000
0000
1000
0010
1000
0000
0200
0000
0300
0000
0010
0000
0100
0000
1000
0000
,
0010
0000
0100
0000
0001
0010
0100
0000
,
1000
0000
0010
0100
0000
0001
1000
0100
,
0010
0001
0010
0001
0100
0001
2000
0000
,
3000
0100
0100
0100
0120
0032
0000
0103
,
0100
0010
1000
0001
0000
0010
0100
1000
,
0010
0100
0010
1000
0000
0001
0010
0001
,
1000
0010
0100
0001
0010
0100
0010
0001
,
0000
0000
1000
0010
1000
0000
0200
0000
0300
0000
0010
0000
0100
0000
1000
0000
,
0020
0000
0000
0000
0000
0130
0001
0010
,
0100
0010
0001
0100
0000
0010
1000
0001
,
1001
0000
1000
0000
1100
0000
0000
0110
,
0000
0001
0001
0001
2000
0000
3010
0000
,
0100
0000
0000
0001
1000
0000
0100
0010
,
0001
1000
0000
0010
0000
0100
0000
0001
,
0000
0000
1000
0000
0010
0000
0100
0000
0001
0000
0000
0010
0000
0000
0100
0000
,
1000
0000
0010
0000
0100
0000
0010
0000
1000
0000
0001
0010
0001
0000
0000
0000
,
1001
0000
0000
1000
0000
0000
1010
0000
0010
0000
0100
0000
0010
0000
0000
0000
,
1001
0000
0000
1000
0000
0000
1100
0000
0100
0000
0010
0000
0000
0000
0001
0000
,
1001
0000
0000
1000
0000
0000
0010
0000
0000
0000
0100
0000
0001
0000
0000
0000
,
0020
0000
0000
0230
0000
0000
2300
0000
,
3020
0000
0000
0000
,
0000
0000
0000
0000
,
0000
0000
0000
0000
,
1030
1000
0001
0100
0010
0100
0010
1000
,
0100
0000
0010
0001
0000
0101
0100
0001
,
0100
0000
0010
1000
0000
1100
0100
1000
,
0100
0000
0010
0001
0000
1000
0000
0010
,
0100
0001
1000
0001
0010
0020
0030
0001
,
0100
0000
0010
1000
0000
1100
0100
1000
,
0100
0000
0010
0001
0000
0101
0100
0001
,
0100
0000
0010
1000
0000
0001
0000
0010
,
0100
1000
0001
1000
0010
1000
0010
1000
,
0100
0000
0010
0001
0000
0101
0100
0001
,
0100
0000
0010
1000
0000
1100
0100
1000
,
0100
0000
0010
0001
0000
1000
0000
0010
,
0100
0001
1000
0001
0010
0020
0030
0001
,
0100
0000
0010
1000
0000
1100
0100
1000
,
0100
0000
0010
0001
0000
0101
0100
0001
,
0100
0000
0000
0010
0000
0000
1000
0000
0001
0000
1000
0000
0100
0000
0010
0000
,
0000
0001
1000
0000
0010
0000
0100
0000
,
0001
0000
0010
0000
0001
0000
0010
0000
0100
0000
0000
1000
0000
0000
0001
0000
,
0100
0010
1000
0200
0300
0010
0001
1000
,
1000
0000
0010
0000
1000
0000
0010
0000
0100
0000
0000
0001
0000
0000
1000
0000
,
0100
0010
0001
0200
0300
0010
1000
0001
,
0001
0000
0010
0000
0001
0000
0010
0000
0100
0000
0000
1000
0000
0000
0001
0000
,
0100
0010
1000
0200
0300
0010
0001
1000
,
1000
0000
0010
0000
1000
0000
0010
0000
0100
0000
0000
0001
0000
0000
0010
0000
,
0100
0000
1000
0010
0000
0100
0001
0000
,
0010
0100
0000
1000
0001
0100
0010
0100
,
0001
0010
0001
0000
1000
0000
0100
0000
0010
0000
0001
0000
1000
0000
0010
0000
,
0000
0110
0110
0000
0000
0000
0000
0000
;

//--------------- dance-single - ----------------
#NOTEDATA:;
#STEPSTYPE:dance-single;
#DESCRIPTION:;
#DIFFICULTY:Challenge;
#METER:15;
#RADARVALUES:0,0,0,0,0;
#NOTES:
0000
0000
0000
0000
,
0001
0000
0010
0001
1000
0001
0010
0000
0100
0000
0000
1000
0000
0000
0001
0000
,
0100
0001
0010
2000
3000
0010
0001
0100
,
0100
0000
0001
0010
0001
1000
0001
0000
0100
0000
0000
0010
0000
0000
1000
0000
,
0100
0010
2000
3002
0003
0100
1000
0010
,
0010
0000
1000
0100
1000
0001
1000
0000
0010
0000
0000
0100
0000
0000
0001
0000
,
1000
0100
0010
2000
3000
0010
0001
0100
,
0100
0000
0001
0010
0001
1000
0001
0000
0100
0000
0000
0010
0000
0000
0100
0000
,
0002
0000
1000
0010
0000
1000
0100
0000
,
0010
2003
0000
0010
0001
0100
0001
0010
,
3100
0000
1000
0010
0100
0001
1000
0001
,
0010
0100
0010
0001
1000
0001
0100
0010
,
1000
0000
0001
1000
0100
0010
0100
1000
,
0010
0000
0100
0001
0010
0000
2000
0000
3000
0000
0010
0000
0001
0000
1000
0000
,
0010
0000
0100
0000
0001
0010
0100
0000
,
1000
0000
0010
0100
0000
0001
1000
0100
,
0010
0001
0010
0001
0100
0001
1000
0100
,
1000
0010
0001
0010
1000
0200
0000
0310
,
0011
0000
0001
0100
0010
1000
0001
1000
,
0100
0010
0100
1000
0001
1000
0010
0100
,
0001
0010
0100
1000
0001
0100
0010
1000
,
0100
0000
0010
0001
0100
0000
2000
0000
3000
0000
0100
0000
0001
0000
1000
0000
,
0200
0000
0000
0000
0000
0310
0001
0100
,
0010
0100
0001
0010
0000
0100
1000
0001
,
1001
0000
1000
0000
1010
0010
0000
0110
,
0000
0100
1000
0100
0002
0000
0003
0000
,
0010
0000
0000
0001
1000
0000
0010
0100
,
0001
1000
0000
0100
0000
0010
0000
0001
,
0000
0000
1000
0000
0100
0000
0010
0000
0001
0000
0000
0100
0000
0000
0010
0000
,
1000
0000
0100
0000
0001
0000
0100
0000
0010
0000
0001
1000
0001
0100
0010
1000
,
0100
0000
0000
0010
0000
0000
0011
0000
0001
1000
0010
1000
0001
0000
0000
0000
,
0101
0000
0000
0100
0000
0000
0110
0000
0010
0000
1000
0000
0001
0000
1000
0000
,
1100
0000
0000
0100
0000
0000
0110
0000
0000
0000
0010
0000
0001
0000
0000
0000
,
0201
0000
0300
0120
0000
0000
2030
0000
,
3200
0000
0000
0000
00M0
0000
0000
000M
M000
00M0
0000
000M
M000
0000
00M0
0000
,
00M0
0000
000M
000M
M000
0000
00M0
0000
000M
0000
0000
0000
00M0
M000
0000
000M
,
M000
00M0
000M
0000
0000
M0MM
0000
0000
0000
M0MM
0000
0000
0000
0000
0000
0000
,
1300
0000
0001
0000
0000
0000
0100
0000
0010
1000
0001
0100
0010
0000
1000
0001
,
0010
0000
0000
0000
1000
0000
0010
0000
0000
0000
0001
0100
0010
0100
0001
1000
,
0100
0000
0000
0000
0001
0000
0100
0000
0000
0000
1000
0010
0100
0010
1000
0001
,
0010
0000
0100
1000
0000
0001
0000
0100
,
0010
0000
0100
0000
1000
0000
0100
0000
0001
0000
0020
0000
0000
0000
0031
1000
,
0010
0000
0000
0000
0001
0000
0010
0000
0000
0000
1000
0100
0010
0100
1000
0001
,
0100
0000
0000
0000
1000
0000
0100
0000
0000
0000
0001
0010
0100
0010
0001
1000
,
0010
0000
0100
0001
0000
1000
0000
0010
,
0100
0000
0001
0000
1000
0000
0001
0100
0001
1000
0001
0100
0001
0000
1000
0001
,
0010
0000
0000
0000
1000
0000
0010
0000
0000
0000
0001
0100
0010
0100
0001
1000
,
0100
0000
0000
0000
0001
0000
0100
0000
0000
0000
1000
0010
0100
0010
1000
0001
,
0010
0000
0100
1000
0000
0001
0000
0100
,
0010
0000
0100
0000
1000
0000
0100
0000
0001
0000
0020
0000
0000
0000
0031
1000
,
0010
0000
0000
0000
0001
0000
0010
0000
0000
0000
1000
0100
0010
0100
1000
0001
,
0100
0000
0000
0000
1000
0000
0100
0000
0000
0000
0001
0010
0100
0010
0001
1000
,
0010
0000
0000
0100
0000
0000
0001
0000
1000
0000
0100
0000
1000
0000
0001
0000
,
0000
0000
0100
0000
0010
0000
0000
0000
1000
0000
0000
0001
0000
0000
0100
0000
,
0001
0000
0010
0100
1000
0100
0010
0000
0001
0000
0000
1000
0000
0000
0100
0000
,
0010
0001
0100
2000
3000
0100
0001
0010
,
0001
0000
0100
0010
1000
0010
0100
0000
0001
0000
0000
1000
0000
0000
0001
0000
,
0010
0100
0002
2003
3000
0010
0001
0100
,
0100
0000
0001
0010
0001
1000
0001
0000
0100
0000
0000
0010
0000
0000
1000
0000
,
0010
1000
0100
0002
0003
0100
1000
0010
,
0010
0000
1000
0100
1000
0001
1000
0000
0010
0000
0000
0100
0000
0000
0001
0000
,
0010
0000
0001
0100
0000
0001
0010
0000
,
0100
0000
1000
0000
0000
0000
0010
0000
0001
0000
0010
0000
1000
0000
0001
0010
,
0100
1000
0001
0000
1000
0000
0001
0100
0010
0000
1000
0000
0001
0000
0101
0000
,
0000
1010
1010
0000
0000
0000
0000
0000
;
