#TITLE:Airesta;
#SUBTITLE:;
#ARTIST:SM-MEGAtive;
#TITLETRANSLIT:;
#SUBTITLETRANSLIT:;
#ARTISTTRANSLIT:;
#GENRE:;
#CREDIT:;
#BANNER:Airesta.png;
#BACKGROUND:Airesta-bg.png;
#LYRICSPATH:;
#CDTITLE:cdtitle.png;
#MUSIC:Airesta.ogg;
#OFFSET:0.000000;
#SAMPLESTART:83.199997;
#SAMPLELENGTH:8.533000;
#SELECTABLE:YES;
#BPMS:0.000000=225.000000
;
#STOPS:
;
#BGCHANGES:;
#KEYSOUNDS:;
#ATTACKS:;

//---------------dance-single - ----------------
#NOTES:
     dance-single:
     :
     Medium:
     12:
     0.517238,0.715533,0.111802,0.455808,0.025800,421.000000,408.000000,13.000000,53.000000,0.000000,0.000000,0.517238,0.715533,0.111802,0.455808,0.025800,421.000000,408.000000,13.000000,53.000000,0.000000,0.000000:
0000
0000
0000
0000
,
0000
0000
0000
0000
,
0000
0000
0000
0000
,
0000
0000
0000
0000
,
0000
0000
0000
0000
,
0000
0000
0000
0000
,
1000
0000
0010
0000
,
0100
0000
0000
0000
,
0001
0000
0010
0000
,
0100
0000
0000
0000
,
2001
0000
0001
0000
,
0001
0000
0001
3000
,
0012
0000
0010
0000
,
0010
0000
0010
0003
,
2010
0000
0010
0000
,
0010
0000
0010
3000
,
0102
0000
0100
0000
,
0100
0000
0100
0003
,
1001
0001
0001
0001
,
1000
0000
1000
0000
1000
0000
1000
0100
,
0010
0010
0100
0100
,
1000
1000
0001
0001
,
1000
0010
1000
0000
0001
0010
0100
0000
,
0010
0001
1000
0000
0001
0100
0010
0000
,
0100
0001
1000
0001
0010
0000
0100
0000
,
2000
0020
0000
3030
,
2002
0000
0000
0000
,
0000
0000
0000
3000
,
1003
0000
1000
0000
0010
0100
0000
0010
,
0001
0000
0010
0100
0000
0000
0010
1000
,
0001
0000
0001
0010
0000
1000
0010
0100
,
1000
0000
1000
0001
0100
0010
1000
0001
,
1000
0000
1000
0000
0100
0010
0000
0100
,
0001
0000
0100
0010
0000
0000
0100
1000
,
0001
0000
0001
0100
0000
1000
0100
0010
,
1000
0000
1000
0001
0010
0100
1000
1000
,
0001
0000
0001
0000
0100
0010
0000
0100
,
1000
0000
0100
0010
0000
0000
0100
0001
,
1000
0000
1000
0100
0000
0001
0100
0010
,
0001
0000
0001
1000
0010
0100
0001
1000
,
0001
0000
0001
0000
0010
0100
0000
0010
,
1000
0000
0010
0100
0000
0000
0010
0001
,
1000
1000
0100
0100
,
0010
0001
1000
0001
0100
0010
1000
0001
,
0020
0000
0100
0000
0000
0100
0000
0000
,
0001
0000
0000
0001
0000
0000
0130
0010
,
0002
0000
1000
0000
0000
0100
0000
0103
,
0002
0203
0320
2030
,
3200
0000
0010
0000
0000
0010
0000
0000
,
1000
0000
0000
1000
0000
0000
0310
0100
,
2000
0000
0001
0000
0000
0010
0000
3010
,
2000
3200
0320
0032
,
1003
1000
0010
0010
,
0100
0000
0100
0000
0001
1000
0001
1000
,
0100
0000
0010
0100
1000
0000
0001
0000
,
0100
0010
0100
0010
1000
0001
1000
0000
,
0001
0010
0100
1000
0001
0010
0100
1000
,
0001
0100
0010
1000
0001
0100
0020
0000
,
1030
0001
0020
0000
0130
1000
0002
0000
,
0200
0000
0000
0303
,
2001
0001
0001
0001
,
3001
0010
0100
1000
0020
0000
0000
0000
,
0130
0001
0000
0001
1000
0000
0100
0010
,
0000
0010
0100
0000
1001
0000
0000
0000
,
1000
0000
0000
0010
0100
0001
0000
0001
,
0000
1000
0100
0000
0110
0000
0010
0000
,
0001
1000
0000
1000
0010
0000
0100
0001
,
0000
0100
0001
0000
1001
0000
0000
0000
,
1100
0000
0000
0100
0010
0001
0000
1000
,
0010
0000
0000
0010
0000
0000
0010
0000
0100
0000
0000
0100
0000
0000
0100
0000
,
0002
0003
0000
1000
,
2001
0001
0001
0001
,
3001
0000
0000
0000
0010
0000
0000
0100
0000
0000
0100
0000
0010
0000
0000
0000
,
0001
0000
0000
0001
0000
0000
0001
0000
1000
0000
0000
1000
0000
0000
1000
0000
,
0001
0100
0000
0100
0000
0010
1000
0000
,
0001
0000
0000
0000
0010
0000
0000
0000
0100
0000
0000
0100
0000
0000
0100
0000
,
0010
0001
1000
0010
0100
0001
1000
0100
,
0020
0000
0000
0000
,
0031
0000
0100
0010
1000
0000
0100
1000
,
0000
0010
1000
0000
0100
0010
0002
0000
,
1003
0100
1000
0100
0001
0000
0100
0010
,
0000
0100
0001
0000
0100
0010
0002
0000
,
1003
0010
1000
0010
0001
0000
0010
0100
,
0000
0010
0001
0000
0010
0100
0002
0000
,
1003
0100
1000
0100
0001
0000
0100
0010
,
0000
0100
0001
0000
0100
0010
0002
0000
,
1003
0010
0100
0000
0001
0010
0000
0001
,
0100
0000
0001
0010
0000
0100
1000
0000
,
0001
0100
0010
0000
1000
0100
0000
1000
,
0010
0000
1000
0100
0000
0010
0001
0000
,
1000
0010
0100
0000
0001
0010
0000
0001
,
0100
0000
0001
0010
0000
0100
1000
0000
,
0002
0000
0000
0000
,
0000
0000
0000
0003
,
2010
0000
0000
0000
,
3200
0000
0000
0000
,
0320
0000
0000
0000
,
0032
0000
0203
0000
,
0320
0000
2030
0000
,
3200
0000
0320
0000
,
0032
2003
3020
0230
,
0302
0023
0230
2300
,
3020
0000
0000
0000
,
0200
0000
0000
0000
,
0330
0000
0000
0000
;

//---------------dance-single - ----------------
#NOTES:
     dance-single:
     :
     Hard:
     17:
     0.877216,1.207461,0.223604,0.137602,0.640711,714.000000,688.000000,26.000000,16.000000,0.000000,0.000000,0.877216,1.207461,0.223604,0.137602,0.640711,714.000000,688.000000,26.000000,16.000000,0.000000,0.000000:
0000
0000
0000
0000
,
0000
0000
0000
0000
,
0000
0000
0000
0000
,
0000
0000
0000
0000
,
0000
0000
0000
0000
,
0000
0000
0000
0000
,
0001
0100
0010
1000
0100
0000
0001
0000
,
0001
0000
0100
0010
0100
1000
0001
0100
,
0010
1000
0001
0100
0010
0000
0001
0000
,
0001
0000
0010
0100
0010
1000
0001
0000
,
1001
0000
0000
0000
1000
0001
1000
0000
0010
0000
0000
0000
0100
0000
0000
0000
,
0100
0000
0000
0000
0010
1000
0010
0000
0100
0000
0001
0000
1000
0000
0001
0000
,
1001
0000
0000
0000
1000
0001
1000
0000
0100
0000
0000
0000
0010
0000
0000
0000
,
0010
0000
0000
0000
0100
1000
0100
0000
0010
0000
0001
1000
0001
0000
0000
0000
,
1001
0000
0000
0000
1000
0001
1000
0000
0010
0000
0000
0000
0100
0000
0000
0000
,
0100
0000
0000
0000
0010
1000
0010
0000
0100
0000
0001
0000
1000
0000
0001
0000
,
1001
0000
0000
0000
1000
0001
1000
0000
0100
0000
0000
0000
0010
0000
0000
0000
,
0010
0000
0000
0000
0100
1000
0100
0000
0010
0000
0001
1000
0001
0000
0000
0000
,
0101
0100
0100
0100
,
0010
0000
0010
0000
0010
0000
0010
1000
,
0100
0100
0100
0100
,
0010
0010
0010
0010
,
1001
0001
0100
0010
1000
0001
0010
0100
,
1000
1000
0001
0100
0010
1000
0001
1000
,
0100
0010
0001
0100
0010
1000
0100
0010
,
0001
0000
0000
0000
0100
0010
0100
0000
0001
0000
1000
0100
1000
0000
0000
0000
,
2002
0000
0000
0000
,
0000
0000
0000
3003
,
1001
0000
0000
0000
0001
0000
1000
0010
1000
0010
1000
0000
0010
0100
0010
0100
,
0010
0000
0100
0001
0100
0001
0100
0000
0001
1000
0001
1000
0001
0000
0010
0000
,
0010
0000
0000
0000
0010
0000
0100
1000
0100
1000
0100
0000
1000
0001
1000
0001
,
0200
0000
1300
0100
0010
0100
0001
0001
,
1000
0000
0000
0000
1000
0000
0001
0010
0001
0010
0001
0000
0010
0100
0010
0100
,
0010
0000
0100
1000
0100
1000
0100
0000
1000
0001
1000
0001
1000
0000
0010
0000
,
0010
0000
0000
0000
0010
0000
0100
0001
0100
0001
0100
0000
0001
1000
0001
1000
,
0200
0000
0301
0100
0010
0100
1000
1000
,
0001
0000
0000
0000
0001
0000
1000
0010
1000
0010
1000
0000
0010
0100
0010
0100
,
0010
0000
0100
0001
0100
0001
0100
0000
0001
1000
0001
1000
0001
0000
0010
0000
,
0010
0000
0000
0000
0010
0000
0100
1000
0100
1000
0100
0000
1000
0001
1000
0001
,
0200
0000
1300
0100
0010
0100
0001
0001
,
1000
0000
0000
0000
1000
0000
0001
0010
0001
0010
0001
0000
0010
0100
0010
0100
,
0010
0000
0100
1000
0100
1000
0100
0000
1000
0001
1000
0001
1000
0000
0010
0000
,
1010
0110
0101
1001
,
1000
0100
0001
1000
0010
0100
1000
1000
,
0001
0000
0001
0000
0000
0100
0010
0000
,
1000
0000
0000
1000
0000
0000
1000
0100
,
0010
0000
0010
0000
0000
0100
0000
0100
,
1000
1000
0001
0001
,
1000
0000
1000
0000
0000
0010
0100
0000
,
0001
0000
0000
0001
0000
0000
0001
0010
,
0100
0000
0100
0000
0000
0010
0000
0010
,
0001
0001
1000
1000
,
1001
0001
0001
0001
,
0100
0000
0100
0000
0100
0010
1000
1000
,
0001
0000
0010
0100
0010
0000
0001
0000
,
1000
0010
1000
0010
0100
0001
0100
0010
,
1000
0001
0010
0001
1000
0010
0100
0010
,
1000
0000
0100
0000
0010
0000
0100
0000
1000
0000
0001
0000
0100
0010
0100
0010
,
0100
0000
0001
0000
1000
0001
1000
0001
1000
0000
0100
0000
0010
0001
0010
0001
,
1000
0010
1000
0010
0100
0001
0100
0001
1000
0000
0100
0000
0010
0000
0001
0000
,
0200
0010
0010
0010
,
0310
0000
1000
0000
0100
0000
0010
0000
0001
0100
0001
0100
0001
0100
0001
0100
,
0002
1000
0000
0013
0001
0100
0010
1000
,
0100
0010
0001
0100
0010
1000
0100
0000
,
0101
0000
0001
0100
1000
0010
0100
0000
,
1100
0000
1000
0100
0010
0100
0001
0000
,
2000
0001
0000
3100
1000
0010
0100
0001
,
0010
0100
1000
0010
0100
0001
0010
0000
,
1010
0000
1000
0010
0001
0100
0010
0000
,
0011
0000
0001
0010
0100
0010
1000
0000
,
0002
0003
0000
1000
,
2001
0001
0001
0001
,
3001
0000
0000
0000
0101
0000
0000
0100
0000
0000
0010
0000
1000
0000
0000
0000
,
0100
0000
0000
0100
0000
0000
0100
0000
0110
0000
0000
0011
0000
0000
1001
0000
,
2000
0001
0000
3010
1000
0100
1100
0000
,
1000
0000
0001
0000
0100
0000
0000
0000
0110
0000
0000
1010
0000
0000
1001
0000
,
0001
0000
0010
0000
0100
0000
1000
0000
0010
0100
0010
0100
0001
1000
0001
1000
,
0200
0000
0000
0000
,
1300
0000
0000
0001
0010
0000
0100
0000
0001
0000
0000
0100
0000
0000
1000
0000
,
0001
0000
0000
0100
0010
0000
0100
0000
1000
0000
0000
0100
0000
0000
0010
0000
,
0100
0000
0000
0001
1000
0000
0100
0000
0001
0000
0000
0100
0000
0000
0010
0000
,
0100
0000
0000
1000
0010
0000
0100
0000
1000
0000
0000
0100
0000
0000
0010
0000
,
0100
0000
0000
0001
0010
0000
0100
0000
0001
0000
0000
0100
0000
0000
1000
0000
,
0001
0000
0000
0100
0010
0000
0100
0000
1000
0000
0000
0100
0000
0000
0010
0000
,
0100
0000
0000
0001
1000
0000
0100
0000
0001
0000
0000
0100
0000
0000
0010
0000
,
0100
0000
0000
1000
0010
0000
0100
0000
1000
0000
0000
0100
0000
0000
0001
0000
,
0010
0000
0100
0000
1000
0001
1000
0000
0010
0000
0100
0001
0100
0000
0010
0000
,
1000
0001
1000
0000
0100
0000
0010
0001
0010
0000
0100
0000
1000
0001
1000
0000
,
0010
0000
0100
0000
0001
1000
0001
0000
0010
0000
0100
1000
0100
0000
0010
0000
,
0001
1000
0001
0000
0100
0000
0010
1000
0010
0000
0100
0000
0001
1000
0001
0000
,
0010
0000
0100
0000
1000
0001
1000
0000
0010
0000
0100
0001
0100
0000
0010
0000
,
1000
0001
1000
0000
0100
0000
0010
0001
0010
0000
0100
0000
1000
0001
1000
0000
,
0020
0000
0000
0000
,
0230
0000
0000
0000
,
0301
0000
0000
0001
0000
0000
0001
0000
0000
0001
0000
0000
0001
0000
1000
0100
,
0010
0000
0000
0010
0000
0000
0010
0000
0000
0010
0000
0000
0010
0000
0001
1000
,
0010
0000
0000
0010
0000
0000
0010
0000
0000
0010
0000
0000
0010
0000
0100
0001
,
1000
0000
0000
1000
0000
0000
1000
0000
0100
0000
0000
0100
0000
0000
0010
0000
,
0001
0000
0100
0000
0010
1000
0010
0000
0100
0000
0001
1000
,
0100
0000
0010
0000
0100
0010
0001
1000
0001
0100
0010
0100
,
0001
1000
0100
0010
0001
1000
0010
0100
0001
1000
0100
0010
,
0001
1000
0001
0100
0010
0100
0001
1000
0001
0010
0100
0010
,
0002
0000
0000
0000
,
0200
0000
0000
0000
,
0303
0000
0000
0000
;

//---------------dance-single - ----------------
#NOTES:
     dance-single:
     :
     Challenge:
     19:
     1.178221,1.475786,0.146203,0.094602,1.436226,959.000000,942.000000,17.000000,11.000000,0.000000,0.000000,1.178221,1.475786,0.146203,0.094602,1.436226,959.000000,942.000000,17.000000,11.000000,0.000000,0.000000:
// measure 0
0000
0000
0000
0000
,  // measure 1
0000
0000
0000
0000
,  // measure 2
0000
0000
0000
0000
,  // measure 3
0000
0000
0000
0000
,  // measure 4
0000
0000
0000
0000
,  // measure 5
0000
0000
0000
0000
,  // measure 6
1000
0100
0010
0001
0100
0000
1000
0000
,  // measure 7
0100
0000
0010
0100
0010
1000
0001
0010
,  // measure 8
0100
1000
0001
0100
0010
0000
0001
0000
,  // measure 9
0010
0000
0100
0010
1000
0001
0010
0000
,  // measure 10
0011
0000
0000
0000
1000
0001
1000
0001
0100
0000
0000
0000
0010
0000
0000
0000
,  // measure 11
0001
0000
0000
0000
0010
0100
0010
0100
0001
0000
1000
0000
0100
0000
0010
0000
,  // measure 12
0110
0000
0000
0000
0100
1000
0100
1000
0001
0000
0000
0000
0100
0000
0000
0000
,  // measure 13
1000
0000
0000
0000
0100
0010
0100
0010
1000
0001
1000
0100
0010
0000
0000
0000
,  // measure 14
1100
0000
0000
0000
1000
0001
1000
0001
0100
0000
0000
0000
0010
0000
0000
0000
,  // measure 15
0001
0000
0000
0000
0010
0100
0010
0100
0001
0000
1000
0000
0100
0000
0010
0000
,  // measure 16
0011
0000
0000
0000
0001
1000
0001
1000
0010
0000
0000
0000
0100
0000
0000
0000
,  // measure 17
1000
0000
0000
0000
0100
0010
0100
0010
1000
0001
0010
0100
1000
0000
0000
0000
,  // measure 18
1001
0000
0000
0000
0001
1000
0010
1000
0100
0000
0000
0000
0010
0000
0000
0000
,  // measure 19
0010
0000
0000
0000
0100
1000
0010
1000
0001
0000
0100
0000
0010
0000
0010
0000
,  // measure 20
1000
0000
0000
0000
1000
0001
0100
0001
0010
0000
0000
0000
0100
0000
0000
0000
,  // measure 21
0100
0000
0000
0000
0010
0001
0100
0001
1000
0000
0010
0100
0001
0000
0000
0000
,  // measure 22
1000
0010
0100
0001
0010
0100
0010
0001
,  // measure 23
0100
0010
1000
0010
0100
0001
0010
0100
,  // measure 24
1000
0001
0100
0010
1000
0001
1000
0100
0010
0001
1000
0001
0100
0010
1000
0001
,  // measure 25
0010
0000
0000
0000
0100
1000
0001
1000
0010
0100
0001
1000
0100
0000
0000
0000
,  // measure 26
0022
0000
0000
0000
,  // measure 27
0000
0000
0000
0033
,  // measure 28
0001
0000
1000
0000
0100
0000
0010
0001
1000
0001
0100
0000
0010
1000
0001
1000
,  // measure 29
0100
0000
0010
0001
1000
0001
0100
0000
0010
1000
0001
1000
0100
0000
0010
0000
,  // measure 30
0110
0000
0000
0000
0100
0000
0100
1000
0001
1000
0010
0000
1000
0010
0100
0010
,  // measure 31
1000
0001
0010
0100
1000
0010
1000
0001
0100
0001
0010
0100
1000
0001
0100
0010
,  // measure 32
1000
0000
0001
0000
0010
0000
0100
1000
0001
1000
0010
0000
0100
0001
1000
0001
,  // measure 33
0010
0000
0100
1000
0001
1000
0010
0000
0100
0001
1000
0001
0010
0000
0100
0000
,  // measure 34
0110
0000
0000
0000
0010
0000
0010
0100
1000
0001
0100
0000
0001
0100
0010
0100
,  // measure 35
0001
1000
0100
0010
0001
0100
0001
1000
0010
1000
0100
0010
0001
1000
0010
1000
,  // measure 36
0001
0000
1000
0000
0100
0000
0010
0001
1000
0001
0100
0000
0010
1000
0001
1000
,  // measure 37
0100
0000
0010
0001
1000
0001
0100
0000
0010
1000
0001
1000
0100
0000
0010
0000
,  // measure 38
0110
0000
0000
0000
0100
0000
0100
1000
0001
1000
0010
0000
1000
0010
0100
0010
,  // measure 39
1000
0001
0010
0100
1000
0010
1000
0001
0100
0001
0010
0100
1000
0001
0100
0010
,  // measure 40
1000
0000
0001
0000
0010
0000
0100
1000
0001
1000
0010
0000
0100
0001
1000
0001
,  // measure 41
0010
0000
0100
1000
0001
1000
0010
0000
0100
0001
1000
0001
0010
0000
0100
0000
,  // measure 42
0110
0000
0110
0010
0011
0000
1001
0001
,  // measure 43
1000
0001
0100
0010
1000
0100
1000
0001
0010
0001
0100
0010
1000
0001
0010
0000
,  // measure 44
0011
0000
0001
0000
0010
0100
0010
0000
,  // measure 45
1000
0000
0010
0100
0010
0000
0001
0001
,  // measure 46
1000
0000
1000
0000
0010
0100
0000
0100
,  // measure 47
0100
0010
1000
0100
,  // measure 48
0010
0000
0010
0000
0100
0010
0100
0000
,  // measure 49
0001
0000
0100
0010
0100
0000
1000
1000
,  // measure 50
0001
0000
0001
0000
0001
0010
0100
0010
,  // measure 51
0100
1000
0010
0100
,  // measure 52
0001
1000
0100
0000
0010
0001
0100
0000
,  // measure 53
0010
0000
1000
0000
0001
0000
0000
0000
0010
0000
0010
0000
0100
1000
0001
1000
,  // measure 54
0100
0000
1000
1000
0010
0000
0100
0000
,  // measure 55
0010
0000
0010
0000
1000
0000
1000
0000
0001
0000
0001
0000
0010
0100
0010
0100
,  // measure 56
1000
0001
0100
0001
0010
0100
0010
0001
,  // measure 57
1000
0000
0010
0000
1000
0000
0100
0000
0010
0000
0001
0000
1000
0001
1000
0001
,  // measure 58
0100
0000
0010
0000
0100
0010
0100
0010
1000
0000
0010
0000
1000
0001
1000
0001
,  // measure 59
0010
0100
1000
0001
1000
0010
0100
0001
1000
0001
0010
0100
1000
0001
0100
0010
,  // measure 60
1000
1000
1000
1000
,  // measure 61
1000
0000
0100
0000
0010
0000
0001
0000
1000
0001
0100
0010
1000
0001
0010
0100
,  // measure 62
2000
0000
0100
0000
0000
0000
3001
0000
0100
0001
1000
0001
0010
0100
0010
0001
,  // measure 63
1000
0001
0100
0010
0100
0001
1000
0001
0010
0100
1000
0001
0100
0010
1000
0001
,  // measure 64
0010
0100
0010
0001
1000
0010
0100
0001
1000
0100
1000
0001
0100
0010
1000
0001
,  // measure 65
0010
0100
1000
0001
1000
0010
0100
0001
1000
0100
0010
0100
1000
0001
0100
0010
,  // measure 66
2000
0000
0100
0000
0000
0000
3001
0000
0100
0001
1000
0001
0010
0100
0010
0001
,  // measure 67
1000
0001
0100
0010
0100
0001
1000
0001
0010
0100
1000
0001
0100
0010
1000
0001
,  // measure 68
0010
0100
0010
0001
1000
0010
0100
0001
1000
0100
1000
0001
0100
0010
1000
0001
,  // measure 69
0010
0100
1000
0001
1000
0010
0100
0001
1000
0100
0010
0100
1000
0001
0100
0010
,  // measure 70
2000
3000
0000
1000
,  // measure 71
2100
0100
0100
0100
,  // measure 72
3001
1000
0010
0100
0001
0010
0100
1000
0001
1000
0010
0100
0001
1000
0100
1000
,  // measure 73
0001
0100
0001
0010
0100
1000
0010
1000
0001
0010
0001
1000
0010
1000
0001
0010
,  // measure 74
0200
0000
0010
0000
0000
0000
1300
0000
0100
1000
0001
1000
0010
0100
0001
1000
,  // measure 75
0001
0010
0100
1000
0010
0100
0001
1000
0100
0000
0000
1100
0000
0000
1001
0000
,  // measure 76
0001
0000
0100
0000
0010
0000
1000
0000
0100
0010
0001
1000
0010
0100
0001
1000
,  // measure 77
0200
0000
0000
0000
,  // measure 78
1300
0000
0000
0100
0010
0000
0010
0000
0001
1000
0010
0000
0100
0000
0010
1000
,  // measure 79
0001
0000
0010
0000
0100
0010
0001
0000
1000
0000
1000
0000
0010
0100
0001
1000
,  // measure 80
0100
0000
0010
0000
0010
0000
0100
0000
1000
0001
0100
0000
0010
0000
0100
0001
,  // measure 81
1000
0000
0100
0000
0010
0100
1000
0000
0001
0000
0001
0000
0100
0010
1000
0001
,  // measure 82
0010
0000
0100
0000
0100
0000
0010
0000
0001
1000
0010
0000
0100
0000
0001
1000
,  // measure 83
0100
0000
0010
0000
0001
1000
0010
0000
0100
0000
0100
0000
0010
1000
0001
1000
,  // measure 84
0100
0000
0010
0000
0010
0000
0100
0000
1000
0001
0100
0000
0010
0000
1000
0001
,  // measure 85
0010
0000
0100
0000
1000
0001
0100
0000
0010
0000
0010
0000
0100
0001
0010
0001
,  // measure 86
1000
0100
1000
0001
0100
0010
0100
0001
1000
0001
0010
0100
0010
0001
1000
0010
,  // measure 87
0100
0001
1000
0100
1000
0001
0010
0001
0100
0010
1000
0001
1000
0100
0010
0001
,  // measure 88
1000
0010
1000
0001
0010
0100
0010
0001
1000
0001
0100
0010
0100
0001
1000
0100
,  // measure 89
0010
0001
1000
0010
1000
0001
0100
0001
0010
0100
1000
0001
1000
0010
0100
0001
,  // measure 90
1000
0100
1000
0001
0100
0010
0100
0001
1000
0001
0010
0100
0010
0001
1000
0010
,  // measure 91
0100
0001
1000
0100
1000
0001
0010
0001
0100
0010
1000
0001
1000
0100
0010
0001
,  // measure 92
0200
0000
0000
0000
,  // measure 93
0000
0000
0000
0000
,  // measure 94
0301
0000
0000
0001
0000
0000
0001
0000
0000
0001
0000
0000
0010
0000
0001
1000
,  // measure 95
0010
0000
0000
0010
0000
0000
0010
0000
0000
0010
0000
0000
0100
0000
0010
1000
,  // measure 96
0001
0000
0000
0001
0000
0000
0001
0000
0000
0001
0000
0000
0010
0000
0001
0100
,  // measure 97
0010
0000
0000
0010
0000
0000
0100
0001
0010
0000
0000
0010
0000
0000
0001
1000
,  // measure 98
0010
0000
0100
0000
0001
1000
0100
0000
1000
0000
0001
1000
,  // measure 99
0010
0000
0100
0000
0010
1000
0001
0010
0100
1000
0001
1000
,  // measure 100
0010
0100
0001
0010
0100
1000
0010
0100
0010
1000
0001
1000
,  // measure 101
0100
0010
0001
0100
0010
0100
0001
0010
0100
1000
0010
0100
,  // measure 102
0002
0000
0000
0000
,  // measure 103
0020
0000
0000
0000
,  // measure 104
0033
0000
0000
0000
;
