#TITLE:Aerial Skydive;
#SUBTITLE:;
#ARTIST:Dirty Androids;
#TITLETRANSLIT:;
#SUBTITLETRANSLIT:;
#ARTISTTRANSLIT:;
#GENRE:;
#CREDIT:;
#MUSIC:Aerial Skydive.ogg;
#BANNER:Aerial Skydive-bn.png;
#BACKGROUND:;
#CDTITLE:;
#SAMPLESTART:23.981;
#SAMPLELENGTH:21.943;
#SELECTABLE:YES;
#OFFSET:-0.667;
#BPMS:0.000=175.000
,67.000=350.000
,68.000=175.000
,196.000=87.500
,212.000=175.000
;
#STOPS:67.000=0.171;
#DISPLAYBPM:87.500:175.000;
#BGCHANGES:;
#FGCHANGES:;

//--------------- dance-single - ----------------
#NOTES:
     dance-single:
     :
     Beginner:
     4:
     0,0,0,0,0:
0000
0000
0000
0000
,
0000
0000
0000
0000
,
0000
0000
0000
0000
,
0000
0000
0000
0000
,
0000
0000
0000
0000
,
0000
0000
0000
0000
,
0000
0000
0000
0000
,
0000
0000
0000
0000
,
0010
0000
0000
0000
,
0100
0000
0000
0000
,
0001
0000
0000
0000
,
1000
0000
0000
0000
,
0100
0000
0100
0000
,
0010
0000
0010
0000
,
0001
0000
0001
0000
,
1000
0000
0000
0000
,
0010
0000
0000
0110
,
0000
0001
0000
0000
,
0100
0000
0000
0000
,
0010
0010
0000
0000
,
1000
0000
0000
0000
,
0100
0100
0000
0000
,
0010
0000
0000
0000
,
0001
0001
0000
0100
,
0100
0000
0000
0010
,
0010
0000
0000
1000
,
1000
0000
0000
0100
,
0100
0000
0000
0010
,
0010
0000
0000
0001
,
0001
0000
1000
0000
,
0010
0000
0100
0000
,
0001
0000
0010
0000
,
0001
0000
1000
0000
,
2002
0000
3003
0000
,
0220
0000
0330
0000
,
2002
0000
3003
0000
,
0220
0000
0330
0000
,
2002
0000
3003
0000
,
0220
0000
0330
0000
,
2002
0000
3003
0000
,
0220
0000
0330
0000
,
0001
0001
0000
1000
,
1000
1000
0000
0010
,
0010
0010
0000
0100
,
0100
0100
0000
0001
,
0001
0001
0000
1000
,
1000
1000
0000
0100
,
0100
0100
0000
0010
,
0010
0000
0000
0000
,
2002
3003
0000
0110
,
0000
1001
0000
0110
,
0000
1001
0000
0110
,
0000
1001
0000
0110
,
0002
0000
0003
0000
,
2000
0000
3000
0000
,
0020
0000
0030
0000
,
0200
0000
0300
0000
,
0002
0000
0003
0000
,
2000
0000
3000
0000
,
0100
0000
0000
0010
,
0010
0000
0000
0001
,
0001
0001
0000
0100
,
0000
0010
0000
1000
,
1000
1000
0000
0001
,
0000
0010
0000
0100
,
0100
0100
0000
0010
,
0000
0001
0000
1000
,
1000
1000
0000
0010
,
0000
0100
0000
0001
,
0001
0001
0000
0010
,
0000
0100
0000
0010
,
0010
0000
0000
0100
,
0100
0000
0000
1000
,
1000
0000
0000
0001
,
0001
0000
0000
0100
,
0100
0000
0000
0010
,
0010
0000
0000
0220
,
0330
0000
0000
0000
;

//--------------- dance-single - ----------------
#NOTES:
     dance-single:
     :
     Easy:
     9:
     0,0,0,0,0:
0000
0000
0000
0000
,
0000
0000
0000
0000
,
0000
0000
0000
0000
,
0000
0000
0000
0000
,
0000
0000
1000
0000
0000
1000
0000
0000
,
1000
0000
0000
0001
0000
0000
0001
0000
,
0100
0000
0000
0100
0000
0000
0100
0000
,
0010
0000
0000
0010
0000
0000
0010
0000
,
1000
0000
0001
0000
0000
0010
0000
0000
,
0001
0000
0000
1000
0000
0000
0010
0000
,
0100
0000
0000
0010
0000
0000
1000
0000
,
0001
0000
0000
0010
0000
0000
0001
0000
,
0100
0000
0010
0000
0000
0010
0000
0000
,
1000
0000
0000
1000
0000
0000
0100
0000
,
0010
0000
0001
0010
0000
0001
1000
0000
,
0001
0000
0000
1001
0000
0000
1100
0000
,
1000
0000
0001
0000
0100
0010
0200
0000
,
0300
0000
2020
3030
0000
0202
0303
0000
,
0022
0033
0000
2002
3003
0000
1010
0000
,
0010
0000
0100
0010
0000
0100
0010
0000
,
0100
0000
0001
1000
0000
0001
1000
0000
,
0100
0000
0022
0033
0000
2002
3003
0000
,
0202
0303
0000
2002
3003
0000
1100
0000
,
1000
0000
0001
0100
0000
0001
0100
0000
,
0010
0000
1000
0001
0000
1000
0001
0000
,
0010
0000
0220
0330
0000
2200
3300
0000
,
0202
0303
0000
2200
3300
0000
0101
0000
,
0001
0000
0010
0100
0000
0010
0100
0000
,
1000
0000
0001
0100
0000
0001
0100
0000
,
0010
0000
2020
3030
0000
0202
0303
0000
,
2020
3030
0000
0022
0033
0000
0110
0000
,
0100
0000
1000
0001
0000
0100
0001
0000
,
0010
0000
0001
0000
1000
0001
1000
0000
,
0020
0100
2030
0001
,
3200
0000
0010
0000
0000
1300
0100
0000
,
0020
0001
0230
0001
,
2300
0000
0010
0000
0000
3010
1000
0000
,
0002
0010
0203
0001
,
0320
0000
1000
0000
0000
1030
0010
0000
,
2000
0010
3002
0010
,
0203
0000
0000
0310
0000
0000
0100
0000
,
0001
0000
1001
0000
0000
0100
1000
0000
,
0001
0000
0101
0000
0000
0100
0010
0000
,
1000
0000
1010
0000
0000
1000
0001
0000
,
0010
0000
0110
0000
0000
0010
0001
0000
,
0100
0000
0110
0000
0000
0010
1000
0000
,
0010
0000
0101
0000
0000
0001
1000
0000
,
0100
0000
0110
0000
0000
0010
0001
0000
,
1001
0000
0000
1001
0000
0000
0100
0000
,
0020
0000
1000
0000
0100
0030
1010
0000
,
2000
0000
0100
0000
0001
3000
1100
0000
,
0200
0000
0010
0000
1000
0300
0110
0000
,
0002
0000
0100
0000
1000
0013
0011
0000
,
0200
0300
0000
0000
1000
0000
0000
0000
0000
0000
1000
0000
0000
0000
0000
0000
,
0001
0000
0000
0001
0000
0000
0001
0000
,
0100
0000
0000
0100
0000
0000
0010
0000
,
0010
0000
0000
1000
0000
0000
0001
0000
,
1000
0000
0100
0000
0000
0010
0000
0000
,
0001
0000
0000
0010
0000
0000
0100
1000
,
0100
0000
0000
0110
0000
0000
1001
0000
,
0001
0000
0100
0001
0000
1000
0001
0000
,
1000
0100
2000
3000
0000
2002
3003
0000
,
0220
0330
0000
0202
0303
0000
0011
0000
,
0010
0000
0100
1000
0000
0001
1000
0000
,
0001
0000
0100
0010
0000
0100
0001
0000
,
0010
0100
0010
0000
0000
0022
0033
0000
,
2002
3003
0000
0202
0303
0000
0110
0000
,
0010
0000
1000
0010
0000
0100
0001
0000
,
1000
0000
0100
0010
0000
0100
1000
0000
,
0001
0100
0002
0000
2003
0000
3100
0000
,
1000
0001
0100
0010
,
1000
0000
0010
0200
0300
0010
0100
0000
,
0001
0000
0010
0200
0300
0010
0100
0000
,
1000
0100
2000
0000
3002
0000
0103
0000
,
0010
1000
0020
0000
0230
0000
0301
0000
,
1000
0000
0100
2000
3000
0001
0100
0000
,
0101
0000
0000
0011
0000
0010
0100
0000
;

//--------------- dance-single - ----------------
#NOTES:
     dance-single:
     :
     Medium:
     13:
     0,0,0,0,0:
0000
0000
0000
0000
,
0000
0000
0000
0000
,
0000
0000
0000
0000
,
0000
0000
0000
0000
,
1000
0001
0100
0000
0001
1000
0000
0001
,
0010
0000
0001
1000
0000
0001
0100
0000
,
0010
1000
0010
0100
0000
0001
1000
0001
,
1000
0000
0100
1000
0000
0001
0100
0000
,
0001
0000
1000
0100
1000
0100
0010
0100
,
1000
0000
0001
0100
0010
0100
0001
1000
,
0001
0000
0010
0100
1000
0100
0010
0001
,
1000
0000
0001
0100
0010
1000
0010
0100
,
0001
0000
0010
0001
0010
0100
1000
0001
,
0100
0000
0010
1000
0010
0100
0001
1000
,
0100
0000
0010
0100
0000
0100
1000
0001
,
0100
0000
0000
0010
0000
0000
0110
0000
0000
0000
0001
0000
1000
0000
0100
0000
,
1000
0000
0000
0000
0001
0000
0000
0000
0100
0000
0000
0000
0010
0000
0000
0000
1000
0000
0000
0000
0001
0000
0000
0000
2001
3000
0000
0000
0000
0000
0000
0000
,
0001
0100
0200
0000
0301
2000
0000
3100
,
2000
0000
3001
0200
0000
0310
1000
0001
,
0010
0010
0100
2000
0000
3001
0100
0001
,
1000
0100
0100
0010
0000
0001
1000
0001
,
0100
0010
0020
0000
0130
0002
0000
0013
,
0002
0000
1003
0020
0000
0130
0001
1000
,
0001
0010
0010
0100
0000
1000
0001
0100
,
0010
1000
1000
0001
0000
0010
0100
0010
,
0001
1000
1000
0000
0010
0200
0000
0310
,
2000
0000
3001
2000
0000
3100
1000
0001
,
0201
0000
0310
1020
0000
1030
0001
0010
,
0021
0000
0130
1200
0000
1300
0001
0100
,
0010
0000
1000
0000
0001
0000
0000
0010
0000
0000
0001
0000
0100
0000
0100
0000
,
0020
0000
1030
0002
0000
0013
0002
0000
,
1003
0010
0010
0200
0000
0301
1000
0100
,
1000
0001
0100
0001
1000
0100
0010
0001
,
2000
0000
0000
0000
3020
0000
0000
0000
0130
0001
0100
0000
0002
0000
0000
0000
,
0023
0000
0000
0000
0032
0000
0000
0000
0000
0000
1003
0001
2000
0000
0000
0000
,
3020
0000
0000
0000
0230
0000
0000
0000
0301
1000
0001
0000
0020
0000
0000
0000
,
0230
0000
0000
0000
1000
0000
0000
1300
0000
0000
0001
0000
0101
0000
0000
0000
,
0200
0000
0000
0000
0320
0000
0000
0000
1030
0010
1000
0000
0002
0000
0023
0000
,
0230
0000
2300
0000
0000
3001
0200
0000
,
0320
0000
0000
0000
2030
0000
0000
0000
3001
0010
0001
0000
0020
0000
0000
0000
,
0230
0000
0000
2300
0000
0000
3001
0000
,
0100
0010
1000
0010
0100
0001
0010
0001
,
0100
0010
1000
0001
1000
0100
0010
0100
,
1000
0200
0000
1300
0002
0000
0103
0002
,
0000
0000
0010
0000
0000
0000
1003
0001
0000
0000
0100
0000
0110
0000
0000
0000
,
0010
1000
0001
0010
0100
0010
0001
1000
,
0010
0100
0001
1000
0100
1000
0001
0010
,
0100
2000
0000
3100
2000
0000
3001
0100
,
0010
0000
0000
0110
0000
0000
1001
0000
0000
0000
0001
1000
0002
0000
0000
0000
,
0023
0030
0001
0001
0001
0000
1000
0000
0010
0000
0100
0000
0001
0000
0000
1000
,
0100
0000
1000
0000
2000
0000
0000
0000
3010
0000
0100
0010
0000
0100
0001
0000
,
0010
0000
0001
0000
0001
0000
1000
0000
0010
0000
0100
0000
0001
0000
1000
0100
,
1000
0000
0001
0000
0200
0000
0000
0000
0020
0330
0110
0000
1001
0000
0000
0000
,
0002
0003
0010
0000
0200
0000
0000
0000
1300
0000
0002
0000
0000
0000
0103
0000
,
0002
0000
1003
0020
0000
0130
0002
0000
,
1003
0100
1000
0002
0000
0103
0001
1000
,
0010
0100
0001
0020
0000
0031
1000
0010
,
0100
0001
0020
0000
0031
2000
0000
3010
,
0200
0000
0000
0000
0301
0000
2000
0000
0000
0000
3100
0000
1000
0000
0001
1000
,
0001
0000
0000
0101
0000
0000
1010
0000
,
0010
0000
1000
0000
0001
0000
1000
0000
0100
0000
0010
0000
0001
0000
0010
0001
,
0010
0001
0100
0010
1000
0010
0100
0001
,
1000
0100
0010
0100
1000
0001
0100
0010
,
1000
1000
0001
0020
0000
0031
1000
0010
,
0100
0100
0001
2000
0000
3100
1000
0001
,
0100
0010
1000
0010
0100
0001
1000
0100
,
0010
0100
1000
0001
0100
0010
1000
0001
,
0010
0010
0100
1000
0001
0100
0010
0100
,
0001
0001
1000
0200
0000
0310
0100
1000
,
0001
0100
0010
1000
0010
0100
0001
1000
,
0100
1000
0001
0100
0001
1000
0100
0010
,
0022
0033
0000
0220
0330
0000
1100
0000
,
1000
0001
0100
0102
0003
1000
0200
0000
,
0310
0000
0100
0000
1000
0000
0001
0000
0100
0000
0010
0000
1000
0000
0010
1000
,
0010
0100
0001
1000
0100
1000
0001
0010
,
0001
0000
0011
0010
0000
0100
1100
0000
,
1000
0000
0000
0001
0000
0000
0100
0000
0010
0100
0010
0000
0200
0000
0000
0000
,
0300
0000
0000
0000
;

//--------------- dance-single - ----------------
#NOTES:
     dance-single:
     :
     Hard:
     16:
     0,0,0,0,0:
0000
0000
0000
0000
,
0000
0000
0000
0000
,
0000
0000
0000
0000
,
0000
0000
0000
0000
,
1000
0100
0020
0031
1000
0002
0103
0010
,
2000
3010
0100
0002
1003
0100
0020
0130
,
1000
0000
1000
0000
0001
0000
0200
0300
0100
0000
0100
0000
0020
0030
1000
0000
,
0002
0003
0001
0000
0010
0000
0200
0300
0100
0000
0100
0000
1000
0000
0001
0000
,
0100
0010
1000
0100
0001
0100
1000
0001
,
0100
1000
0100
0010
1000
0001
0010
0100
,
1000
0000
0001
0100
0001
0000
2000
0000
0000
0000
3100
0000
0010
0000
0001
0000
,
1000
0000
0010
0100
0010
0000
2000
0000
0000
0000
3001
0000
0010
0000
0100
0000
,
1000
0000
0001
0100
0001
0000
0000
0010
0000
0000
0200
0000
0000
0000
1300
0100
,
2000
0000
0010
3020
0000
0100
0130
0001
,
1000
0000
0010
0000
0010
0000
0100
0000
0001
1000
0001
0000
0010
0000
0100
0000
,
1100
0000
0000
0101
0000
0000
2002
3003
0000
0000
1000
0000
0001
0000
0100
0000
,
0001
0000
0100
0000
0001
0000
0000
0000
0100
0000
0000
0000
0010
0000
0000
0000
1000
0000
0010
0000
0100
0000
0001
0000
2000
3000
0000
0000
0000
0000
0000
0000
,
0100
0000
1000
0100
0020
0000
0000
0000
0031
0010
0002
0000
0000
0000
1003
0010
,
2000
0000
0000
0000
3001
0100
0002
0000
0000
0000
0103
0000
0110
0000
0000
0000
,
0010
0000
1000
0001
1000
0000
0200
0000
0000
0000
0310
0001
0010
0000
0001
1000
,
0001
0000
0100
0010
0100
0000
0020
0000
0000
0000
1030
0000
0001
0000
0000
0000
,
0010
0000
0100
1000
0200
0000
0000
0000
1300
0001
2000
0000
0000
0000
3001
0100
,
0002
0000
0000
0000
1003
0010
2000
0000
0000
0000
3001
0010
0001
0000
0010
0000
,
0100
0000
1000
0001
1000
0000
0010
0000
0100
0001
0100
0001
1000
0000
0100
0000
,
1000
0000
0001
0100
0001
0000
0020
0000
0000
0000
0031
0010
0001
0000
1000
0000
,
0001
0000
1000
0010
2000
0000
0000
0000
3001
0010
0002
0000
0000
0000
1003
0100
,
2000
0000
0000
0000
3001
0100
0002
0000
0000
0000
1003
0010
1000
0000
0001
0000
,
0011
0000
0000
0000
0100
0000
1100
0000
0000
0000
1000
0001
1000
0000
0001
0000
,
0101
0000
0000
0000
0100
0000
1010
0000
0000
0000
0010
1000
0001
0000
0010
0001
,
1000
0000
0010
0000
0101
0000
0001
0100
0001
0000
1000
0000
0100
1000
0100
1000
,
0002
0000
0000
0000
0103
0010
0200
0000
0000
0000
0301
1000
0001
0000
0010
0000
,
0100
0000
1000
0100
1000
0100
0020
0000
0000
0000
0031
1000
0001
0000
0100
0000
,
0010
0000
0010
0000
0100
0000
0100
0000
0001
1000
0001
1000
0010
0100
0010
0100
,
0001
0000
0000
0000
0021
0000
0000
0000
0130
1000
0001
0000
0100
0010
1000
0010
,
0100
0000
0000
0000
0101
0000
0001
0000
0000
0000
1000
0010
1000
0000
0010
0000
,
1000
0000
0000
0000
0012
0000
0013
0000
0100
1000
0100
0000
1000
0000
0001
0100
,
0010
0000
0000
0000
0110
0000
0000
1010
0000
0000
1000
0000
0001
0000
0010
0100
,
0010
0000
0000
0000
1200
0000
0000
0000
1300
0001
0100
0000
0001
0000
0010
0000
,
0011
0000
0000
0000
0001
0000
2000
0000
0000
0000
3010
0000
0100
0000
0001
1000
,
0100
0000
0000
0000
2100
0000
0000
0000
3100
0010
0001
0000
0010
0000
0001
1000
,
0001
0000
0000
0000
1000
0000
2010
0000
0000
0000
3001
1000
0100
0000
0000
0000
,
0010
0000
0001
0000
1000
0000
0001
0100
0001
0100
0001
0000
0010
0000
0100
1000
,
0100
0000
0000
0100
0010
0000
0001
1000
0001
1000
0001
0000
0100
0000
0010
1000
,
0020
0000
0230
0000
2300
0000
3100
0010
0200
0000
0301
0000
1000
0000
1200
0000
,
0000
0000
0310
0000
0011
0000
0000
1001
0000
0000
1010
0000
1000
0000
0100
0000
,
0010
0001
0010
0000
0100
0000
1000
0100
1000
0100
1000
0000
0010
0000
0100
0001
,
0100
0000
0100
0000
0001
0000
1000
0100
1000
0100
1000
0000
0001
0000
1000
0010
,
1000
0000
1000
0000
0001
0000
0010
0100
0010
0100
0010
0000
0001
0000
1000
0010
,
1000
0000
0000
1010
0000
0000
0102
0000
0000
0000
1003
0001
2000
0000
0000
0000
,
3002
0000
0000
0003
0000
0000
1000
0000
0000
0010
0000
0000
1000
0000
0000
0010
0000
0000
1000
0000
0000
0010
0000
0000
0100
0000
0000
0000
0000
0000
0000
0000
0000
0000
0000
0000
0001
0000
0000
0000
1000
0000
0000
0000
0001
0000
0000
0000
1000
0000
0000
0000
0000
0000
0000
0000
0000
0000
0000
0000
0100
0000
0000
0000
0000
0000
0000
0000
0000
0000
0000
0000
0010
0000
0000
0000
0000
0000
0001
0000
0000
0000
0000
0000
1000
0000
0000
0000
0000
0000
0001
0000
0000
0100
0000
0000
,
0002
0000
0000
0000
0000
0000
1003
0000
0001
0000
0010
0000
0200
0000
0000
0000
0000
0000
0000
0000
0000
0000
0000
0000
1300
0000
0100
0000
0010
0000
0002
0000
0000
0000
0000
0000
0103
0000
0000
0001
0000
0000
1000
0000
0000
0001
0000
0000
,
0020
0000
0000
0000
0000
0000
0000
0000
0000
0000
0000
0000
0130
0000
0000
0000
0010
0000
0000
0000
0001
0000
0000
0000
1000
0000
0000
0000
0001
0000
0000
0000
0100
0000
0000
0000
0001
0000
0000
0000
1000
0000
0000
0000
0100
0000
0000
0000
1000
0000
0000
0000
0001
0000
0000
0000
0010
0000
0000
0000
0100
0000
0000
0000
0000
0000
0000
0000
0000
0000
0000
0000
1100
0000
0000
0000
0000
0000
0000
0000
0000
0000
0000
0000
1000
0000
0000
0000
0000
0000
0001
0000
0000
0100
0000
0000
,
0001
0000
0000
0000
0000
0000
0000
0000
0000
0000
0000
0000
0010
0000
0000
0000
0001
0000
0000
0000
0010
0000
0000
0000
0200
0000
0000
0000
0000
0000
0000
0000
0000
0000
0000
0000
0000
0000
0000
0000
0000
0000
0000
0000
0000
0000
0000
0000
1300
0000
0000
0100
0000
0000
1000
0000
0000
0100
0000
0000
0010
0000
0000
0000
0001
0000
0000
0000
0010
0000
0000
0000
0001
0000
0000
0000
1000
0000
0000
0000
0001
0000
0000
0000
0100
0000
0000
0000
0001
0000
0000
0000
1000
0000
0000
0000
,
0200
0000
0010
0000
0000
0001
0000
0000
,
0010
0000
0000
1000
0000
0000
0010
0000
,
2300
0000
0000
0010
0000
0000
0001
0000
,
3002
0000
0000
0010
0000
0000
0100
0000
,
2003
0000
0010
0000
0000
0001
0000
0000
,
0100
0000
0000
0000
0000
0000
0001
0000
0000
0000
0000
0000
3010
0000
1000
0001
,
1000
0000
0000
1100
0000
0000
0110
0000
,
0010
0001
0010
0000
0001
0000
1000
0000
0001
0000
0100
0000
0010
1000
0010
1000
,
0001
0010
0100
1000
0002
0000
0000
0000
0103
0010
2000
0000
0010
0000
3010
0100
,
0002
0000
0000
0000
1003
0100
0020
0000
0000
0000
0031
0010
0100
0000
1000
0000
,
0001
0000
0100
0010
0100
0010
2000
0000
0000
0000
3001
1000
0100
0000
0010
0100
,
1000
0000
0001
1000
0010
0000
0200
0000
0000
0000
0310
0000
1000
0000
0001
0000
,
0010
0000
0100
1000
0002
0000
0000
0000
1003
0001
0200
0000
0010
0000
0310
1000
,
0002
0000
0000
0000
0013
0100
2000
0000
0000
0000
3100
0010
0001
0000
1000
0000
,
0001
0000
1000
0010
1000
0010
0200
0000
0000
0000
0301
0010
0001
0000
0010
0000
,
0100
0000
1000
0001
0100
0000
0020
0000
0000
0000
0130
0001
0100
0000
0001
0000
,
1000
0000
0100
0000
0010
0000
0001
1000
0001
0000
0100
0000
0010
0000
1000
0010
,
0100
0000
0001
0000
1000
0000
0100
0010
0001
0000
0010
0000
0100
0000
1000
0001
,
0100
0000
0000
0000
0101
0000
1001
0000
0000
0000
1000
0100
0010
0000
0001
0000
,
0101
0000
0000
0000
1010
0000
0101
0000
0000
0000
0001
1000
0100
0000
0010
0000
,
0100
0000
1000
0001
0100
0000
0010
0000
1000
0010
0100
0000
0001
0000
1000
0100
,
0010
0000
0100
0000
1000
0001
0100
0000
0010
0000
1000
0001
0010
0000
0100
0000
,
1100
0000
0000
0000
1000
0000
0001
0100
0001
0000
0010
0000
0001
0010
0100
0000
,
1000
0100
1000
0001
0100
0001
1000
0100
0010
0001
0010
0000
0002
0000
2000
0000
,
3003
0000
0000
0000
;

//--------------- dance-double - ----------------
#NOTES:
     dance-double:
     :
     Easy:
     9:
     0,0,0,0,0:
00000000
00000000
00000000
00000000
,
00000000
00000000
00000000
00000000
,
00000000
00000000
00000000
00000000
,
00000000
00000000
00000000
00000000
,
00001000
00000000
00010000
00000000
00000000
00010000
00000000
00000000
,
01000000
00000000
00000000
01000000
00000000
00000000
01000000
00000000
,
10000000
00000000
00000000
10000000
00000000
00000000
10000000
00000000
,
00010000
00000000
00000000
00010000
00000000
00000000
00010000
00000000
,
00100000
00000000
00110000
00000000
00000000
00100000
00001000
00000000
,
00010000
00000000
00010100
00000000
00000000
00000100
00000010
00000000
,
00000001
00000000
00001001
00000000
00000000
00001000
00000100
00000000
,
00010000
00000000
00011000
00000000
00000000
00001000
01000000
00000000
,
00100000
00000000
10100000
00000000
00000000
10000000
00010000
00000000
,
00100000
00000000
00101000
00000000
00000000
00001000
00010000
00000000
,
00000100
00000000
00000110
00000000
00000000
00000010
00000001
00000000
,
00002000
00000000
00000000
00003100
00000000
00000000
00010000
00000000
,
00001000
00000000
00000000
00000000
00000000
00000000
00000000
00000000
00000000
00000000
00000000
00000000
00000000
00000000
00000000
00000000
00000000
00000000
00000000
00000000
00000000
00000000
00000000
00000000
02020000
03030000
00000000
00000000
00000000
00000000
00000000
00000000
,
00010000
00000000
10000000
00000000
01000000
00100000
00000000
00010000
,
00100000
00000000
00001000
00010000
00000000
00000100
00001000
00000000
,
00000100
00000000
00000010
00000001
00000000
00001000
00000100
00000000
,
00010000
00000000
00001000
00100000
00000000
00010000
10000000
00000000
,
00010000
00000000
01000000
00000000
00001000
00010000
00000000
00000100
,
00001000
00000000
00000001
00000100
00000000
00000010
00001000
00000000
,
00000200
00000000
00000000
00020300
00030000
00001000
00100000
00000000
,
00010000
00000000
10000000
00100000
00000000
01000000
00010000
00000000
,
00100000
00000000
00001000
00000000
00010000
00000100
00000000
00001000
,
00000001
00000000
00000100
00000010
00000000
00001000
00000010
00000000
,
00001010
00000000
00000000
00022000
00000000
00033000
00000000
00000000
,
00110000
00000000
00000000
00022000
00000000
00000000
00033000
00000000
,
00001000
00000000
00010000
00000000
00001000
00100000
00000000
00010000
,
10000000
00000000
00100000
01000000
00000000
00001000
00010000
00000000
,
00000100
00000000
00001000
00000001
00000000
00000100
00000001
00000000
,
00002000
00003200
00020300
00032000
,
01003000
00100000
01000000
00010000
,
20000000
00000000
00000000
00020000
30000000
00000000
00000000
00000000
,
00130000
00001000
00010000
00000010
,
00002000
00000000
00000000
00003002
00000000
00000000
00000000
00000000
,
00000013
00000100
00010000
00001000
,
02000000
00000000
00000000
00020000
03000000
00000000
00000000
00000000
,
10030000
01000000
00100000
00001000
,
00020000
00000000
00000000
00030200
00000000
00000000
00000000
00000000
,
00001300
00000000
00000100
00000000
00000000
00000001
00000000
00000000
,
00000100
00000000
00000000
00010000
00000000
00000000
00001000
00000000
,
01000000
00000000
00000000
00000000
10000000
00000000
00000000
01000000
,
00000000
00010000
00000000
00100000
00000000
00000000
00001000
00000000
,
00010000
00000000
00000010
00000000
00000000
00000001
00000000
00000000
,
00000010
00000000
00000000
00001000
00000000
00000000
00000100
00000000
,
00010000
00100000
01000000
10000000
,
00010000
00000000
00000000
00100000
00000000
00000000
00001000
00000000
,
00020000
00031000
00010000
00000100
,
00001000
00000001
00000100
00000010
,
00010000
00001000
01000000
00010000
,
10000000
00001000
00010000
00000001
,
00000020
00000000
00000000
00000030
,
00000200
00000000
00000000
00000300
,
00020000
00000000
00000000
00030000
,
00002000
00000000
00000000
00003000
,
02000000
00000000
00000000
03000000
,
00200000
00000000
00000000
00300000
,
20000000
00000000
30000000
00010000
00000000
00000000
01000000
00000000
,
00001000
00010000
00001000
00000000
00010000
00000000
00000100
00000000
,
00000010
00000000
00000001
00000000
00000010
00000100
00000000
00010000
,
00001000
00000000
00100000
00010000
00000000
01000000
10000000
00000000
,
00010000
00000000
00100000
00001000
00000000
00010000
00000010
00000000
,
00001000
00000000
00000010
00010000
00000000
00001000
00100000
00000000
,
01000000
00000000
10000000
00000000
00010000
01000000
00000000
00001000
,
00010000
00000000
00000100
00001000
00000000
00000010
00000100
00000000
,
00000001
00000000
00001000
00000100
00000000
00010000
00001000
00000000
,
01000000
00000000
00100000
01000000
00000000
00010000
10000000
00000000
,
01000000
00100000
00001000
00010000
,
00000100
00000010
00000001
00010000
,
00011000
00000000
00000000
00110000
00000000
00000000
01100000
00000000
,
10000000
00000000
00000000
01010000
00000000
00000000
00011000
00000000
,
00010000
00000100
00001000
00000001
,
00000010
00000100
00001000
00000001
,
00000101
00000000
00000000
00001010
00000000
00000000
00010000
00000000
,
00001000
00000000
00000000
01010000
00000000
00010000
20000000
00000000
,
30000000
00000000
00000000
00000000
;

//--------------- dance-double - ----------------
#NOTES:
     dance-double:
     :
     Medium:
     13:
     0,0,0,0,0:
00000000
00000000
00000000
00000000
,
00000000
00000000
00000000
00000000
,
00000000
00000000
00000000
00000000
,
00000000
00000000
00000000
00000000
,
00010000
00000000
00001000
00000000
00000000
01000000
00000000
00000000
,
00100000
00000000
00000000
10000000
00000000
00000000
00010000
00000000
,
00100000
00000000
00000000
00001000
00000000
00000000
00010000
00000000
,
00000100
00000000
00000000
00000010
00000000
00000000
00000001
00000000
,
00001000
00000100
00010000
00000000
00001000
00100000
00000000
00010000
,
10000000
00000000
00010000
00100000
00000000
01000000
10000000
00000000
,
00010000
01000000
00001000
00010000
00000000
00000100
00000010
00000001
,
00001000
00000100
00010000
00001000
00000000
01000000
10000000
01000000
,
00100000
01000000
00010000
00000000
00100000
00001000
00000000
00010000
,
00000100
00000000
00000010
00000001
00000000
00001000
00000100
00100000
,
00010000
00100000
10000000
00100000
00000000
00001000
00100000
00010000
,
00100000
00000000
00000000
00001000
00000000
00000000
00011000
00000000
00000000
00010000
00000000
00000000
00000100
00000000
00000010
00000000
,
00000001
00000100
00001000
00010000
01000000
10000000
11000000
00000000
,
20000000
30000000
00000000
00000000
01000000
00000000
00000000
00000000
00100000
00000000
00000000
00000000
00000000
00000000
00000000
00000000
00010000
00000000
00000000
00000000
00100000
00000000
00000000
00000000
00001000
00000000
00000000
00000000
00000000
00000000
00000000
00000000
,
00000100
00000010
00000001
00000000
00000010
00001000
00000100
00000000
,
00010000
01000000
00100000
00000000
00010000
10000000
00100000
00000000
,
01000000
00001000
00010000
00000000
00001000
00010000
00000100
00000000
,
00000010
00000001
00000100
00000000
00000010
00001000
00000100
00000000
,
00010000
00001000
01000000
00000000
00100000
10000000
01000000
00000000
,
00010000
00001000
00100000
00001000
00010000
00000100
00001000
00000100
,
00000010
00000001
00001000
00000200
00000000
00000301
00000100
00001000
,
00010000
00100000
01000000
00000000
00010000
01000000
10000000
00000000
,
00010000
01000000
00001000
00010000
00001000
00000100
00000010
00000000
,
00001010
00000000
00000000
00110000
00000000
00000000
11000000
00000000
,
10100000
00000000
00000000
00011000
00000000
00000000
00000011
00000000
,
00000010
00000001
00001000
00000000
00000100
00010000
00001000
00000000
,
01000000
00100000
10000000
00000000
00100000
01000000
00001000
00000000
,
00010000
00001000
00000100
00000001
00001000
00000100
00000010
00000100
,
00010000
00001000
01000000
00100000
10000000
00010000
00100000
01000000
,
20000000
00000000
00100000
00000000
30020000
00100000
00230000
00301000
,
00020000
00000000
00001000
00000100
00000000
00000100
00032000
00000000
,
00023000
00000000
00100000
00000000
00032000
00010000
00023000
00100000
,
00032000
00000000
00000100
00000100
00000000
00010000
00023000
00000000
,
00030020
00000000
00000001
00000000
00002030
00000100
00003200
00000010
,
00002300
00000000
00010000
00010000
00000000
00000100
00000100
00000000
,
00003002
00000000
00000010
00000000
00000203
00001000
00002300
00010000
,
00023000
00000000
00100000
10000000
00000000
10000000
01030000
00000000
,
00010000
00100000
10000000
00000000
00100000
00001000
00000000
00010000
,
00000010
00000000
00000100
00000001
00000000
00001000
00000100
00000000
,
00010000
00110000
00000000
01000000
10000000
00010000
00000000
01010000
,
00000000
01001000
00000000
00011000
00000000
00001000
00000100
00000010
,
00000001
00001000
00000010
00000000
00000100
00000001
00000000
00010000
,
00001000
00000000
10000000
01000000
00000000
00001000
00010000
00000000
,
00001000
00101000
00000000
00100000
00010000
10000000
00000000
01000000
,
00010000
00000000
00000000
00001000
00000000
00000000
00000100
00000000
00000000
00000001
00000000
00000000
00000020
00000000
00000000
00000000
,
00000130
00002000
00013000
00100000
10000000
00010000
01000000
10000000
,
01000000
00001000
00010000
00000100
00000001
00000100
00000010
00000001
,
00001000
00000010
00010000
00100000
01000000
00001000
00010000
01000000
,
10000000
00001000
00010000
00000010
00000100
00000001
00000010
00001000
,
00000200
00000000
00001000
00000000
00000000
00001000
00000000
00000000
,
00010000
00000000
00000000
00010000
00000000
00000000
00020300
00000000
,
00001000
00000000
00000000
00001000
00000000
00000000
00100000
00000000
,
00100000
00000000
00000000
00001000
00000000
00000000
00001000
00000000
,
00032000
00000000
00010000
00000000
00000000
00010000
00000000
00000000
,
00100000
00000000
00000000
00100000
00000000
00000000
01000000
00003000
,
01001000
00000000
00000000
01010000
00000000
00000000
10010000
00000000
,
10000000
00100000
00010000
00001000
00000010
00000001
00000100
00000010
,
00010000
00001000
00010000
00000000
01000000
10000000
00010000
01000000
,
10000000
01000000
00100000
00000000
01000000
00001000
00010000
00000100
,
00000010
00000100
00001000
00000000
00000001
00001000
00000100
00010000
,
00001000
01000000
00100000
00000000
01000000
00010000
10000000
01000000
,
00010000
00001000
00100000
00000000
00001000
00010000
00100000
00001000
,
00010000
00000100
00000010
00000000
00001000
00000001
00000010
00000100
,
00010000
00001000
01000000
00000000
10000000
01000000
00010000
00001000
,
00000010
00010000
00001000
00011000
00000000
00010000
00000100
00001000
,
00000001
00000100
00001000
00010000
01000000
20000000
00000000
00000000
,
30010000
00000000
01000000
00001000
00000000
00010000
00001000
00000100
,
00000001
00000000
00000000
00000011
00000000
00000000
00001100
00000000
,
00011000
00000000
00000000
00110000
00000000
00000000
11000000
00000000
,
10000000
00100000
00010000
00001000
00000010
00000002
00000000
00000000
,
00000103
00000000
00000001
00000010
00000000
00001000
00010000
00000000
,
01000000
00000000
10000000
00100000
00000000
01000000
00010000
00000000
,
00110000
00000000
00000000
00001000
00000000
00000000
00010100
00000000
00000000
00000000
00001000
00000100
00000020
00000000
00000000
00000000
,
00000030
00000000
00000000
00000000
;

//--------------- dance-double - ----------------
#NOTES:
     dance-double:
     :
     Hard:
     17:
     0,0,0,0,0:
00000000
00000000
00000000
00000000
,
00000000
00000000
00000000
00000000
,
00000000
00000000
00000000
00000000
,
00000000
00000000
00000000
00000000
,
00010000
00001000
01000000
01000000
00100000
10000000
10000000
00010000
,
00100000
00100000
00001000
00010000
00010000
00000100
00001000
00000001
,
00000100
00000100
00000010
00010000
00010000
00001000
00100000
01000000
,
10000000
10000000
00010000
00100000
00100000
00001000
00010000
00000010
,
00000100
00000000
00000000
00000000
00000101
00000000
00000000
00000000
00000000
00000000
00000011
00000000
00000010
00000000
00001000
00010000
,
01000000
00000000
00000000
00000000
11000000
00000000
10000000
00000000
10000000
00000000
00100000
01000000
00010000
00000000
00001000
00000000
,
00001100
00000000
00000000
00000000
00000011
00000000
00000001
00000000
00000001
00000000
00001000
00000100
00010000
00000000
01000000
00000000
,
10000000
00000000
00000000
00000000
01010000
00000000
00010000
00000000
00010000
00000000
00100000
00001000
00010000
00000000
00000100
00000000
,
00000110
00000000
00000000
00000000
00000011
00000000
00000001
00000000
00000001
00000000
00001000
00000100
00010000
00000000
01000000
00000000
,
01100000
00000000
00000000
00000000
10100000
00000000
00100000
00000000
00100000
00000000
01000000
00010000
00100000
00000000
00001000
00000000
,
00011000
00000000
00000000
00000000
00001100
00000000
00000100
00000000
00000100
00000000
00010000
00001000
01000000
00000000
00100000
00000000
,
10100000
00000000
00000000
01010000
00000000
00000000
00011000
00000000
00000000
00000000
00001100
00000000
00000100
00000000
00000011
00000000
,
00000001
00000000
00000100
00000000
00000010
00000000
00000000
00000000
00010000
00000000
00000000
00000000
00001000
00000000
01000000
00000000
00010000
00000000
01000000
00000000
00100000
00000000
10000000
00000000
00200000
00300000
00000000
00000000
00000000
00000000
00000000
00000000
,
01000000
00000000
00100000
10000000
02000000
00000000
00000000
00000000
03010000
00000000
00002000
00000000
00000000
00000000
00003100
00000001
,
00000020
00000000
00000000
00000000
00000130
00010000
00002000
00000000
00000000
00000000
00013000
00000000
00200000
00000000
00000000
00000000
,
10300000
00000000
00100000
01000000
00010000
00100000
00002000
00000000
00000000
00000000
00003001
00000000
00000100
00000000
00001000
00000000
,
00000010
00000000
00010000
00001000
01000000
00010000
20000000
00000000
00000000
00000000
30100000
00000000
10000000
00000000
01000000
00000000
,
00010000
00000000
10000000
00100000
00020000
00000000
00000000
00000000
00031000
00000000
00000200
00000000
00000000
00000000
00000310
00010000
,
00002000
00000000
00000000
00000000
00013000
00100000
20000000
00000000
00000000
00000000
30100000
01000000
10000000
00000000
00010000
00000000
,
01000000
00000000
10000000
01000000
00010000
00000000
00002000
00000000
00013000
00000000
00000010
00001000
00000010
00000000
00000100
00000000
,
00000001
00000000
00000010
00000100
00001000
00000000
00020000
00000000
00000000
00000000
00031000
00000000
01000000
00000000
10000000
00000000
,
00010000
00000000
01000000
00001000
00020000
00000000
00000000
00000000
00031000
00000000
00000200
00000000
00000000
00000000
00000301
00000100
,
00002000
00000000
00000000
00000000
00013000
01000000
20000000
00000000
00000000
00000000
30100000
00000000
01000000
00000000
00001000
00010000
,
00100000
00000000
01000000
10010000
00000000
10000000
00001000
00010000
,
00010100
00000000
00000000
00000000
00000100
00000000
00000110
00000000
00000000
00000000
00000001
00000010
00000100
00000000
00000001
00000000
,
00000100
00000000
00010000
00001000
00100000
00000000
10000000
00000000
00100000
00000000
00001000
00010000
00000100
00000000
00000001
00000100
,
00000010
00000000
00001000
00000000
00010000
00000000
00200000
00000000
00000000
00000000
00310000
00100000
20000000
00000000
00000000
00000000
,
30010000
00000000
00100000
00001000
00010000
00000000
00000100
00000000
00000001
00000100
00000010
00000000
00000001
00000000
00001000
00000000
,
00000010
00000000
00000010
00000000
00010000
00000000
00010000
00000000
00100000
00001000
01000000
00010000
20000000
00000000
31000000
00000000
,
00200000
00000000
00302000
00000000
00013000
00000100
00000001
00000100
,
00020000
00000000
00100000
00100000
00000000
00000000
00000100
00030200
,
00001300
00010000
00100000
01000000
00001000
01000000
10000000
00100000
,
00020000
00000000
00100000
00100000
00000000
00000100
00030200
00000000
,
00000301
00000100
00010000
00001000
01000000
10000000
01000000
00001000
,
00020000
00000000
01000000
01000000
00000000
00001000
00031000
00000000
,
00010000
01000000
10000000
00001000
00010000
00100000
00001000
00000010
,
00002000
00000000
00000000
00003200
00000000
00000000
00010300
00000000
,
00000100
00001000
00000100
00000000
00000001
00000000
00000100
00010000
00001000
00000000
01000000
00000000
10000000
01000000
00100000
00000000
,
10000000
00000000
00010000
00100000
01000000
00000000
00010000
00000000
00001000
00000000
00000100
00000000
00000010
00000000
00001000
00000000
,
00000001
00000100
00010000
01000000
00100000
10000000
00100000
00002000
,
00000000
00010000
00000000
00000010
00000000
00000000
00003001
00000000
,
00000010
00001000
00010000
01000000
10000000
00100000
00010000
00001000
,
00000010
00010000
00001000
01000000
10000000
01000000
00001000
00010000
,
00100000
10000000
00100000
00001000
00000010
00000100
00000001
00000100
,
00010000
00000000
00000000
00101000
00000000
00000000
11000000
00000000
00000000
00000000
10000000
01000000
00100000
00000000
00001000
00000000
,
00020000
00000000
00000000
00000000
00030100
00000000
00000100
00001000
00000010
00000000
00000000
00000000
00000100
00000000
00000000
00000000
00002000
00000000
00003200
00000000
00000300
00000000
02000000
00000000
03010000
00000000
00010000
00000000
01000000
00000000
01000000
00000000
,
00200000
00000000
00000000
00000000
20300000
00000000
00000000
00000000
30100000
10000000
00100000
01000000
00001000
00010000
00000010
00001000
00000001
00000000
00000100
00000000
00001000
00000000
00000100
00000000
00000010
00000000
00000010
00000000
00002000
00000000
00000000
00000000
,
00103000
00000000
10000000
00000000
00010000
00000000
00100000
00000000
01000000
00000000
10000000
00000000
00010000
00010000
01000000
01000000
,
00001000
00000000
00000000
00000000
00020000
00000000
00000000
00000000
00030100
00000010
00000001
00000010
00000100
00001000
00000100
00010000
00001000
00010000
00001000
01000000
00020000
00000000
00000000
00000000
00230000
00000000
00000000
00000000
02300000
00000000
00000000
00000000
,
23000000
30000000
00000000
00000000
00000000
00000000
00000000
00000000
01000000
00000000
00000000
00000000
00000000
00000000
00000000
00000000
00000000
00000000
00000000
00000000
00100000
00000000
00000000
00000000
00000000
00000000
00000000
00000000
00000000
00000000
00000000
00000000
,
00010000
00000000
00000000
00000010
00000000
00000000
00000100
00000000
,
00010000
00000000
00000000
01000000
00000000
00000000
10000000
00000000
,
01000000
00000000
00000000
00010000
00000000
00000000
00000100
00000000
,
00001000
00000100
00000010
00000000
00001000
00000010
00000000
00000001
,
00001000
00000000
00000000
00000000
00000100
00000000
00010000
00000000
00000000
00000000
00001000
00000000
01000000
00000000
00100000
10000000
,
00100000
00000000
01000000
01010000
00000000
00010000
10000000
00001000
,
00010000
00001000
00000100
00000000
00000001
00000000
00001000
00000100
00010000
00000000
00001000
01000000
00010000
00000000
01000000
00000000
,
00010000
01000000
00001000
00010000
00000200
00000000
00000000
00000000
00000301
00000000
00000200
00000000
00000000
00000000
00010300
00001000
,
00200000
00000000
10300000
00200000
00000000
00301000
00010000
01000000
,
00100000
00000000
00001000
00010000
00000010
00000000
00000002
00000000
00000000
00000000
00000013
00000000
00001000
00000000
00000100
00000000
,
00010000
00000000
00001000
01000000
00010000
00000000
02000000
00000000
00000000
00000000
13000000
00000000
01000000
00000000
00001000
00000000
,
00010000
00000000
00100000
10000000
00010000
00000000
10000000
00000000
01000000
00000000
00100000
00000000
00001000
00000000
00010000
00000100
,
00002000
00000000
00000000
00000000
00003010
00000000
00010000
00001000
00100000
00000000
01000000
00000000
10000000
00000000
01000000
00000000
,
10000000
00000000
00100000
01000000
00100000
01000000
00002000
00000000
00000000
00000000
00013000
00001000
00010000
00000000
00000100
00000000
,
00000010
00000000
00000001
00001000
00000100
00000000
00020000
00000000
00000000
00000000
00031000
00000000
01000000
00000000
00100000
00000000
,
10000000
00100000
00010000
00001000
00000010
00000001
00001000
00000100
,
01000000
00010000
01000000
10000000
01000000
00001000
00100000
00010000
,
01000000
00000000
00010000
00001000
00000010
00000000
00000200
00000000
00000000
00000000
00000301
00000000
00001000
00000000
00000100
00000000
,
00000001
00000000
00000100
00010000
00001000
00000000
00020000
00000000
00000000
00000000
00130000
00010000
00001000
00000000
01000000
00000000
,
00100000
10000000
00100000
00001000
00000010
00000001
00001000
00000100
,
00010000
01000000
10000000
01000000
00100000
10000000
00010000
00100000
,
00001000
00010000
00000100
00000000
00000001
00000000
00000002
00000000
00000000
00000000
00000103
00000000
00001000
00000000
00000100
00100000
,
00010000
00000000
00010000
10000000
00000000
10000000
00010000
00000000
00100000
00001000
00010000
00000100
00002000
00000000
00000002
00000000
,
00003003
00000000
00000000
00000000
;
