#VERSION:0.83;
#TITLE:ALL OK!!;
#SUBTITLE:;
#ARTIST:Eagle feat. Kradness;
#TITLETRANSLIT:;
#SUBTITLETRANSLIT:;
#ARTISTTRANSLIT:;
#GENRE:HYPER POP / BREAKCORE;
#CREDIT:;
#MUSIC:ALL OK!!.ogg;
#BANNER:ALL OK!!.png;
#BACKGROUND:ALL OK!!-bg.png;
#CDTITLE:./CDTitles/bm IIDX INFINITAS.png;
#SAMPLESTART:77.981;
#SAMPLELENGTH:15.000;
#SELECTABLE:YES;
#OFFSET:0.000;
#BPMS:0.000=200.000
,132.000=100.000
,133.500=200.000
,134.500=400.000
,137.000=800.000
,144.000=200.000
,201.000=100.000
,232.500=200.000
,237.000=400.000
,240.000=800.000
,246.000=200.000
;
#STOPS:232.500=0.150;
#TIMESIGNATURES:0.000=4=4,
140.000=5=4,
145.000=4=4,
241.000=6=4,
247.000=4=4
;
#DISPLAYBPM:100.000:200.000;
#BGCHANGES:0.000=../BGAs/25cb.mp4=1.000=0=0=0=StretchNoLoop====,
99999.000=-nosongbg-=1.000=0=0=0=StretchNoLoop====
;
#FGCHANGES:;

//--------------- dance-single - forcednature ----------------
#NOTEDATA:;
#STEPSTYPE:dance-single;
#DESCRIPTION:forcednature;
#CREDIT:forcednature;
#DIFFICULTY:Beginner;
#METER:6;
#RADARVALUES:0,0,0,0,0;
#NOTES:
0000
0000
0000
0000
,
0000
0000
0000
0000
,
0000
0000
0000
0000
,
0000
0000
0000
0000
,
0000
0000
0000
0000
,
0000
0000
0000
0000
,
0000
0000
0000
0000
,
0000
0000
0000
0000
,
0000
0000
0000
0000
,
0001
0000
0000
0000
,
0001
0000
1000
0000
,
0001
0000
0000
0000
,
0001
0000
0010
0000
,
0100
0000
0000
0000
,
0100
0000
1000
0000
,
0100
0000
0000
0000
,
0010
0000
0001
0000
,
1000
0000
0010
0000
,
0000
0000
0010
0000
,
1000
0000
0001
0000
,
0000
0000
0001
0000
,
1000
0000
0100
0000
,
0000
0000
0100
0000
,
0010
0000
0001
0000
,
0000
0000
1000
0000
,
1001
0000
1001
0000
,
0010
0000
0000
0000
,
1001
0000
1001
0000
,
0100
0000
0000
0000
,
0110
0000
0110
0000
,
0001
0000
0000
0000
,
0110
0000
0110
0000
,
1000
0000
0000
0000
,
2002
0000
0000
0000
,
0000
0000
0000
0000
,
0000
0000
0000
0000
,
3003
0000
0000
0001
,
0000
0001
0000
0001
,
0000
1000
0000
0100
,
0000
1000
0000
0001
,
0000
0010
0000
0100
,
0000
1000
1000
1000
,
0000
0001
0000
0001
,
0000
0100
0000
0001
,
0000
1000
0000
1000
,
0000
0100
0000
1000
,
0000
0010
0000
0100
,
0000
0001
0000
1000
,
0000
0100
0000
0010
,
0000
0001
0000
1001
,
1001
0000
0000
1000
,
0000
1000
0000
0001
,
0000
0100
0000
0001
,
0000
0001
0000
1000
,
0000
1001
0000
0010
,
0000
0010
0010
0010
,
0000
1001
0000
0100
,
0000
0100
0100
0100
,
0000
2002
0000
0000
,
0000
0000
0000
0000
,
0000
0000
0000
0000
,
0000
0000
3003
0000
,
0000
1000
0000
1000
,
0000
1000
0000
0001
,
0000
0100
0000
0001
,
0000
1000
0000
0100
,
0000
0010
0000
0001
,
0001
0001
0000
1000
,
0000
1000
0000
0010
,
0000
1000
0000
0001
,
0000
0001
0000
0010
,
0000
0001
0000
1000
,
0000
1000
0000
0100
,
0000
0010
0000
0001
,
0000
0100
0000
0001
,
0000
1001
1001
0000
,
0000
0000
0000
2000
,
0000
3000
0000
0002
,
0000
0003
0000
0100
,
0000
0100
0100
0002
,
0000
0003
0000
2000
,
0000
3000
0000
0002
,
0000
0003
0000
0020
,
0030
0200
0300
0000
,
0000
1001
0000
0000
,
0000
0110
0000
0000
,
0000
1001
0000
0000
,
0000
0110
0000
0000
,
0000
1001
0000
0000
,
0000
0110
0000
0001
,
0000
0001
0000
1000
,
0001
1000
0001
2002
,
0000
0000
0000
3003
;

//--------------- dance-single - forcednature ----------------
#NOTEDATA:;
#STEPSTYPE:dance-single;
#DESCRIPTION:forcednature;
#CREDIT:forcednature;
#DIFFICULTY:Easy;
#METER:11;
#RADARVALUES:0,0,0,0,0;
#NOTES:
0000
0000
0000
0000
,
0000
0000
0000
0000
,
0000
0000
0000
0000
,
0000
0000
0000
0000
,
0000
0000
0000
0000
,
0000
0000
0000
0000
,
0000
0000
0000
0000
,
0000
0000
0000
0000
,
0000
0000
0000
0000
,
1001
0000
0001
0100
,
0000
0100
0001
0010
,
0100
0000
1000
0010
,
0000
0010
1000
0100
,
0010
0000
0001
0100
,
0000
0100
0010
0100
,
0001
0000
1000
0010
,
2000
3200
0320
0032
,
1003
1000
0010
1000
,
0010
0100
0001
0100
,
0000
0001
0001
0010
,
0100
0010
0002
2003
,
3000
0010
0100
0100
,
0010
1000
0001
0010
,
0000
0100
1000
0010
,
1000
0100
1000
0001
,
0200
0310
0200
0310
,
1000
0001
0010
0100
,
2000
3001
2000
3001
,
0100
0010
0110
1001
,
0002
0103
0020
0130
,
0001
1000
0100
0010
,
0002
1003
0200
1300
,
0001
0100
0020
0030
,
0110
0000
0000
2002
0000
0000
0000
0000
,
0000
0000
0000
0000
,
0000
0000
0000
0000
,
3003
0000
1000
0000
0001
0000
1000
0001
,
1000
0002
0000
0000
0003
0000
0100
0000
,
0010
0100
0001
0010
,
0100
1000
0010
0100
,
0010
1000
0100
0001
,
0100
0000
1000
0000
0001
0000
0100
0001
,
0100
0010
1000
0010
,
0100
0001
0010
0100
,
0010
0000
0001
0000
1000
0000
0001
1000
,
0001
2000
0000
0000
3000
0000
0100
0000
,
1000
0010
0100
0010
,
1000
0001
0010
0100
,
1000
0000
0010
0000
0100
0000
0001
0100
,
0001
0010
0100
0110
,
1001
0000
0000
0000
1000
1000
1000
0000
,
0001
0000
0100
0100
0010
0000
0010
0010
,
0100
0000
1001
0000
0001
0001
0001
0000
,
0100
0000
0001
0001
0010
0000
0100
0100
,
1000
0000
0000
0000
0000
0000
0000
0000
1001
0000
0000
0000
0000
0000
0000
0000
0001
0000
0000
1000
0000
0000
0001
0000
1000
0000
0000
0001
0000
0000
1000
0000
,
0001
0000
0000
0000
0000
0000
0000
0000
0100
0000
0000
0010
0000
0000
0100
0000
0010
0000
0000
0100
0000
0000
0010
0000
0100
0000
0000
0010
0000
0000
0100
0000
,
0010
0000
0000
0000
1001
0000
0000
0000
1000
0100
1000
0100
1000
0000
0000
0000
,
0001
0100
0001
0100
0001
0000
1000
0000
0001
0000
0010
0000
0100
0000
1000
0000
,
0001
1001
0000
1000
,
0001
2002
0000
0000
,
0000
0000
0000
0000
,
0000
0000
3003
1000
,
0001
0000
0100
0001
0100
0002
0000
0000
,
0003
0010
0100
1000
,
0010
0100
0010
1000
,
0100
0001
0100
1000
,
0001
0000
0010
0001
0010
0000
0100
0000
,
1000
0110
1001
0001
,
0100
0001
0010
0100
,
1000
0010
0100
0001
,
1000
0000
0100
1000
0100
2000
0000
0000
,
3000
0010
0100
0010
,
1000
0100
0010
0001
,
0100
1000
0100
0001
,
0100
0000
0010
0100
0010
0000
1000
0000
,
0001
1001
0110
0002
,
0000
0000
0003
0020
,
0000
0000
0030
0200
,
0000
0000
0300
1000
,
0100
0110
1001
2000
,
0000
0000
3000
0020
,
0000
0000
0030
0100
,
0100
0001
0010
0001
,
1000
2002
3003
0001
,
0010
0000
0100
1000
0100
0000
0010
0000
,
0001
0000
1000
0001
1000
0000
0010
0000
,
0100
0000
0001
1000
0001
0000
1001
0000
,
0110
0110
1001
0001
,
1000
0000
0100
0010
0001
0000
1000
0000
,
0010
0000
0100
0001
1000
0000
0100
0010
,
0001
0000
0100
0001
0100
0000
0010
0000
,
1100
0101
0110
2002
,
0000
0000
0000
3003
;

//--------------- dance-single - forcednature ----------------
#NOTEDATA:;
#STEPSTYPE:dance-single;
#DESCRIPTION:forcednature;
#CREDIT:forcednature;
#DIFFICULTY:Medium;
#METER:14;
#RADARVALUES:0,0,0,0,0;
#NOTES:
0000
0000
0000
0000
,
0000
0000
0000
0000
,
0000
0000
0000
0000
,
0000
0000
0000
0000
,
0000
0000
0000
0000
,
0000
0000
0000
0000
,
0000
0000
0000
0000
,
0000
0000
0000
0000
,
0000
0000
0000
0000
,
1001
0000
1000
0000
0100
0000
1000
0001
,
1000
0001
1000
0000
0020
0000
0230
0000
,
0300
0000
0001
0000
1000
0000
0001
0100
,
0001
0100
0001
0000
0020
0000
0230
0000
,
0300
0000
1000
0000
0001
0000
1000
0010
,
1000
0010
1000
0000
0200
0000
0302
0000
,
0003
0000
0100
0000
1000
0000
0010
0100
,
0010
0100
0010
0000
0110
0000
1001
0000
,
0001
0100
0001
0000
0010
0000
0001
1000
,
0000
1000
0001
0000
0020
0000
2030
0000
,
3000
0000
0010
0001
0010
0000
0100
1000
,
0000
1000
0100
0000
2000
0000
3002
0000
,
0003
0000
0100
0010
0100
0000
0001
0000
,
0010
0100
1000
0100
1000
0000
0001
0000
,
0100
0000
0010
1000
0010
0000
0100
0000
,
0001
0010
0100
0000
2002
0000
3003
0000
,
1000
0100
2000
0000
3001
0100
0002
0000
,
1003
0100
0010
0001
0010
0000
0011
0000
,
0001
0100
0002
0000
1003
0100
2000
0000
,
3001
0100
0010
1000
0010
0000
1001
0000
,
1000
0100
0020
0000
0031
0100
0020
0000
,
1030
0001
0010
0001
1000
0000
0110
0000
,
0001
0100
0020
0000
1030
0100
0020
0000
,
0031
1000
0001
1000
0010
0100
0010
0000
,
0220
0330
0000
2002
0000
0000
0000
0000
,
0000
0000
0000
0000
,
0000
0000
0000
0000
,
3003
0000
1000
0001
1000
0001
0010
0100
,
1000
0020
0000
0000
0030
0000
0100
0001
,
0100
0001
0100
0000
0110
0000
0010
1000
,
0001
1000
0100
0001
0100
1000
0000
0100
,
0010
0001
0000
0100
0010
0100
0001
0010
,
0100
0000
1100
0000
0011
0000
1000
0001
,
1000
0000
0001
0100
0001
0100
0010
1000
,
0010
1000
0001
0010
0100
1000
0000
0010
,
0100
0010
1000
0100
1000
0100
0001
0100
,
1000
0020
0000
0000
0030
0000
0100
0001
,
0100
0001
1000
0000
1100
0000
0001
0010
,
0100
1000
0001
0010
1000
0010
0000
0001
,
1000
0001
0000
0100
0010
0100
0001
1000
,
0100
0010
0001
0000
1000
0000
1100
0000
,
0101
0000
0000
0000
0000
0000
0000
0000
2002
0000
0000
0000
3003
0000
0000
0000
1000
0000
0000
0001
0000
0000
1000
0000
0001
0000
0000
0010
0000
0000
0001
0000
,
0010
0000
0000
0000
0000
0000
0000
0000
0100
0000
0000
0010
0000
0000
0100
0000
1000
0000
0000
0100
0000
0000
1000
0000
0010
0000
0000
1000
0000
0000
0010
0000
,
0100
0000
0000
0000
0000
0000
0000
0000
0220
0000
0000
0000
0330
0000
0000
0000
0001
0000
0000
0100
0000
0000
0001
0000
0100
0000
0000
0010
0000
0000
1000
0000
,
0010
0000
0000
0000
0000
0000
0000
0000
1000
0000
0000
0100
0000
0000
1000
0000
0100
0000
0000
0010
0000
0000
0001
0000
0010
0000
0000
0001
0000
0000
1000
0000
,
0001
0000
0000
0000
0000
0000
0000
0000
0220
0000
0000
0000
0330
0000
0000
0000
0001
0000
0000
0001
0000
0000
0001
0000
0010
0000
0000
0010
0000
0000
0010
0000
,
1000
0000
0000
0000
0000
0000
0000
0000
0010
0000
0000
0010
0000
0000
0010
0000
0001
0000
0000
0001
0000
0000
0001
0000
0100
0000
0000
0100
0000
0000
0100
0000
,
1000
0000
0000
0000
0220
0000
0330
0000
0010
0010
0010
0010
0010
0000
0000
0000
,
0100
0100
0100
0100
0100
0000
0001
0000
0010
0000
1000
0000
0110
0000
0000
0000
,
0001
1000
0001
0000
1001
0000
0000
0000
0000
0000
0000
0000
0100
0000
0000
0000
,
0010
2002
0000
0000
,
0000
0000
0000
0000
,
0000
0000
0000
0000
3003
0000
0001
1000
,
0001
1000
0100
0001
0100
2000
0000
3010
,
0100
0010
1000
0001
1000
0100
0010
0001
,
0010
0001
0100
0010
0100
0001
0010
0100
,
1000
0100
0001
0100
1000
0001
0100
0010
,
0100
0001
0010
0100
1000
0000
1010
0000
,
0101
0000
0001
0001
2000
0000
3001
0100
,
0001
0100
1000
0100
1000
0100
0001
0010
,
0100
1000
0010
0100
0010
1000
0100
0001
,
0100
0001
0100
1000
0010
0200
0000
0301
,
0010
0001
0100
0010
0100
0001
1000
0001
,
0010
0100
0010
0001
0100
0001
1000
0010
,
0001
0010
0000
1000
0001
1000
0100
0010
,
0100
0010
0001
0010
1000
0010
0001
0000
,
1000
1100
0011
0202
,
0003
0310
1000
2200
,
3000
0310
0001
2002
,
3000
0000
0103
0000
0010
0000
1000
0100
,
1000
0001
0100
0010
0100
0000
0202
0000
,
0003
0000
0310
1000
0100
0000
2200
0000
,
3000
0000
0310
0001
0100
0000
1002
0000
,
1000
0000
0010
0000
0013
0000
0001
1000
,
0001
0000
2002
0000
3003
0000
1000
0100
,
1000
0100
0001
0100
1000
0100
0010
0001
,
0010
0001
0010
1000
0010
0001
0100
0010
,
0100
0010
1000
0010
0001
0010
1000
0001
,
0100
0010
1000
0100
0010
0001
0100
0010
,
0100
0001
0010
1000
0010
0001
0100
0010
,
1000
0100
0001
0100
1000
0001
0100
0010
,
1000
0010
0100
0001
1000
0100
0001
0100
,
1000
0010
0200
0000
0301
0000
2002
0000
,
0000
0000
0000
3003
;

//--------------- dance-single - forcednature ----------------
#NOTEDATA:;
#STEPSTYPE:dance-single;
#DESCRIPTION:forcednature;
#CREDIT:forcednature;
#DIFFICULTY:Hard;
#METER:17;
#RADARVALUES:0,0,0,0,0;
#NOTES:
0000
0000
0000
0000
,
0000
0000
0000
0000
,
0000
0000
0000
0000
,
0000
0000
0000
0000
,
0000
0000
0000
0000
,
0000
0000
0000
0000
,
0000
0000
0000
0000
,
0000
0000
0000
0000
,
0000
0000
0000
0000
,
1001
0000
0001
0100
0001
0000
0010
0000
,
0100
1000
0100
0000
0010
0001
1000
0010
,
0000
0000
1000
0100
1000
0000
0100
0000
,
0010
0001
0010
0000
0001
0010
0100
1000
,
0001
0000
0100
0001
0100
0000
0010
0000
,
1000
0001
1000
0001
0020
0000
0230
0000
,
1300
0000
0100
0010
0100
0000
1000
0000
,
0001
0000
0100
0000
0010
0000
1000
0000
0001
0100
0010
1000
0001
0000
0000
0000
,
1000
0100
1000
0100
0010
0001
1000
0001
,
0000
0010
0100
0000
0110
0000
1000
0000
,
0001
0100
0001
0100
0010
1000
0001
1000
,
0000
0010
0100
0000
0110
0000
0001
0000
,
1000
0010
1000
0010
0100
0001
0100
1000
,
0000
0100
0001
0100
0010
0000
1001
0000
,
0001
0010
0001
0010
0100
1000
0100
1000
,
0001
0000
0100
0000
0010
0000
1000
0000
0001
0100
0010
1000
0001
0000
0000
0000
,
2100
3001
1200
0301
,
0100
1000
0001
0010
0100
0000
1001
0000
,
0102
1003
0201
1300
,
0100
0001
0100
0010
0110
0000
1001
0000
,
1000
0000
0100
1000
0100
0000
0000
0000
1000
0000
0001
1000
0001
0000
0000
0000
,
0100
0000
0010
0100
0010
0000
1000
0000
0001
0000
0000
0000
1001
0000
0000
0000
,
0001
0000
0100
0001
0100
0000
0000
0000
0010
0000
1000
0010
1000
0000
0000
0000
,
0001
1000
0001
1000
0001
0000
0010
0000
0100
1000
0010
0100
0001
0000
0000
0000
,
0220
0330
0010
2002
0000
0000
0000
0000
,
0000
0000
0000
0000
,
0000
0000
0000
0000
,
3003
0000
0000
0000
0001
0000
1000
0000
0001
0100
0001
0100
0010
0000
1000
0001
,
1000
0000
0010
0000
1000
0100
0010
0000
0001
0100
0010
0000
1000
0001
1000
0001
,
1000
0010
0110
0100
0001
0010
0011
0001
,
1000
0100
0110
0010
0011
0001
0101
0100
,
0110
0000
0010
0000
1000
0010
1000
0000
0001
0010
0001
0000
1000
0100
0010
0001
,
1000
0000
0010
0000
0100
0001
0100
0000
0001
0000
0010
0000
0100
1000
0100
1000
,
0001
0010
0001
1000
0001
0000
0010
0000
0002
0000
0100
0000
0103
0000
0020
0000
,
1000
0000
1030
0000
0001
0000
0010
0001
0010
0000
0100
1000
0100
0000
0010
0000
,
0110
0000
0001
0000
1000
0000
0001
0010
0100
0000
1000
0010
0100
0000
0001
1000
,
0001
0000
0010
0000
0100
1000
0100
1000
0100
0010
0001
0000
1000
0001
1000
0001
,
0100
0010
0110
0100
0001
1000
1010
1000
,
0001
0100
0101
0001
0011
0010
0110
0100
,
1100
0000
1000
0000
0001
0100
0001
0000
1000
0100
1000
0000
0001
0010
0100
1000
,
0001
0000
0100
0000
0010
0100
0010
0100
0001
1000
0001
0100
0001
1000
0100
0010
,
0001
0000
0000
0000
0000
0000
0000
0000
2001
0000
0000
0000
0000
0000
0000
0000
3001
0000
0000
0001
0000
0000
0100
0000
0010
0000
0000
0010
0000
0000
1000
0000
,
0001
0000
0000
0000
0010
0000
0100
0000
1000
0000
0000
1000
0000
0000
0010
0000
0100
0000
0000
0100
0000
0000
0001
0000
0010
0000
0000
0010
0000
0000
0100
0000
,
1000
0000
0000
0000
0001
1000
0001
1000
0002
0000
0000
0000
0000
0000
0000
0000
0103
0000
0000
0010
0000
0000
0100
0000
0110
0000
0000
1000
0000
0000
0100
0000
,
0010
0000
0001
1000
1020
0000
0130
0001
0102
0000
0013
0100
1100
0000
0011
0000
,
1000
0001
1000
0001
1000
0000
0001
0000
0220
0000
0000
0000
0330
0000
0000
0000
1000
0000
0000
0100
0000
0000
1000
0010
1000
0000
0000
0010
0000
0000
0100
0010
,
0100
0000
0001
0000
0010
0000
0100
0000
1000
0000
0000
0001
0000
0000
0100
0001
0100
0000
0000
0010
0000
0000
1000
0001
0100
0000
0000
0010
0000
0000
1000
0001
,
0020
0000
0000
0000
0130
0000
1000
0000
2001
0000
0000
0000
0000
0000
0000
0000
3001
0100
0001
0100
0001
0100
0001
0100
0020
0000
0000
0000
0000
0000
0030
0000
,
1000
0100
1000
0100
1000
0100
1000
0100
0010
0000
0001
0000
0100
0000
0010
1000
0010
0000
0100
0000
0001
1000
0001
1000
0001
0000
0000
0000
0010
0000
0000
0000
,
0100
1000
0010
0000
0110
0000
0000
0000
1000
0000
0000
0000
0010
0000
0100
0000
,
0010
1000
2002
0000
0000
0000
0000
0000
,
0000
0000
0000
0000
,
0000
0000
0000
0000
3003
0000
0001
1000
,
0001
0100
0001
0100
0010
0000
1000
0001
1000
0000
0010
0000
1000
0100
0010
0000
,
0001
0100
0010
0000
1000
0001
1000
0001
1000
0000
0010
0000
0110
0000
0100
0000
,
0001
0010
0011
0001
1000
0100
1100
1000
,
1010
0000
0010
0000
0110
0000
0100
0000
1001
0000
1000
0000
0001
0000
0010
0100
,
1000
0000
0010
0100
0001
0100
0010
0000
1000
0000
0100
0000
0010
0001
0010
0001
,
1000
0010
0100
0001
0010
0100
1000
0100
1000
0000
0001
0000
0102
0000
1003
0000
,
2100
0000
3001
0000
0100
0000
0010
0000
1001
0000
1000
0000
0001
0000
0010
0100
,
1000
0000
0010
0100
0001
0000
0010
0000
1001
0000
1000
0000
0001
0000
1000
0010
,
0100
0000
0001
0010
0100
0000
1000
0001
0100
0000
0010
0000
1000
0001
1000
0001
,
0010
0100
1000
0100
0010
0001
0100
0010
1000
0000
0010
0000
0210
0000
0000
0000
,
0301
0000
0010
0000
0100
1000
0100
1000
0001
0000
0100
0000
1000
0000
0100
0000
,
0001
0000
0100
0000
0010
0100
0010
0100
0010
0000
1000
0000
0001
0010
0001
0000
,
1000
0100
1000
0000
0001
0010
0100
1000
0001
0000
0100
0000
0001
1000
0010
0100
,
0001
1000
0001
0100
0010
1000
0100
0010
0001
0000
0000
0000
1002
0000
0000
0000
,
0000
0000
0013
0100
1000
0100
0120
0000
,
0000
0000
0031
0100
0010
1000
1200
0000
,
0000
0000
0000
0000
0310
0000
0001
0000
0100
0000
0010
0000
1000
0001
1000
0000
,
0010
0100
0010
0000
1000
0010
0100
0001
0010
0000
0000
0000
0012
0000
0000
0000
,
0000
0000
0103
0010
1000
0010
0210
0000
,
0000
0000
0000
0000
0310
0000
1000
0000
0001
0000
0010
0000
0100
1000
0100
1000
,
0100
0000
0010
0000
0001
0100
0001
0100
0010
0000
1000
0000
0001
0010
0100
0000
,
1000
0010
0100
0000
2002
0000
0000
0000
3003
0000
0000
0000
1001
0000
1000
0000
,
1100
0000
0100
0000
0010
0001
0010
0001
0100
0000
0010
1000
0010
0000
0100
0000
,
0101
0000
1000
0000
0010
0100
0010
0100
0001
0000
1000
0100
0010
0000
0001
0000
,
0011
0000
1000
0000
0001
0010
0100
1000
0100
0000
1000
0001
0100
0000
0010
0000
,
1010
0000
0001
0000
0100
0010
0100
0010
0100
0000
0001
0100
0010
0000
1000
0000
,
1100
0000
0001
0000
0010
0001
1000
0001
0010
0000
0100
1000
0010
0000
0100
0000
,
0101
0000
1000
0000
0001
0010
0100
1000
0100
0000
0010
0000
0001
0100
0001
0100
,
0010
1000
0010
1000
0001
0010
0100
0010
0001
1000
0001
0100
0010
1000
0100
0010
,
0001
0100
0010
1000
0001
0100
0010
0100
0001
0000
0000
0000
2002
0000
0000
0000
,
0000
0000
0000
3003
;

//--------------- dance-double - forcednature ----------------
#NOTEDATA:;
#STEPSTYPE:dance-double;
#DESCRIPTION:forcednature;
#CREDIT:forcednature;
#DIFFICULTY:Easy;
#METER:11;
#RADARVALUES:0,0,0,0,0;
#NOTES:
00000000
00000000
00000000
00000000
,
00000000
00000000
00000000
00000000
,
00000000
00000000
00000000
00000000
,
00000000
00000000
00000000
00000000
,
00000000
00000000
00000000
00000000
,
00000000
00000000
00000000
00000000
,
00000000
00000000
00000000
00000000
,
00000000
00000000
00000000
00000000
,
00000000
00000000
00000000
00000000
,
00011000
00000000
00010000
00001000
,
00000000
00001000
00010000
00000010
,
00001000
00000000
00001000
00000100
,
00000000
00000010
00000001
00000100
,
00000010
00000000
00000010
00001000
,
00000000
00000100
00010000
00001000
,
00100000
00000000
00100000
00001000
,
00020000
00001000
00000100
00032000
,
00013000
00001000
01000000
00010000
,
00000000
01000000
00100000
01000000
,
00000000
00010000
10000000
00010000
,
00100000
01000000
20000000
30020000
,
00030000
01000000
00001000
00001000
,
02000000
03000000
00001000
00010000
,
00000000
00000010
00001000
00000010
,
00000100
00000001
00000010
00000100
,
00002000
00003001
00002000
00003001
,
00001000
00000010
00010000
00001000
,
02000000
03010000
02000000
03010000
,
01000000
00100000
01100000
10010000
,
00020000
00130000
00002000
00013000
,
00000010
00001000
00000100
00000010
,
00000002
00000103
00000020
00001030
,
00000001
00000100
00002000
00003000
,
00011000
00000000
00000000
00022000
00000000
00000000
00000000
00000000
,
00000000
00000000
00000000
00000000
,
00000000
00000000
00000000
00000000
,
00033000
00000000
00001000
00000000
00010000
00000000
00001000
00010000
,
00001000
00020000
00000000
00000000
00030000
00000000
00000010
00000000
,
00001000
00000100
00000010
00000001
,
00000100
00000001
00001000
00000100
,
00010000
00001000
00100000
00010000
,
01000000
00000000
00100000
00000000
10000000
00000000
01000000
10000000
,
01000000
00100000
00010000
01000000
,
00010000
00100000
00001000
00010000
,
00000010
00000000
00001000
00000000
00000100
00000000
00001000
00000001
,
00001000
00000002
00000000
00000000
00000003
00000000
00000010
00000000
,
00000100
00001000
00000010
00010000
,
00001000
01000000
00010000
00100000
,
01000000
00000000
10000000
00000000
00100000
00000000
01000000
00010000
,
01000000
00010000
00100000
00001000
,
00011000
00000000
00000000
00000000
00000100
00000100
00000100
00000000
,
00001000
00000000
00000001
00000001
00000100
00000000
00000010
00000010
,
00001000
00000000
00000100
00000000
00010000
00010000
00010000
00000000
,
00001000
00000000
01000000
01000000
00010000
00000000
10000000
10000000
,
00100000
00000000
10010000
00000000
00010000
00010000
10000000
00000000
,
01000000
00000000
00010000
00010000
00001000
00001000
00010000
00010000
,
00001000
00000000
00000000
00000000
00011000
00000000
00000000
00000000
00000100
00010000
00000100
00010000
00001000
00000000
00000000
00000000
,
01000000
00001000
01000000
00001000
00010000
00000000
00000000
00000000
00000010
00000000
00001000
00000000
00000100
00000000
00000010
00000000
,
00000001
00001001
00000000
00010000
,
00001000
00022000
00000000
00000000
,
00000000
00000000
00000000
00000000
,
00000000
00000000
00033000
00010000
,
00001000
00000000
00010000
00001000
00010000
00002000
00000000
00000000
,
00003000
00100000
00010000
01000000
,
00100000
10000000
01000000
10000000
,
00010000
01000000
00001000
00010000
,
00000010
00001000
00000100
00000010
,
00000001
00000000
00000100
00000001
00000100
00000000
00000010
00000000
,
00001000
00000100
00001000
00000010
,
00010000
00001000
00100000
00010000
,
01000000
00000000
00010000
10000000
00010000
20000000
00000000
00000000
,
30000000
00100000
01000000
00010000
,
00100000
00001000
00010000
00000100
,
00001000
00000010
00000100
00000001
,
00000010
00000000
00000100
00001000
00000100
00000000
00001000
00000000
,
00000010
00010000
00011000
00002000
,
00000000
00000000
00003000
00200000
,
00000000
00000000
00300000
00020000
,
00000000
00000000
00030000
10000000
,
01000000
01100000
10010000
00020000
,
00000000
00000000
00030000
00200000
,
00000000
00000000
00300000
00001000
,
00001000
00010000
00000010
00001000
,
00000010
00002002
00003003
00000001
,
00000100
00000000
00000010
00000100
00000010
00000000
00001000
00000000
,
00000010
00000000
00010000
00001000
00010000
00000000
00001000
00000000
,
00100000
00000000
00010000
10000000
00010000
00000000
10010000
00000000
,
01100000
01100000
10010000
00010000
,
10000000
00000000
01000000
00100000
00010000
00000000
01000000
00000000
,
00001000
00000000
00010000
00001000
00010000
00000000
00000010
00000000
,
00001000
00000000
00000100
00000010
00000001
00000000
00000100
00000000
,
00001010
00001100
00010000
00022000
,
00000000
00000000
00000000
00033000
;

//--------------- dance-double - forcednature ----------------
#NOTEDATA:;
#STEPSTYPE:dance-double;
#DESCRIPTION:forcednature;
#CREDIT:forcednature;
#DIFFICULTY:Medium;
#METER:14;
#RADARVALUES:0,0,0,0,0;
#NOTES:
00000000
00000000
00000000
00000000
,
00000000
00000000
00000000
00000000
,
00000000
00000000
00000000
00000000
,
00000000
00000000
00000000
00000000
,
00000000
00000000
00000000
00000000
,
00000000
00000000
00000000
00000000
,
00000000
00000000
00000000
00000000
,
00000000
00000000
00000000
00000000
,
00000000
00000000
00000000
00000000
,
00011000
00000000
00000010
00000000
00010000
00000000
00000100
00010000
,
00000100
00010000
00000100
00000000
00020000
00000000
00032000
00000000
,
00003000
00000000
00100000
00000000
00010000
00000000
01000000
00100000
,
01000000
00100000
10000000
00000000
00020000
00000000
20030000
00000000
,
30000000
00000000
01000000
00000000
00010000
00000000
00001000
00010000
,
00001000
00010000
00001000
00000000
00020000
00000000
00030020
00000000
,
00000030
00000000
00001000
00000000
00000001
00000000
00000010
00000100
,
00000010
00000100
00001000
00000000
00001100
00000000
00000011
00000000
,
00001000
00000010
00001000
00000000
00000100
00000000
00010000
00001000
,
00000000
00001000
00010000
00000000
00002000
00000000
00203000
00000000
,
00300000
00000000
00010000
01000000
00010000
00000000
01000000
00100000
,
00000000
00100000
01000000
00000000
00020000
00000000
20030000
00000000
,
30000000
00000000
01000000
00100000
01000000
00000000
00100000
00000000
,
00001000
00010000
00001000
00010000
00000200
00000000
00002300
00000000
,
00003000
00000000
00000010
00001000
00000010
00000000
00000100
00000000
,
00000001
00000010
00000100
00000000
00002002
00000000
00003003
00000000
,
00000001
00000100
00000001
00000000
00000100
00001000
00000100
00000000
,
00001000
00010000
00001000
00010000
00100000
00000000
10010000
00000000
,
10000000
01000000
10000000
00000000
01000000
00010000
01000000
00000000
,
00010000
00001000
00010000
00001000
00000010
00000000
00001001
00000000
,
00000001
00000100
00001000
00000000
00010000
00001000
00000100
00000000
,
00001000
00010000
00100000
10000000
00100000
00000000
01100000
00000000
,
10000000
01000000
00010000
00000000
00001000
00010000
01000000
00000000
,
00010000
00001000
00000010
00000001
00000100
00000010
00001000
00000000
,
00000220
00000330
00000000
00002002
00000000
00000000
00000000
00000000
,
00000000
00000000
00000000
00000000
,
00000000
00000000
00000000
00000000
,
00003003
00000000
00000001
00001000
00000001
00001000
00000001
00000100
,
00001000
00020000
00000000
00000000
00030000
00000000
00001000
00010000
,
00001000
00010000
00001000
00000000
00101000
00000000
00100000
00010000
,
10000000
00010000
01000000
00100000
01000000
00010000
00000000
10000000
,
00100000
10000000
00000000
00010000
00100000
01000000
10000000
01000000
,
00010000
00000000
00101000
00000000
00110000
00000000
00001000
00010000
,
00001000
00000000
00010000
00000010
00010000
00000010
00001000
00000100
,
00001000
00000010
00010000
00001000
01000000
00010000
00000000
00010000
,
00100000
01000000
10000000
00010000
10000000
00010000
10000000
01000000
,
00010000
00002000
00000000
00000000
00003000
00000000
00100000
00010000
,
00100000
00010000
01000000
00000000
01010000
00000000
00001000
00010000
,
00000010
00001000
00000010
00000100
00000001
00000010
00000000
00000100
,
00001000
00000100
00000000
00010000
00001000
00010000
00000010
00000100
,
00000010
00001000
00000001
00000000
00000100
00000000
00001010
00000000
,
00001100
00000000
00000000
00000000
00000000
00000000
00000000
00000000
00022000
00000000
00000000
00000000
00033000
00000000
00000000
00000000
00010000
00000000
00000000
00001000
00000000
00000000
00010000
00000000
00001000
00000000
00000000
00100000
00000000
00000000
00001000
00000000
,
00100000
00000000
00000000
00000000
00000000
00000000
00000000
00000000
00010000
00000000
00000000
01000000
00000000
00000000
00010000
00000000
01000000
00000000
00000000
00100000
00000000
00000000
01000000
00000000
00100000
00000000
00000000
10000000
00000000
00000000
00010000
00000000
,
01000000
00000000
00000000
00000000
00000000
00000000
00000000
00000000
02200000
00000000
00000000
00000000
03300000
00000000
00000000
00000000
00010000
00000000
00000000
10000000
00000000
00000000
00010000
00000000
10000000
00000000
00000000
01000000
00000000
00000000
10000000
00000000
,
01000000
00000000
00000000
00000000
00000000
00000000
00000000
00000000
00100000
00000000
00000000
00001000
00000000
00000000
00100000
00000000
00001000
00000000
00000000
00010000
00000000
00000000
00001000
00000000
00010000
00000000
00000000
00000010
00000000
00000000
00001000
00000000
,
00000010
00000000
00000000
00000000
00000100
00000000
00000000
00000000
00000220
00000000
00000000
00000000
00000330
00000000
00000000
00000000
00000001
00000000
00000000
00000001
00000000
00000000
00000001
00000000
00000100
00000000
00000000
00001000
00000000
00000000
00010000
00000000
,
00001000
00000000
00000000
00000000
00000000
00000000
00000000
00000000
00010000
00000000
00000000
00010000
00000000
00000000
00010000
00000000
00100000
00000000
00000000
10000000
00000000
00000000
00100000
00000000
01000000
00000000
00000000
00010000
00000000
00000000
01000000
00000000
,
00100000
00000000
00000000
00000000
20020000
00000000
30030000
00000000
00010000
00010000
00010000
00010000
00010000
00000000
00000000
00000000
,
01000000
01000000
01000000
01000000
01000000
00000000
00001000
00000000
00010000
00000000
00001000
00000000
00011000
00000000
00000000
00000000
,
00100000
00010000
00100000
00000000
10010000
00000000
00000000
00000000
00000000
00000000
00000000
00000000
00010000
00000000
00000000
00000000
,
01000000
20020000
00000000
00000000
,
00000000
00000000
00000000
00000000
,
00000000
00000000
00000000
00000000
30030000
00000000
10000000
00010000
,
10000000
00010000
10000000
01000000
00010000
00002000
00000000
00013000
,
00000100
00010000
00001000
00100000
00001000
00010000
00000010
00001000
,
00000010
00001000
00000100
00000010
00000001
00000100
00000010
00010000
,
00001000
00010000
00000100
00001000
00000100
00000010
00000001
00000100
,
00000010
00010000
00001000
01000000
00010000
00000000
00110000
00000000
,
10100000
00000000
00010000
00010000
20000000
00000000
31000000
00010000
,
01000000
00010000
00001000
00010000
00000100
00001000
00000001
00000100
,
00000010
00010000
00001000
00010000
00000100
00000010
00000001
00001000
,
00000001
00001000
00000001
00000100
00001000
00020000
00000000
00030010
,
00001000
00000010
00010000
00001000
00001000
00010000
00001000
00100000
,
00010000
00100000
01000000
10000000
00100000
01000000
00100000
10000000
,
01000000
00100000
00000000
00001000
00010000
00001000
00000010
00000100
,
00000010
00000100
00001000
00000001
00000100
00000010
00010000
00000000
,
00001000
00101000
00010010
00022000
,
00033000
00001000
00010000
00200000
,
00300000
10000000
00010000
02020000
,
03030000
00000000
01000000
00000000
00001000
00000000
00010000
00001000
,
00010000
00000010
00001000
00000100
00000010
00000000
00000022
00000000
,
00000033
00000001
00000100
00000220
,
00000330
00000010
00010000
00021000
,
00001000
00000000
00000100
00000000
00031000
00000000
00000010
00001000
,
00000010
00000000
00000220
00000000
00000330
00000000
00000100
00000001
,
00000100
00000001
00000100
00001000
00010000
00000000
00100000
10000000
,
00100000
10000000
01000000
00100000
00010000
00000000
01000000
00001000
,
00010000
00001000
00100000
00001000
00010000
00000000
00000010
00000100
,
00001000
00000100
00000001
00000100
00000010
00000000
00010000
00001000
,
00010000
00000100
00001000
00000100
00000010
00000001
00001000
00000010
,
00010000
00001000
01000000
00010000
00100000
01000000
10000000
01000000
,
00010000
00001000
00010000
00000100
00010000
00001000
00000010
00000001
,
00000100
00000120
00010030
00022000
,
00000000
00000000
00000000
00033000
;

//--------------- dance-double - forcednature ----------------
#NOTEDATA:;
#STEPSTYPE:dance-double;
#DESCRIPTION:forcednature;
#CREDIT:forcednature;
#DIFFICULTY:Hard;
#METER:17;
#RADARVALUES:0,0,0,0,0;
#NOTES:
00000000
00000000
00000000
00000000
,
00000000
00000000
00000000
00000000
,
00000000
00000000
00000000
00000000
,
00000000
00000000
00000000
00000000
,
00000000
00000000
00000000
00000000
,
00000000
00000000
00000000
00000000
,
00000000
00000000
00000000
00000000
,
00000000
00000000
00000000
00000000
,
00000000
00000000
00000000
00000000
,
00011000
00000000
00000010
00001000
00000010
00000000
00010000
00000000
,
00000100
00001000
00000100
00000010
00000001
00001000
00000001
00000100
,
00000000
00000000
00000010
00001000
00000010
00000000
00010000
00000000
,
00001000
00100000
00010000
00100000
01000000
10000000
00010000
01000000
,
00000000
00000000
00100000
10000000
00100000
00000000
01100000
00000000
,
01000000
00001000
01000000
00001000
00020000
00000000
00230000
00000000
,
00310000
00000000
00001000
00010000
00001000
00000000
00000010
00000000
,
00000001
00000000
00000010
00000000
00000100
00000000
00001000
00000000
00000001
00001000
00000001
00001000
00000001
00000000
00000000
00000000
,
00000100
00000010
00000100
00000010
00001000
00000100
00010000
00001000
,
00000000
01000000
00010000
00100000
01000000
10000000
01000000
00010000
,
00000000
01000000
10000000
01000000
00100000
00010000
00100000
00001000
,
00010000
00000000
00000010
00001000
00000010
00000000
00000110
00000000
,
00000100
00000001
00000100
00000001
00000010
00000100
00001000
00000100
,
00000000
00001000
00000010
00010000
00001000
00000000
00011000
00000000
,
00010000
00100000
00010000
00100000
10000000
00100000
01000000
00010000
,
00100000
00000000
01000000
00000000
10000000
00000000
00010000
00000000
10000000
00010000
10000000
00010000
10000000
00000000
00000000
00000000
,
01000000
00010000
00001000
00000000
00000010
00001000
00010000
00000000
,
00001000
00000010
00000001
00000100
00000010
00000000
00000110
00000000
,
00000100
00001000
00010000
00000000
00100000
00010000
00001000
00000000
,
00010000
00100000
10000000
01000000
01100000
00000000
10010000
00000000
,
10000000
00000000
01000000
10000000
01000000
00000000
00000000
00000000
00010000
00000000
00001000
00010000
00001000
00000000
00000000
00000000
,
00000010
00000000
00000001
00000010
00000001
00000000
00000100
00000000
00000010
00000000
00000000
00000000
00001001
00000000
00000000
00000000
,
00000001
00000000
00000100
00000001
00000100
00000000
00000000
00000000
00001000
00000000
00010000
00001000
00010000
00000000
00000000
00000000
,
00100000
00000000
10000000
00100000
10000000
00000000
01000000
00000000
00100000
00010000
10000000
00010000
10000000
00000000
00000000
00000000
,
02200000
03300000
00100000
00022000
00000000
00000000
00000000
00000000
,
00000000
00000000
00000000
00000000
,
00000000
00000000
00000000
00000000
,
00033000
00000000
00000000
00000000
00001000
00000000
00010000
00000000
00000100
00010000
00000100
00010000
00001000
00000000
00010000
00000010
,
00010000
00000000
00000010
00000000
00001000
00000010
00000100
00000000
00000001
00000010
00000100
00000000
00001000
00000001
00001000
00000001
,
00001000
00000000
00000010
00000000
00010000
00000000
00001000
00000000
00010000
00000000
00000100
00000000
00000010
00000000
00000100
00001000
,
00000100
00000000
00010000
00000000
00010010
00000000
00000010
00000000
00001010
00000000
00001000
00000000
00000001
00000000
00000010
00000100
,
00001000
00000000
00000010
00000000
00010000
00001000
00010000
00000000
00000100
00001000
00000100
00000000
00010000
00001000
00010000
00001000
,
00100000
00000000
00010000
00000000
01000000
00010000
01000000
00000000
00100000
00000000
10000000
00000000
01000000
00100000
01000000
00100000
,
00010000
10000000
00010000
01000000
00001000
00000000
00010000
00000000
00001000
00000000
00000010
00000000
00000100
00000000
00010000
00000000
,
00000100
00000000
00000010
00000000
00000001
00000000
00000100
00000001
00000100
00000000
00000010
00001000
00000010
00000000
00010000
00000000
,
00011000
00000000
00100000
00000000
00010000
00000000
01000000
00100000
10000000
00000000
01000000
00100000
00010000
00000000
01000000
00010000
,
01000000
00000000
00001000
00000000
00010000
00001000
00010000
00001000
00010000
00000010
00001000
00000000
00000010
00000100
00000010
00000100
,
00000001
00000000
00001000
00000000
00000100
00000000
00000001
00000000
00000100
00000000
00001000
00000000
00000010
00000000
00010000
00001000
,
00010000
00001000
00101000
00100000
00110000
00010000
01000000
10000000
,
01000000
00000000
00010000
00000000
01000000
00100000
01000000
00000000
10000000
00010000
00100000
00000000
01000000
10000000
01000000
10000000
,
00010000
00000000
01000000
00000000
00001000
00010000
00001000
00010000
00000010
00001000
00000010
00010000
00000100
00001000
00000100
00000010
,
00000001
00000000
00000000
00000000
00000000
00000000
00000000
00000000
00002001
00000000
00000000
00000000
00000000
00000000
00000000
00000000
00003001
00000000
00000000
00000001
00000000
00000000
00000001
00000000
00000100
00000000
00000000
00001000
00000000
00000000
00010000
00000000
,
00001000
00000000
00000000
00000000
01000000
00000000
00010000
00000000
00100000
00000000
00000000
00100000
00000000
00000000
00100000
00000000
01000000
00000000
00000000
10000000
00000000
00000000
01000000
00000000
00010000
00000000
00000000
00001000
00000000
00000000
00010000
00000000
,
00001000
00000000
00000000
00000000
00010000
00000010
00010000
00000010
00020000
00000000
00000000
00000000
00000000
00000000
00000000
00000000
00030100
00000000
00000000
00001000
00000000
00000000
00000100
00000000
00000110
00000000
00000000
00000001
00000000
00000000
00000100
00000000
,
00000010
00000000
00010000
00001000
00201000
00000000
00310000
01000000
02010000
00000000
03100000
10000000
11000000
00000000
00110000
00000000
,
10000000
00010000
10000000
00010000
10000000
00000000
00010000
00000000
02000000
00000000
00000000
00000000
03000000
00000000
00000000
00000000
00100000
00000000
00000000
10000000
00000000
00000000
01000000
00000000
00010000
00000000
00000000
00001000
00000000
00000000
00000100
00000000
,
00000001
00000000
00000010
00000000
00000100
00000000
00000010
00000000
00000001
00000000
00000000
00000100
00000000
00000000
00000010
00001000
00000010
00000000
00000000
00010000
00000000
00000000
00001000
00010000
00001000
00000000
00000000
00100000
00000000
00000000
00010000
00100000
,
02000000
00000000
00000000
00000000
13000000
00000000
00000000
00000000
02010000
00000000
00000000
00000000
00000000
00000000
03000000
00000000
00001000
00010000
00001000
00010000
00001000
00010000
00001000
00010000
00000200
00000000
00000000
00000000
00000000
00000000
00000300
00000000
,
00000010
00000100
00000010
00000100
00000010
00000100
00000010
00000100
00000010
00000000
00000001
00000000
00000100
00000000
00000001
00000000
00000010
00000000
00001000
00000000
00010000
00001000
00010000
00001000
00010000
00000000
00000000
00000000
00011000
00000000
00000000
00000000
,
00001000
01000000
00100000
00000000
01100000
00000000
00000000
00000000
10000000
00000000
00000000
00000000
00100000
00000000
01000000
00000000
,
00001000
00022000
00000000
00000000
,
00000000
00000000
00000000
00000000
,
00000000
00000000
00000000
00000000
00033000
00000000
00010000
00001000
,
01000000
00001000
01000000
00001000
00010000
00000000
00001000
00100000
00001000
00000000
00100000
00000000
00010000
00100000
01000000
00000000
,
10000000
00100000
01000000
00000000
00010000
10000000
00010000
10000000
00010000
00000000
00100000
00000000
01100000
00000000
01000000
00000000
,
00010000
00001000
00011000
00010000
00000010
00001000
00001100
00000100
,
00000110
00000010
00000011
00000001
00001001
00000010
00000110
00001000
,
00000100
00000000
00010000
00001000
00010000
00001000
01000000
00000000
00010000
00000000
00100000
00000000
01000000
10000000
01000000
10000000
,
01000000
00100000
00010000
01000000
00001000
00010000
00001000
00010000
00000010
00000000
00010000
00000000
00020100
00000000
00030000
00000000
,
01002000
00000000
00003000
00000000
00010000
00001000
00010000
00001000
00010000
00000000
00000010
00000000
00001000
00000000
00000100
00000010
,
00000001
00000000
00000100
00000001
00000100
00000000
00000010
00000000
00001010
00000000
00010000
00000000
00001000
00000000
00100000
00010000
,
00100000
00000000
01000000
10000000
00100000
00000000
01000000
00010000
01000000
00000000
00001000
00000000
00010000
00000010
00010000
00000010
,
00001000
00000010
00010000
00001000
00010000
00000100
00001000
00000100
00000010
00000000
00000001
00000000
00002001
00000000
00000000
00000000
,
00003010
00000000
00000100
00000000
00000010
00010000
00000010
00010000
00001000
00000000
01000000
00000000
00010000
00000000
00100000
00000000
,
10000000
00000000
00100000
00000000
00010000
00100000
00010000
00100000
00010000
00000000
01000000
00000000
00001000
00010000
00001000
00000000
,
00010000
00000010
00001000
00000000
00000010
00000100
00000001
00001000
00000010
00000000
00000100
00000000
00001000
00010000
00001000
00010000
,
00001000
01000000
00010000
01000000
00100000
10000000
01000000
00100000
00010000
00000000
00000000
00000000
10020000
00000000
00000000
00000000
,
00000000
00000000
00130000
01000000
10000000
01000000
00020000
00000000
,
00000000
00000000
00031000
00000010
00000001
00000010
00000200
00000000
,
00000000
00000000
00000000
00000000
00010300
00000000
00001000
00000000
00000100
00000000
00000010
00000000
00000100
00000001
00000100
00000000
,
00000010
00001000
00000010
00000000
00010000
00001000
01000000
00010000
00100000
00000000
00000000
00000000
21000000
00000000
00000000
00000000
,
00000000
00000000
30100000
01000000
00100000
00010000
00002000
00000000
,
00000000
00000000
00000000
00000000
00003100
00000000
00000001
00000000
00000100
00000000
00000010
00000000
00001000
00000001
00001000
00000000
,
00000100
00010000
00001000
00000000
00010000
00001000
00010000
00001000
00010000
00000000
00100000
00000000
10000000
00100000
01000000
00000000
,
00010000
00100000
01000000
00000000
20020000
00000000
00000000
00000000
30030000
00000000
00000000
00000000
10000000
00000000
00010000
00000000
,
00100000
00000000
00001000
00000000
00010000
00000100
00010000
00000100
00001000
00000100
00001000
00000100
00000010
00000000
00000001
00000000
,
00000100
00000000
00000010
00000000
00001000
00000001
00001000
00000001
00000010
00000100
00000010
00000001
00000010
00000000
00000100
00000000
,
00010000
00000000
00001000
00000000
01000000
00010000
01000000
00010000
01000000
00100000
10000000
00010000
01000000
00000000
00100000
00000000
,
10000000
00000000
01000000
00000000
00100000
00010000
00100000
01000000
00100000
00000000
00001000
00000000
00000010
00000000
00000100
00000000
,
00001000
00000000
00000100
00000000
00000010
00000001
00000010
00000001
00001000
00000100
00001000
00000001
00000100
00000000
00000010
00000000
,
00010000
00000000
00001000
00000000
01000000
00010000
01000000
00010000
10000000
00100000
10000000
00010000
00100000
00000000
01000000
00000000
,
10000000
00000000
01000000
00000000
00010000
00001000
00010000
00001000
00100000
00010000
00100000
00001000
00010000
00000010
00001000
00000010
,
00000100
00000001
00001000
00000100
00000010
00000001
00001000
00000010
00010000
00000000
00000000
00000000
00022000
00000000
00000000
00000000
,
00000000
00000000
00000000
00033000
;
