#VERSION:0.83;
#TITLE:ALL MY TURN -このターンに、オレの全てを賭ける-;
#SUBTITLE:;
#ARTIST:SUPER STAR 満 -MITSURU-;
#TITLETRANSLIT:ALL MY TURN -kono turn ni, ore no subete wo kakeru-;
#SUBTITLETRANSLIT:;
#ARTISTTRANSLIT:SUPER STAR -MITSURU-;
#GENRE:ONLY ONE EURO BEAT;
#CREDIT:Graphics by forcednature;
#MUSIC:ALL MY TURN -kono turn ni ore no subete wo kakeru-.ogg;
#BANNER:ALL MY TURN -kono turn ni ore no subete wo kakeru-.png;
#BACKGROUND:ALL MY TURN -kono turn ni ore no subete wo kakeru--bg.png;
#CDTITLE:;
#SAMPLESTART:86.118;
#SAMPLELENGTH:15.000;
#SELECTABLE:YES;
#OFFSET:0.000;
#BPMS:0.000=170.000
,5.250=42.500
,6.000=170.000
,168.000=85.000
,184.000=170.000
,290.000=42.500
,290.750=680.000
;
#STOPS:5.250=2.118
,6.000=1.324
,216.000=2.824
,290.000=1.765
;
#TIMESIGNATURES:0.000=4=4,
168.000=2=4,
184.000=4=4
;
#DISPLAYBPM:85.000:170.000;
#BGCHANGES:0.000=ALL MY TURN -kono turn ni ore no subete wo kakeru-.mp4=1.000=0=0=0=StretchNoLoop====,
0.000=1.000=0.000=0=0=0=StretchNoLoop====,
99999.000=-nosongbg-=1.000=0=0=0=StretchNoLoop====
;
#FGCHANGES:;

//--------------- dance-single - -ONLY ONE EXTRA- ----------------
#NOTEDATA:;
#STEPSTYPE:dance-single;
#DESCRIPTION:-ONLY ONE EXTRA-;
#DIFFICULTY:Easy;
#METER:7;
#RADARVALUES:0,0,0,0,0;
#CREDIT:-ONLY ONE EXTRA-;
#NOTES:
0000
0000
0000
0000
,
0000
0000
0000
0000
,
1000
0000
0100
0000
,
1000
0000
0010
0000
,
1000
0000
0100
0000
,
0010
0000
0001
0001
,
1000
0001
0100
0010
,
1000
0001
0010
0100
,
1000
1000
0001
0001
,
0200
0000
0000
0000
,
0301
0000
1000
0001
0000
0001
1000
0000
,
0100
0100
0010
0010
,
0001
0000
0000
1000
0000
0000
0001
0000
,
0100
0010
1000
0001
,
1000
0000
0001
1000
0000
1000
0001
0000
,
0010
0010
0100
0100
,
1000
0000
0000
0001
0000
0000
1000
0000
,
0000
0001
0000
0000
0100
0000
0100
0000
,
0020
0000
0000
0030
,
2000
0000
0000
3000
,
0001
1000
0100
0010
,
0100
1000
0001
0100
,
0010
0000
0000
0100
,
0001
1000
0100
0010
,
0100
1000
0001
0100
,
0010
0010
1000
1000
,
0001
1000
0100
0001
,
0100
1000
0001
0000
,
1000
0001
0100
1000
,
0100
0001
1000
1000
,
0001
1000
0100
0010
,
0001
1000
0010
0000
,
0100
0100
0001
0001
,
1000
0100
0010
0001
,
1000
0000
0001
0100
0000
0100
0001
0000
,
1000
1000
0100
0100
,
0010
0000
0000
0100
0000
0000
0010
0000
,
0001
0100
0010
1000
,
0001
0000
1000
0100
0000
0100
1000
0000
,
0001
0001
0100
0100
,
0010
0000
0000
1000
0000
0000
0010
0000
,
0000
1000
0000
0000
0001
0000
0001
0000
,
2000
0000
0000
0000
,
0000
0000
0000
3000
,
0002
0000
0000
0003
0020
0000
0000
0030
,
0200
0000
0000
0300
2000
0000
0000
3000
,
0001
0000
0000
0000
,
1000
0000
0000
0000
,
1001
0000
0000
0000
,
0001
0000
0000
0000
,
0101
0000
0110
0000
,
1010
0000
1001
0000
,
1000
0100
0010
0001
,
0100
0100
0010
0010
,
2000
3000
0000
0000
0000
0000
0000
0000
0000
0000
0000
0000
0000
0000
0000
0000
,
0001
1000
0100
0010
,
0100
1000
0001
0000
,
0100
0001
0100
0010
,
0100
1000
0100
0001
,
1000
0000
0000
0100
0000
0000
1000
0000
,
0001
0000
0000
0100
0000
0000
0001
0000
,
1000
1000
0100
0100
,
0010
0010
0001
0001
,
1000
0010
0001
0010
,
1000
0001
1000
0000
,
0001
0010
1000
0001
,
0100
1000
0001
0000
,
0200
0000
0000
0300
,
0020
0000
0000
0030
,
1010
0000
1001
0000
,
1000
0100
0010
0001
,
0000
1000
0001
0000
0001
1000
0000
0001
,
0000
0000
1000
0000
0000
0000
0001
0000
0200
0000
0000
0300
0000
0000
0000
0000
;

//--------------- dance-single - -ONLY ONE EXTRA- ----------------
#NOTEDATA:;
#STEPSTYPE:dance-single;
#DESCRIPTION:-ONLY ONE EXTRA-;
#DIFFICULTY:Medium;
#METER:11;
#RADARVALUES:0,0,0,0,0;
#CREDIT:-ONLY ONE EXTRA-;
#NOTES:
0000
0000
0000
0000
,
0000
0000
0000
0000
,
1000
0100
0110
0000
,
0001
0100
0110
0000
,
1000
0100
0110
0010
,
0001
0000
1000
0000
0001
1000
0001
0000
,
0100
0000
0010
0000
1000
0001
0010
0000
,
0100
0000
1000
0000
0001
1000
0010
0000
,
0100
0100
0001
0001
,
2000
0000
0000
0000
,
3100
0010
0100
0010
0100
0010
0100
0010
,
0001
0000
0000
0001
0000
0000
1000
0000
0000
1000
0000
0000
0001
0000
0000
0000
,
0100
0001
0100
0000
0010
1000
0010
0000
,
1000
0000
0100
0000
0010
0001
1000
0000
,
0010
0100
0010
0100
0010
0100
0010
0100
,
0001
0000
0000
0001
0000
0000
1000
0000
0000
1000
0000
0000
0001
0000
0000
0000
,
1000
0100
0000
0100
0010
0000
0001
0100
,
0000
0100
0010
0000
1000
0000
1001
0000
,
0001
0100
0010
0010
,
1000
0100
0010
0010
,
0001
0000
0100
0000
0010
1000
0001
0000
,
1000
0000
1000
0000
0100
0010
0001
0010
,
0002
1000
1000
1003
,
2000
0001
0001
3001
,
1000
0100
0010
0000
0001
0100
0010
0000
,
1000
0000
0000
0000
1001
0000
0000
0000
0001
0000
0000
0001
0000
0000
0001
0000
,
1000
0001
0100
0010
1000
0001
1000
0000
,
0001
1000
0100
0010
0001
1000
0001
0000
,
0100
0100
0010
0010
,
1000
0100
0010
0000
0110
0000
1001
0000
,
0001
0100
0010
1000
0001
1000
0100
0000
,
0010
0001
1000
0001
0100
0000
0100
0000
,
0001
1000
0100
0000
0010
0001
1000
0000
,
0001
0000
0100
0000
0010
1000
0001
0000
,
0010
0001
0010
0100
0010
0001
0010
0100
,
1000
0000
0000
1000
0000
0000
0001
0000
0000
0001
0000
0000
1000
0000
0000
0000
,
0001
0100
0010
1000
0010
0100
0001
0000
,
1000
0000
0100
0000
0010
0001
1000
0000
,
0010
1000
0010
0100
0010
1000
0010
0100
,
0001
0000
0000
0001
0000
0000
1000
0000
0000
1000
0000
0000
0001
0000
0000
0000
,
0010
0100
0000
0100
1000
0000
0010
0100
,
0000
0100
0001
0000
1000
0100
0010
0001
,
2000
0000
0000
0000
,
0010
0000
0000
0000
,
0001
0000
0100
0000
,
0001
0000
0000
0000
3010
0010
1000
1000
,
0001
0001
0001
0000
,
1000
1000
1000
0000
,
0100
0010
0001
1000
,
0001
0000
0100
0000
0010
1000
0001
0000
,
1001
0000
0110
0000
,
1001
0000
0110
0000
,
1001
1001
0110
0110
,
1000
0001
1000
0001
0010
0100
0010
0100
,
2000
3000
0000
0000
0000
0000
0000
0000
0000
0000
0000
0000
0000
0000
0000
0000
,
0001
0000
0100
0000
0010
0000
1000
0000
0010
0000
0000
1000
0000
0000
0001
0000
,
1000
0000
0100
0000
0010
0000
0001
0000
0010
0000
0000
0001
0000
0000
1000
0000
,
0001
0000
0100
0000
0010
0000
1000
0000
0001
0000
0000
0010
0000
0000
0001
0000
,
0100
0000
0010
0000
1000
0000
0000
1001
0000
0000
0001
0000
1000
0000
0000
0000
,
0002
0010
0010
0013
,
0200
1000
1000
1300
,
0001
0000
0000
0100
0000
0000
0010
0000
1000
0000
0000
0100
0000
0000
0010
0000
,
0001
0011
1000
1010
,
0001
0000
1000
0000
0100
0000
0010
0000
0001
0000
0000
0010
0000
0000
0001
0000
,
1000
0000
0001
0000
0100
0000
0010
0000
1000
0000
0000
0010
0000
0000
1000
0000
,
0100
0000
0010
0000
0100
0000
0001
0000
0100
0000
0000
1000
0000
0000
0001
0000
,
0100
0010
0100
1000
0100
0010
0100
0000
,
0002
0000
0000
0000
0000
0000
0000
1003
,
2000
0000
0000
0000
0000
0000
0000
3001
,
1000
0100
0010
0000
0001
0100
0010
0000
,
1000
0100
0010
0001
0100
0010
1000
0001
,
0000
0010
0010
0000
0100
0100
0000
1000
,
0000
0000
0001
0000
0000
0000
1000
0000
2002
0000
0000
3003
0000
0000
0000
0000
;

//--------------- dance-single - -ONLY ONE EXTRA- ----------------
#NOTEDATA:;
#STEPSTYPE:dance-single;
#DESCRIPTION:-ONLY ONE EXTRA-;
#DIFFICULTY:Hard;
#METER:15;
#RADARVALUES:0,0,0,0,0;
#CREDIT:-ONLY ONE EXTRA-;
#NOTES:
0000
0000
0000
0000
,
0000
0000
0000
0000
,
1001
0000
0000
0100
0000
0000
0110
0000
0000
0000
0001
0000
0010
0000
0010
0000
,
0110
0000
0000
0001
0000
0000
1001
0000
0000
1000
0000
0000
0100
0000
0100
0000
,
0010
0000
0001
0000
1000
0000
0010
0100
0000
0100
0001
0000
1000
0000
0100
0000
,
0010
0000
0010
0000
0001
0000
0001
0000
0100
0000
0010
0000
1000
0001
1000
0001
,
1000
0000
0100
0000
0010
0000
0001
1000
0000
1000
0010
0000
0100
0000
0100
0000
,
0001
0000
1000
0000
0100
0000
0010
0001
0000
0001
1000
0000
0010
0000
0010
0000
,
1000
0100
1000
0000
0100
0010
0100
0000
0010
0001
0010
0000
1000
0001
1000
0001
,
0200
0000
0000
0000
0000
0000
0001
0001
,
0301
0100
0001
0000
1000
0000
0001
1000
0001
0000
0010
0000
0001
0010
0001
0000
,
1000
0010
0000
0010
0100
0000
0001
0100
0000
0100
0010
0000
1000
0000
1000
0000
,
0100
0010
0100
0000
1000
0000
0100
0010
0100
0000
0010
0000
0100
1000
0100
0000
,
1000
0010
0100
0010
0001
0010
0100
0010
,
1000
0010
1000
0000
0001
0000
1000
0001
1000
0000
0100
0000
1000
0100
1000
0000
,
0001
0010
0000
0010
0100
0000
1000
0100
0000
0100
0010
0000
0001
0000
0001
0000
,
1000
0000
1000
0010
0000
0000
1000
0000
1000
0001
0000
0000
1000
0000
1000
0100
,
0000
0000
0010
0000
0010
0001
0000
0000
1000
0000
0001
0000
0100
0000
0010
0000
,
2000
0010
0000
0010
0000
0010
0000
3010
,
0200
0001
0000
0001
0000
0001
0000
0301
,
1000
0000
0100
0000
0010
0001
0000
0001
1000
0000
0001
0100
0000
0100
0010
0000
,
1000
0000
0001
0000
0010
0100
0000
0100
1000
0000
0001
0100
0000
0100
0010
0000
,
0200
0001
0000
0010
0000
1000
0000
0310
,
1000
0000
0001
0000
0010
0100
0000
0100
1000
0000
0001
0100
0000
0100
0010
0000
,
1000
0001
1000
0000
0100
0000
0010
0000
0001
1000
0001
0000
0100
0000
0010
0000
,
1000
0000
1000
0000
0100
0000
0000
1100
0000
0000
0110
0000
0000
0011
0000
0000
,
0001
0000
0001
0000
0100
0010
0000
0010
1000
0000
0001
1000
0000
1000
0100
0000
,
0010
0000
0010
0000
0001
1000
0000
1000
0010
0000
0100
0001
0000
0001
1000
0000
,
0100
0000
0100
0000
0010
0001
0000
0000
0011
0000
0001
1000
0000
1000
0010
0000
,
0100
0000
0001
0000
1000
0100
1000
0000
0001
0000
0010
0001
0010
0000
0001
0000
,
1000
0000
1000
0000
0010
0100
0000
0100
0001
0000
1000
0100
0000
0100
0010
0000
,
0001
0000
0001
0000
0100
0010
0000
0000
1010
0000
1000
0001
0000
0001
0010
0000
,
0100
1000
0100
0000
0010
0000
0001
0000
0100
0001
0100
0000
0010
0000
1000
0000
,
0100
0010
0100
0001
1000
0010
0001
1000
,
0001
0100
0010
0000
1000
0000
0001
1000
0100
0000
0010
0000
0100
1000
0001
0000
,
0100
0010
0000
0010
1000
0000
0010
0100
0000
0100
0001
0000
1000
0000
1000
0000
,
0001
0010
0100
0000
0010
0000
0100
0010
0001
0000
1000
0000
0001
0010
0100
0000
,
1000
0010
0100
0010
0001
1000
0100
0001
,
1000
0100
0010
0000
0001
0000
1000
0010
0100
0000
0010
0000
0100
0001
1000
0000
,
0100
0010
0000
0010
0001
0000
0010
0100
0000
0100
1000
0000
0001
0000
0001
0000
,
0100
0000
0100
0010
0000
0000
0100
0000
0100
0001
0000
0000
0100
0000
0100
1000
,
0000
0000
0100
0000
0100
0010
0000
0000
1000
0100
1000
0000
0001
0010
0001
0000
,
2002
0000
0000
0000
,
0000
0000
0000
3003
,
2000
0000
3200
0000
,
0320
0000
0032
0000
,
2003
0001
0001
0001
,
3002
1000
1000
1000
,
1003
0000
1000
0000
0100
0000
0010
0000
0001
0000
0100
0020
0000
0000
1030
0000
,
0001
0000
0001
0000
1000
0000
0100
0020
0000
0000
0130
0000
1000
0000
0001
0000
,
0100
0100
0010
1000
0100
0100
0010
0001
,
0100
0100
0010
1000
0100
0100
0010
0001
,
0100
0000
0010
1000
0000
0010
1000
0000
0001
0000
0010
0001
0000
0010
0001
0000
,
0100
0001
0100
0000
0010
0100
0010
0000
1000
0010
1000
0010
1000
0001
1000
0001
,
0020
0030
0000
0000
0000
0000
0000
0000
0000
0000
0000
0000
0000
0000
0000
0000
,
0001
0100
0001
0000
0100
0000
0010
0000
1000
0000
0001
0010
0000
0010
0100
0000
,
1000
0100
1000
0000
0100
0000
0010
0000
0001
0000
1000
0010
0000
0010
0100
0000
,
0001
0010
0100
0000
1000
0000
0001
0000
0100
0010
0100
0001
0000
0001
1000
0000
,
0100
0010
0001
0000
0001
0000
1000
0010
0000
0010
0100
0000
0001
0000
0001
0000
,
2000
0000
0000
0100
0000
0000
3002
0000
0000
0000
1000
0000
1000
0000
1003
0000
,
0020
0000
0000
0001
0000
0000
0230
0000
0000
0000
0001
0000
0001
0000
0301
0000
,
1000
0000
0100
0010
0000
0010
0001
0000
1000
0010
0000
0010
0100
0000
0001
0000
,
1000
0100
0010
0000
0001
0000
0010
0000
0100
1000
0001
0000
0100
0000
0010
0000
,
1000
0001
0010
0000
0100
0000
1000
0000
0010
0000
0100
1000
0000
1000
0100
0000
,
0001
1000
0100
0000
0010
0000
0001
0000
0100
0000
0010
0001
0000
0001
0010
0000
,
1000
0001
0010
0000
0100
0000
1000
0000
0010
0000
0001
1000
0000
1000
0100
0000
,
0001
1000
0100
0000
0010
0000
0001
1000
0000
1000
0010
0000
0100
0000
0100
0000
,
0002
0000
0000
0010
0000
0000
2003
0000
0000
0000
0010
0000
0010
0000
3010
0000
,
0200
0000
0000
0010
0000
0000
0302
0000
0010
0000
0000
2003
0000
0000
3001
0000
,
0101
0000
1000
0010
1010
0000
1000
1000
,
0100
0010
0001
0000
0010
0001
1000
0000
0001
0100
0010
0000
0100
0010
1000
0000
,
0000
1100
1100
0000
0110
0110
0000
0011
,
0000
0000
1001
0000
0000
0000
1001
0000
2001
0000
0000
3001
0000
0000
0000
0000
;

//--------------- dance-single - -ONLY ONE EXTRA- ----------------
#NOTEDATA:;
#STEPSTYPE:dance-single;
#DESCRIPTION:-ONLY ONE EXTRA-;
#DIFFICULTY:Challenge;
#METER:17;
#RADARVALUES:0,0,0,0,0;
#CREDIT:-ONLY ONE EXTRA-;
#NOTES:
0000
0000
0000
0000
,
0000
0000
0000
0000
,
0101
0000
0000
0010
0000
0000
1010
0000
0000
1000
0001
0000
1000
0000
0100
0000
,
1100
0000
0000
0010
0000
0000
0011
0000
0000
0001
1000
0000
0001
0000
0100
0000
,
0001
0000
0001
0000
0100
0000
0010
1000
0000
1000
0001
0000
1000
0100
0010
0000
,
0001
0000
0001
0000
0100
0000
0100
0000
0010
1000
0010
1000
0001
0010
0100
1000
,
0001
0100
0000
0100
0010
0000
0100
0001
0000
0001
1000
0000
0100
0000
0100
0000
,
0010
0100
0000
0100
1000
0000
0001
0100
0000
0100
0010
0000
1000
0000
1000
0000
,
0100
0010
0100
0010
0001
1000
0001
1000
0010
0100
0010
0100
0001
1000
0100
0010
,
0002
0000
0000
0000
0000
0000
0000
0000
0000
0000
0000
0000
0103
0001
0100
0001
,
1000
0100
0010
0001
0010
0100
1000
0100
0010
0001
0010
0100
1000
0100
0010
0001
,
1000
0010
0000
0010
0100
0000
0001
1000
0000
1000
0100
0000
1100
0000
1000
0000
,
0001
1000
0001
0100
0010
0100
0001
1000
0001
0100
0010
0100
0001
1000
0001
0100
,
0010
1000
0001
0000
0001
0010
0100
0000
0100
1000
0001
0000
0001
0200
0000
0000
,
0301
0100
0010
1000
0010
0100
0001
0100
0010
1000
0010
0100
0001
0100
0010
1000
,
0001
0010
0000
0010
0100
0000
1000
0001
0000
0001
0100
0000
0101
0000
0001
0000
,
1000
0010
1000
0200
0000
0000
1300
0010
1000
0200
0000
0000
1300
0010
1000
0200
,
0000
0000
1300
0010
1000
0200
0000
0000
0310
0100
0010
0100
1000
0001
0100
0010
,
2000
0001
0000
0001
0000
0001
0000
3001
,
0020
0000
0100
0000
0000
0000
0100
0000
0000
0000
0100
0000
0000
0000
0130
1000
,
0001
0000
0100
0000
0010
0100
0000
0100
0001
0000
1000
0100
0000
0100
0010
0000
,
0001
0000
0001
0000
1000
0010
0100
0000
0110
0000
0010
1000
0001
0000
0010
0000
,
0200
0000
0010
0000
0000
0000
0001
0000
0000
0000
0010
0000
0000
0000
1300
0001
,
0100
0000
0010
0000
1000
0001
0000
0001
0010
0000
0100
1000
0000
1000
0001
0000
,
0100
0001
0100
0001
0100
0010
0100
0010
0100
1000
0100
1000
0100
0010
0100
0010
,
1000
0000
0001
0000
0101
0000
0000
1010
0000
0000
1100
0000
0000
0011
0000
0000
,
0001
0000
1000
0000
0010
0100
0010
1000
0001
0000
0010
0100
0010
0001
1000
0000
,
0010
0000
0100
0000
0001
1000
0000
1000
0200
0000
0000
0001
0000
0000
0310
0000
,
0001
0000
1000
0000
1000
0010
0100
0000
0001
0000
0001
0010
0100
0000
1000
0000
,
0001
0000
0100
0000
0010
1000
0001
0000
0010
0100
0010
0100
1000
0001
1000
0001
,
0100
0000
0010
0000
1000
0001
0010
0100
0010
0000
0001
1000
0010
0100
0010
0000
,
0100
0000
0001
0000
1000
0100
0000
0100
0002
0000
0000
1000
0000
0000
0103
0000
,
1000
0100
1000
0100
0010
0001
0010
0000
0001
0100
0001
0100
0010
1000
0010
0000
,
1000
0100
0010
0000
0010
0001
1000
0000
1000
0010
0100
0000
0001
1000
0001
1000
,
0100
0010
0001
0010
0100
1000
0001
0100
0010
1000
0010
0100
0001
1000
0100
1000
,
0001
0100
0000
0100
0010
0000
1000
0100
0000
0100
0010
0000
0011
0000
0001
0000
,
0100
0010
0100
0001
1000
0001
0010
0100
0010
0001
1000
0001
0100
0010
0100
0001
,
1000
0100
0010
0000
0010
0001
1000
0000
1000
0010
0100
0000
0100
0002
0000
0000
,
0103
0010
1000
0010
0100
0001
1000
0100
0010
0001
0010
0100
1000
0001
0100
0001
,
1000
0100
0000
0100
0010
0000
0001
0100
0000
0100
0010
0000
1010
0000
1000
0000
,
0001
0010
0001
0100
0010
1000
0001
0010
0001
0100
0010
1000
0001
0010
0001
0100
,
0010
1000
0001
0010
0001
0100
0010
1000
0001
0010
0001
0010
0100
1000
0100
1000
,
0002
0000
0000
0203
,
0320
0000
0000
2030
,
3002
0000
0023
0000
,
2030
0000
3200
0000
,
0301
0001
0001
0001
,
1000
1000
1000
1000
,
1100
0000
0000
0011
0000
0000
0001
0000
0100
0000
0100
0020
0000
0000
1030
0000
,
0001
0000
0001
0000
0010
0000
0100
1000
0000
1000
0001
0000
0100
0000
0010
0000
,
1010
0000
1000
0100
0000
0100
0010
0000
0011
0000
0001
0100
0000
0100
0010
0000
,
1010
0000
1000
0100
0000
0100
0010
0000
0011
0000
0001
0100
0000
0100
0010
0000
,
1000
0100
0010
0001
0000
0001
0100
0010
1000
0100
0010
0001
0000
0001
0100
0010
,
1000
0100
1000
0100
0010
0001
0100
0010
1000
0100
1000
0100
0010
0001
0100
0010
,
2000
3000
0000
0000
0000
0000
0000
0000
0000
0000
0000
0000
0000
0000
0000
0000
,
0001
0100
0010
1000
0010
0000
1000
0000
0100
0010
0001
1000
0000
1000
0010
0000
,
0100
0001
0100
0010
1000
0000
0001
0000
0010
0100
1000
0001
0000
0001
0100
0000
,
0010
1000
0001
0010
0100
0000
1000
0000
0001
0100
0001
0010
0000
0010
0100
0000
,
1000
0100
1000
0100
0010
0000
0001
0100
0000
0100
0010
1000
0001
0010
0100
0000
,
1000
0000
0010
0001
0000
0001
0020
0000
0000
0000
0100
0000
0100
0000
0130
0000
,
0001
0000
1000
0100
0000
0100
0020
0000
0000
0000
0001
0000
0031
0000
1000
0000
,
0001
0000
0100
0010
0000
0010
1000
0000
0001
0010
0000
0010
0100
1000
0100
0000
,
1000
0100
1000
0100
0010
0001
1000
0001
0100
0010
0100
0010
1000
0100
0010
0001
,
0100
0010
0100
0010
1000
0000
0001
0000
1000
0100
0010
1000
0000
1000
0010
0000
,
0100
0010
0100
0010
0001
0000
1000
0000
0001
0100
0010
0001
0000
0001
0010
0000
,
1000
0001
1000
0001
0010
0000
0100
0000
1000
0001
0100
1000
0000
1000
0100
0000
,
0010
1000
0010
1000
0001
0000
0010
1000
0000
1000
0010
0100
0010
0001
1000
0010
,
0200
0000
0001
0000
0000
0000
0010
0000
0000
0000
1000
0000
0000
0000
0310
0100
,
0001
0000
1000
0001
0000
0001
0010
0000
1000
0000
0001
0100
0000
0100
0010
0000
,
0001
1000
0010
0100
0000
0100
0001
1000
0100
0010
0001
0100
0000
0100
0001
1000
,
0100
0010
0100
0010
0001
0100
0010
1000
0100
0010
1000
0001
0100
0010
0001
1000
,
0000
1100
0110
0000
0110
0011
0000
0101
,
0000
0000
0110
0000
0000
0000
1010
0000
2001
0000
0000
3001
0000
0000
0000
0000
;

//--------------- dance-double - -ONLY ONE EXTRA- ----------------
#NOTEDATA:;
#STEPSTYPE:dance-double;
#DESCRIPTION:-ONLY ONE EXTRA-;
#DIFFICULTY:Hard;
#METER:15;
#RADARVALUES:0,0,0,0,0;
#CREDIT:-ONLY ONE EXTRA-;
#NOTES:
00000000
00000000
00000000
00000000
,
00000000
00000000
00000000
00000000
,
00011000
00000000
00000000
01000000
00000000
00000000
01010000
00000000
00000000
00000000
00010000
00000000
10000000
00000000
10000000
00000000
,
11000000
00000000
00000000
00010000
00000000
00000000
00110000
00000000
00000000
00000000
00100000
00000000
00001000
00000000
00001000
00000000
,
00010000
00000000
00000100
00000000
00001000
00000000
00000001
00000100
00000000
00000100
00000010
00000000
00000100
00000000
00001000
00000000
,
00010000
00000000
00100000
00000000
10000000
00000000
00010000
00000000
00100000
00000000
00100000
00000000
00001000
00010000
00001000
00010000
,
00001000
00000000
00000010
00000000
00000001
00000000
00001000
00000010
00000000
00000010
00000100
00000000
00001000
00000000
00010000
00000000
,
00010000
00000000
00100000
00000000
10000000
00000000
00010000
00100000
00000000
00100000
01000000
00000000
00010000
00000000
00001000
00000000
,
00010000
00001000
00010000
00000000
00001000
00000000
00000010
00000000
00000100
00000010
00000100
00000000
00001000
00000001
00001000
00000001
,
00000200
00000000
00000000
00000000
00000000
00000000
00001000
00001000
,
00001300
00010000
00001000
00000000
00100000
00000000
00001000
00010000
00001000
00000000
01000000
00000000
00001000
00010000
00001000
00000000
,
00010000
00100000
00000000
00100000
10000000
00000000
00010000
01000000
00000000
01000000
00100000
00000000
10000000
00000000
10000000
00000000
,
01000000
00100000
01000000
00000000
10000000
00000000
00100000
01000000
00100000
00000000
10000000
00000000
01000000
00100000
01000000
00000000
,
10000000
00100000
00010000
00001000
00010000
01000000
00100000
00001000
,
00010000
00001000
00010000
00000000
00000010
00000000
00010000
00001000
00010000
00000000
00000100
00000000
00010000
00001000
00010000
00000000
,
00001000
00000010
00000000
00000010
00000001
00000000
00001000
00000100
00000000
00000100
00000010
00000000
00000001
00000000
00000001
00000000
,
00000100
00000000
00001000
00020000
00000000
00000000
01030000
00000000
00010000
00002000
00000000
00000000
00003010
00000000
00001000
00020000
,
00000000
00000000
00130000
00000000
00010000
00002000
00000000
00000000
01003000
00000000
00010000
00000000
10000000
00000000
01000000
00000000
,
00200000
00010000
00000000
00010000
00000000
00010000
00000000
00310000
,
00002000
00000100
00000000
00000100
00000000
00000100
00000000
00003100
,
00000010
00000000
00000001
00000000
00001000
00000010
00000000
00000010
00000100
00000000
00001000
00010000
00000000
00010000
00001000
00000000
,
01000000
00000000
00010000
00000000
10000000
01000000
00000000
01000000
00010000
00000000
00001000
00010000
00000000
00010000
00001000
00000000
,
00000020
00001000
00000000
00010000
00000000
00001000
00000000
00000130
,
00000010
00000000
00000001
00000000
00001000
00000010
00000000
00000010
00000100
00000000
00000001
00000100
00000000
00000100
00001000
00000000
,
00010000
00001000
00010000
00000000
01000000
00000000
00010000
00000000
10000000
00010000
10000000
00000000
01000000
00000000
00010000
00000000
,
00001000
00000000
00001000
00000000
00000010
00000000
00000000
00000110
00000000
00000000
00001001
00000000
00000000
00000101
00000000
00000000
,
00000001
00000000
00000001
00000000
00001000
00000010
00000000
00000010
00000100
00000000
00001000
00010000
00000000
00010000
00001000
00000000
,
01000000
00000000
01000000
00000000
00010000
10000000
00000000
10000000
02000000
00000000
00000000
00100000
00000000
00000000
03010000
00000000
,
00001000
00000000
00001000
00000000
00010000
00000100
00000000
00000000
00001100
00000000
00001000
00000100
00000000
00000100
00000010
00000000
,
00000001
00001000
00000001
00000000
00000100
00000000
00000010
00000000
00010000
00001000
00010000
00000000
00100000
00000000
10000000
00000000
,
00010000
00000000
00010000
00000000
10000000
01000000
00000000
01000000
00010000
00000000
00001000
00010000
00000000
00010000
00001000
00000000
,
00000100
00000000
00000100
00000000
00000001
00001000
00000000
00001000
00000100
00000000
00000010
00000001
00000000
00000001
00001000
00000000
,
00000001
00000100
00000001
00000000
00000100
00000000
00001000
00000000
00010000
00001000
00010000
00000000
00000010
00000000
00001000
00000000
,
00000001
00000000
00000010
00000000
00001000
00000000
00010000
00000000
00001000
00000000
00000100
00000000
00000001
00001000
00000010
00000000
,
00010000
00001000
00010000
00000000
00000010
00000000
00010000
00001000
00010000
00000000
00100000
00000000
00010000
00001000
00010000
00000000
,
00001000
00000010
00000000
00000010
00000001
00000000
00001000
00000100
00000000
00000100
00000010
00000000
00000001
00000000
00000001
00000000
,
00000100
00000010
00000100
00000000
00000001
00000000
00000010
00000100
00000010
00000000
00000001
00000000
00000100
00000010
00000100
00000000
,
00001000
00010000
00100000
10000000
01000000
00010000
00001000
00000010
,
00001000
00010000
00001000
00000000
00100000
00000000
00001000
00010000
00001000
00000000
00000010
00000000
00001000
00010000
00001000
00000000
,
00010000
00100000
00000000
00100000
10000000
00000000
00010000
01000000
00000000
01000000
00100000
00000000
10000000
00000000
10000000
00000000
,
01000000
00000000
00010000
00002000
00000000
00000000
00003100
00000000
00001000
00020000
00000000
00000000
00130000
00000000
00010000
00002000
,
00000000
00000000
00003010
00000000
00001000
00020000
00000000
00000000
00130000
01000000
00100000
01000000
00010000
10000000
00010000
10000000
,
02000000
00000000
00000000
00000000
,
00000000
00000000
00000000
00000000
,
03020000
00000000
00030200
00000000
,
00000320
00000000
00000032
00000000
,
00000203
00000010
00000010
00000010
,
00002300
00010000
00010000
00010000
,
01003000
00000000
00000000
01100000
00000000
00000000
00100000
00000000
10000000
00000000
00010000
00100000
00000000
00000000
01000000
00000000
,
10000000
00000000
10000000
00000000
00010000
00000000
00100000
00020000
00000000
00000000
10030000
00000000
01000000
00000000
00010000
00000000
,
00001000
00001000
00000010
00000001
00001000
00001000
00000001
00000100
,
00001000
00001000
00010000
00100000
10000000
10000000
00010000
00100000
,
01000000
00000000
00100000
00010000
00000000
00100000
00010000
00000000
00100000
00000000
00001000
00010000
00000000
00001000
00010000
00000000
,
00000010
00001000
00000010
00000000
00000100
00000000
00000001
00000000
00001000
00000100
00001000
00000100
00000010
00000001
00000010
00000001
,
00002000
00003000
00000000
00000000
00000000
00000000
00000000
00000000
00000000
00000000
00000000
00000000
00000000
00000000
00000000
00000000
,
00000001
00000100
00000001
00000000
00000100
00000000
00001000
00000000
00010000
00000000
00001000
00100000
00000000
00100000
00010000
00000000
,
10000000
01000000
10000000
00000000
01000000
00000000
00010000
00000000
00001000
00000000
00010000
00000010
00000000
00000010
00001000
00000000
,
00000001
00000010
00000001
00000000
00000010
00000000
00001000
00000000
00010000
00001000
01000000
00010000
00000000
00010000
10000000
00000000
,
01000000
00100000
00010000
00000000
00010000
00000000
00001000
00000200
00000000
00000000
00010300
00000000
00001000
00000000
00000010
00000000
,
00000002
00000000
00000000
00001000
00000000
00000000
00000203
00000000
00000000
00000000
00001000
00000000
00001000
00000000
00001300
00000000
,
02000000
00000000
00000000
00100000
00000000
00000000
03020000
00000000
00000000
00000000
10000000
00000000
10000000
00000000
10030000
00000000
,
01000000
00000000
00100000
00001000
00000000
00001000
00010000
00000000
00000100
00001000
00000000
00001000
00000100
00000000
00000010
00000000
,
00000001
00001000
00000001
00000000
00000100
00000000
00000010
00000000
00001000
00000001
00001000
00000000
00000100
00000000
00000010
00000000
,
00000001
00000100
00000001
00000000
00000100
00000000
00001000
00000000
00010000
00001000
00010000
00200000
00000000
00000000
10300000
00010000
,
10000000
01000000
10000000
00000000
01000000
00000000
00010000
00000000
00001000
00010000
00001000
00000020
00000000
00000000
00000031
00001000
,
00000001
00000100
00000010
00001000
00000010
00000000
00010000
00000000
00001000
00010000
00100000
10000000
00000000
10000000
00010000
00000000
,
10000000
00010000
10000000
01000000
10000000
00000000
01000000
00010000
00000000
00010000
00001000
00000000
00100000
00000000
00010000
00000000
,
00002000
00000000
00000000
00010000
00000000
00000000
00003200
00000000
00000000
00000000
00000010
00000000
00000010
00000000
00000310
00000000
,
00000002
00000000
00000000
00001000
00000000
00000000
00000203
00000000
00010000
00000000
00000000
00002300
00000000
00000000
00003100
00000000
,
00000101
00000000
10001000
00100100
10101100
00000000
00000001
00000100
,
00001000
00010000
00001000
00000000
01000000
00010000
01000000
00000000
00100000
10000000
00010000
00000000
00100000
01000000
10000000
00000000
,
00000000
11000000
11000000
00000000
00110000
00110000
00000000
00011000
,
00000000
00000000
00001100
00000000
00000000
00000000
00000110
00000000
00000012
00000000
00000000
00001003
00000000
00000000
00000000
00000000
;

//--------------- dance-double - -ONLY ONE EXTRA- ----------------
#NOTEDATA:;
#STEPSTYPE:dance-double;
#DESCRIPTION:-ONLY ONE EXTRA-;
#DIFFICULTY:Challenge;
#METER:17;
#RADARVALUES:0,0,0,0,0;
#CREDIT:-ONLY ONE EXTRA-;
#NOTES:
00000000
00000000
00000000
00000000
,
00000000
00000000
00000000
00000000
,
00011000
00000000
00000000
01000000
00000000
00000000
01010000
00000000
00000000
00100000
10000000
00000000
00010000
00000000
00100000
00000000
,
00110000
00000000
00000000
00001000
00000000
00000000
00011000
00000000
00000000
00010000
00000100
00000000
00001000
00000000
00000001
00000000
,
00000100
00000000
00000100
00000000
00000010
00000000
00000100
00001000
00000000
00001000
00010000
00000000
00001000
00010000
00001000
00000000
,
00010000
00000000
00010000
00000000
00100000
00000000
00100000
00000000
10000000
00010000
10000000
00010000
00100000
01000000
00100000
01000000
,
10000000
00010000
00000000
00010000
01000000
00000000
00100000
10000000
00000000
10000000
00010000
00000000
00100000
00000000
00100000
00000000
,
01000000
00010000
00000000
00010000
00001000
00000000
00000010
00000001
00000000
00000001
00001000
00000000
00000010
00000000
00000010
00000000
,
00000100
00000001
00000100
00000001
00001000
00000010
00001000
00000010
00010000
00001000
00010000
00001000
01000000
00010000
10000000
01000000
,
00200000
00000000
00000000
00000000
00000000
00000000
00000000
00000000
00000000
00000000
00000000
00000000
00310000
00100000
00010000
00100000
,
00001000
00010000
00001000
01000000
00010000
01000000
00001000
00010000
00001000
01000000
00010000
01000000
00001000
00010000
00001000
01000000
,
00010000
10000000
00000000
10000000
01000000
00000000
00100000
00010000
00000000
00010000
10000000
00000000
10100000
00000000
00100000
00000000
,
10000000
01000000
00100000
00010000
00100000
01000000
10000000
01000000
00100000
00010000
00100000
01000000
10000000
01000000
00100000
00010000
,
10000000
00100000
01000000
00000000
01000000
00001000
00010000
00000000
00010000
00000100
00001000
00000000
00001000
00000200
00000000
00000000
,
00010300
00001000
00010000
00000010
00001000
00000010
00010000
00001000
00010000
00000010
00001000
00000010
00010000
00001000
00010000
00000010
,
00001000
00000001
00000000
00000001
00000010
00000000
00000100
00001000
00000000
00001000
00000001
00000000
00000101
00000000
00000100
00000000
,
00000010
00000100
00001000
00020000
00000000
00000000
00030010
00000100
00001000
00020000
00000000
00000000
00030010
00000100
00001000
00020000
,
00000000
00000000
00030010
00000100
00001000
00020000
00000000
00000000
00130000
01000000
00100000
01000000
00010000
10000000
00010000
10000000
,
02000000
00100000
00000000
00100000
00000000
00100000
00000000
03100000
,
00020000
00000000
00001000
00000000
00000000
00000000
00001000
00000000
00000000
00000000
00001000
00000000
00000000
00000000
00031000
00000100
,
00000010
00000000
00000001
00000000
00001000
00000010
00000000
00000010
00000100
00000000
00001000
00010000
00000000
00010000
00001000
00000000
,
00100000
00000000
00100000
00000000
01000000
10000000
00000000
10000000
00010000
00000000
01000000
00100000
00000000
00100000
00010000
00000000
,
00002000
00000000
00100000
00000000
00000000
00000000
00010000
00000000
00000000
00000000
00000010
00000000
00000000
00000000
00003001
00000100
,
00001000
00000000
00000001
00000000
00000100
00000010
00000000
00000010
00001000
00000000
00010000
01000000
00000000
01000000
00100000
00000000
,
10000000
01000000
10000000
01000000
00100000
01000000
00100000
01000000
00010000
01000000
00010000
01000000
00010000
00001000
00010000
00001000
,
00010000
00000000
00001000
00000000
00011000
00000000
00000000
00110000
00000000
00000000
00011000
00000000
00000000
00001100
00000000
00000000
,
00000001
00000000
00001000
00000000
00000001
00000100
00000001
00000100
00000010
00000000
00001000
00000010
00001000
00000010
00010000
00000000
,
00001000
00000000
00010000
00000000
00100000
10000000
00000000
10000000
00020000
00000000
00000000
00100000
00000000
00000000
00031000
00000000
,
00010000
00000000
00100000
00000000
01000000
10000000
00010000
00000000
01000000
00000000
01000000
00100000
10000000
00000000
00010000
00000000
,
10000000
00000000
01000000
00000000
00010000
00001000
00000000
00001000
00000010
00000000
00000001
00001000
00000001
00000100
00000010
00000000
,
00001000
00000000
00000100
00000000
00000010
00000001
00000010
00000001
00001000
00000000
00000010
00001000
00000010
00001000
00000001
00000000
,
00000010
00000000
00001000
00000000
00010000
00001000
00000000
00001000
00020000
00000000
00000000
00100000
00000000
00000000
10030000
00000000
,
01000000
00010000
01000000
00010000
10000000
01000000
10000000
00000000
01000000
00100000
01000000
00100000
00010000
00100000
00010000
00000000
,
10000000
01000000
00100000
00000000
00100000
00010000
00001000
00000000
00001000
00000100
00000010
00000000
00000001
00001000
00000001
00001000
,
00000010
00010000
00001000
00100000
00001000
00010000
00000010
00010000
00001000
00100000
00001000
00010000
00000010
00010000
00001000
00010000
,
00000100
00001000
00000000
00001000
00000001
00000000
00000100
00000010
00000000
00000010
00001000
00000000
00001010
00000000
00000010
00000000
,
00001000
00000100
00000010
00000001
00000010
00000100
00001000
00000100
00000010
00000001
00000010
00000100
00001000
00000100
00000010
00000001
,
00001000
00000010
00000100
00000000
00000100
00001000
00010000
00000000
00010000
00001000
01000000
00000000
01000000
00020000
00000000
00000000
,
00130000
00001000
00010000
00000010
00010000
00001000
00100000
00001000
00010000
00000010
00010000
00001000
00100000
00001000
00010000
00001000
,
01000000
00010000
00000000
00010000
10000000
00000000
01000000
00100000
00000000
00100000
00010000
00000000
00110000
00000000
00100000
00000000
,
01000000
00010000
00001000
00200000
00000000
00000000
01300000
00010000
00001000
00200000
00000000
00000000
01300000
00010000
00001000
00200000
,
00000000
00000000
01300000
00010000
00001000
00200000
00000000
00000000
01300000
10000000
01000000
10000000
00010000
00100000
00010000
00100000
,
00002000
00000000
00000000
00023000
,
00030200
00000000
00000000
00000320
,
00000032
00000000
00000203
00000000
,
00002300
00000000
02003000
00000000
,
03010000
00010000
00010000
00010000
,
10000000
10000000
10000000
10000000
,
11000000
00000000
00000000
00110000
00000000
00000000
00100000
00000000
00001000
00000000
00001000
00020000
00000000
00000000
00030100
00000000
,
00001000
00000000
00001000
00000000
00000001
00000000
00000100
00000020
00000000
00000000
00001030
00000000
00000100
00000000
00000100
00000000
,
00000010
00000000
00000001
00000100
00000000
00000100
00001000
00000000
00010000
00000000
00100000
10000000
00000000
10000000
00010000
00000000
,
10000000
00000000
01000000
00010000
00000000
00010000
00001000
00000000
00000010
00000000
00000001
00001000
00000000
00001000
00000010
00000000
,
00010000
00001000
00010000
00100000
00000000
00100000
01000000
00010000
10000000
01000000
00100000
01000000
00000000
01000000
00010000
00001000
,
00000010
00000100
00000010
00000100
00001000
00000001
00001000
00000001
00000100
00000010
00000100
00000010
00010000
00001000
00010000
00001000
,
02000000
03000000
00000000
00000000
00000000
00000000
00000000
00000000
00000000
00000000
00000000
00000000
00000000
00000000
00000000
00000000
,
00010000
10000000
00010000
10000000
01000000
00000000
00100000
00000000
00001000
00010000
00001000
00000010
00000000
00000010
00000001
00000000
,
00001000
00000001
00001000
00000001
00000100
00000000
00000010
00000000
00010000
00001000
00010000
00100000
00000000
00100000
10000000
00000000
,
00010000
00100000
00010000
00100000
01000000
00000000
00010000
00000000
00001000
00000010
00000100
00001000
00000000
00001000
00000001
00000000
,
00000100
00000010
00000100
00000010
00001000
00000000
00000001
00000010
00000000
00000010
00001000
00000000
00001000
00010000
00001000
00000000
,
01000000
00000000
00010000
00100000
00000000
00100000
02000000
00000000
00000000
00000000
00100000
00000000
00100000
00000000
03100000
00000000
,
00010000
00000000
01000000
00100000
00000000
00100000
20000000
00000000
00000000
00000000
30010000
10000000
01000000
00100000
00010000
00000000
,
10000000
00000000
01000000
00010000
00000000
00010000
00001000
00000000
00010000
00001000
00000000
00001000
01000000
00000000
00010000
00000000
,
10000000
01000000
10000000
01000000
00100000
00010000
00100000
00010000
00001000
00000100
00001000
00000100
00000010
00000001
00000010
00000001
,
00001000
00000010
00001000
00000000
00000001
00000000
00000100
00000000
00001000
00010000
00001000
01000000
00000000
01000000
00010000
00000000
,
10000000
01000000
00100000
00000000
01000000
00000000
00010000
00000000
00001000
00010000
00001000
00000010
00000000
00000010
00000100
00000000
,
00001000
00000001
00001000
00000001
00000100
00000000
00001000
00000000
01000000
00010000
01000000
00100000
00000000
00100000
10000000
00000000
,
00010000
10000000
00010000
10000000
01000000
00000000
00010000
00001000
00000000
00001000
00010000
00001000
00000010
00000100
00001000
00000000
,
00000002
00000010
00000000
00001000
00000000
00000103
00000010
00001000
,
00000001
00000000
00000100
00001000
00000000
00001000
00010000
00000000
10000000
00000000
01000000
00010000
00000000
00010000
10000000
00000000
,
00010000
00100000
00010000
00100000
00001000
00010000
00001000
00010000
00000100
00001000
00000100
00001000
00000001
00000010
00000001
00000010
,
00000100
00001000
00000001
00000100
00001000
00010000
00001000
01000000
00010000
10000000
01000000
00100000
00010000
01000000
00100000
10000000
,
00000000
11000000
01100000
00000000
00110000
00011000
00000000
00001100
,
00000000
00000000
00000110
00000000
00000000
00000000
00000011
00000000
00001002
00000000
00000000
00010003
00000000
00000000
00000000
00000000
;
