#VERSION:0.83;
#TITLE:808monkey;
#SUBTITLE:;
#ARTIST:AJURIKA;
#TITLETRANSLIT:;
#SUBTITLETRANSLIT:;
#ARTISTTRANSLIT:;
#GENRE:;
#CREDIT:;
#MUSIC:808monkey.ogg;
#BANNER:808monkey-bn.png;
#BACKGROUND:808monkey-bg.png;
#CDTITLE:cdtitle.png;
#SAMPLESTART:12.500;
#SAMPLELENGTH:11.429;
#SELECTABLE:YES;
#OFFSET:0.000;
#BPMS:0.000=168.000
,99.000=84.000
,131.000=168.000
;
#STOPS:;
#BGCHANGES:;
#FGCHANGES:;

//--------------- dance-single - EmeraldX ----------------
#NOTEDATA:;
#STEPSTYPE:dance-single;
#DESCRIPTION:EmeraldX;
#DIFFICULTY:Beginner;
#METER:4;
#RADARVALUES:0,0,0,0,0;
#NOTES:
0000
0000
0000
0000
,
0000
0000
0000
0000
,
0000
0000
0000
0000
,
0000
0000
0000
0000
,
0000
0000
0000
0100
,
0000
0100
0000
0010
,
0000
0010
0000
0001
,
0000
1000
0000
0001
,
0001
1000
1000
1000
,
0000
0000
0001
0001
,
0000
0000
0000
0100
,
0000
0000
0010
0010
,
0000
0000
0000
1000
,
0000
0000
0001
1000
,
0000
0000
0000
0001
,
0000
0000
1000
0001
,
0000
0100
0000
0100
,
0000
0000
0010
0010
,
0000
0000
0000
1000
,
0000
0000
0001
0001
,
0000
0000
0000
0100
,
0000
0000
0010
0100
,
0000
0000
0000
0010
,
0000
0000
0100
0010
,
0000
1000
0000
1000
,
0000
0001
0000
1000
,
0000
0001
1000
0001
,
0000
0100
0000
0001
,
0000
0100
0001
0100
,
0000
0010
0000
0100
,
0000
0010
0100
0010
,
0000
1000
0000
0010
,
0000
1000
0010
1000
,
0000
0000
0000
0000
,
0000
0000
0000
0000
,
0000
0000
0000
0000
,
0000
0000
0000
1000
,
0000
0000
0000
1000
,
0000
0001
0000
0001
,
0000
0000
0000
0001
,
0000
0100
0000
0100
,
0000
0010
0000
0100
,
0000
0010
0000
1000
,
1000
0001
0001
0001
,
0000
0000
0000
0100
,
0000
0100
0000
0100
,
0010
0100
0000
0010
,
0000
0010
0000
0100
,
0010
0100
0000
0001
,
0000
0001
0000
1000
,
0001
1000
0000
0001
,
0000
0001
0000
1000
,
0001
1000
0000
0001
,
0000
0001
0000
0100
,
0100
0100
0100
0100
,
0000
0100
0000
0010
,
0010
0010
0010
0010
,
0000
1000
0000
0001
,
0000
0100
0000
0010
,
0000
1000
0000
0001
,
0000
0100
0000
0010
,
0000
0010
0000
1000
,
0000
1000
0000
0001
,
0000
0001
0000
0100
,
0000
0100
0000
0010
,
0000
1000
0000
0001
,
0000
0010
0000
0100
,
0000
1000
0000
0001
,
0000
0100
0000
0010
;

//--------------- dance-single - EmeraldX ----------------
#NOTEDATA:;
#STEPSTYPE:dance-single;
#DESCRIPTION:EmeraldX;
#DIFFICULTY:Easy;
#METER:6;
#RADARVALUES:0,0,0,0,0;
#NOTES:
0000
0000
0000
0000
,
0000
0000
0000
0000
,
0000
0000
0000
0000
,
0000
0000
0000
0000
,
0000
0000
0000
0010
,
0000
0010
0000
0100
,
0000
0100
0000
0001
,
1000
0001
1000
0010
,
0010
0100
0100
1001
,
0000
1001
0000
0101
,
0101
0101
0000
1001
,
0000
1001
0000
1100
,
1001
0101
1001
0110
,
0000
0110
0000
1010
,
1010
1010
0000
0110
,
0000
0110
0000
0100
,
0001
1000
0100
1100
,
0000
0101
0000
1100
,
0101
1100
0000
0101
,
0000
1100
0000
0101
,
0101
1100
1100
0011
,
0000
1010
0000
0011
,
1010
0011
0000
1010
,
0000
0011
0000
1000
,
0010
0100
0001
1000
,
0001
0000
0100
0100
0100
0000
0010
0000
,
1000
0000
0001
0000
0010
0001
0010
0000
,
0001
0000
1000
1000
1000
0000
0001
0000
,
0100
0010
2000
3001
,
0010
0000
0100
0100
0100
0000
0010
0000
,
0001
0000
1000
0000
0001
0100
0001
0000
,
1000
0000
0010
0010
0010
0000
1000
0000
,
0001
0000
0100
0000
0010
1000
0010
0000
,
0000
0000
0000
0000
,
0000
0000
0000
0000
,
0200
0000
0000
0000
,
0310
0110
1001
0001
,
0001
0001
0000
1000
,
0100
1000
0100
0010
,
0010
0010
0000
0100
,
1000
0100
1000
0001
,
0001
0100
0000
0010
,
0010
1000
0000
0001
,
0010
0100
1000
0001
,
0001
0001
1000
1001
,
1001
1001
0000
0100
,
0001
0100
0010
0110
,
0110
0110
0000
1000
,
0001
0100
0001
1000
,
1000
0100
0100
0010
,
0010
0001
0001
1000
,
0010
1000
0010
0100
,
0001
0010
0000
1001
,
1001
1001
0000
1000
,
0010
1000
0100
0110
,
0110
0110
0000
0010
,
0001
1000
0001
0100
,
0100
0001
0001
0010
,
0010
0100
0100
1000
,
0001
0100
0001
1000
,
0100
0010
0200
1300
,
1000
1001
0001
0100
,
0001
1000
0100
0010
,
0010
0110
0100
1000
,
0010
0100
0001
1000
,
0100
1000
0001
0100
,
0001
1000
0010
0100
,
0001
0010
0100
1000
,
0010
0010
0100
1001
;

//--------------- dance-single - EmeraldX ----------------
#NOTEDATA:;
#STEPSTYPE:dance-single;
#DESCRIPTION:EmeraldX;
#DIFFICULTY:Medium;
#METER:10;
#RADARVALUES:0,0,0,0,0;
#NOTES:
0000
0000
0000
0000
,
0000
0000
0000
0000
,
0000
0000
0000
0000
,
0000
0000
0000
0000
,
0000
0000
0000
0000
0000
0000
1000
0100
,
1000
0000
0001
0000
0100
0000
0010
1000
,
0010
0000
0100
0000
0001
0000
1000
0001
,
1000
0002
0023
0130
,
0100
0000
0010
0100
0010
0000
0011
0000
,
0011
2000
3001
0101
,
0110
0101
1001
1100
,
1100
2000
3010
2010
,
3020
2030
3001
0101
,
0101
0002
1003
1100
,
0110
1100
1001
0101
,
0101
2000
3100
0010
,
0001
1000
0100
0000
1000
0001
0100
0000
,
0110
0000
0010
0000
1000
0001
1000
0000
,
1000
1000
1001
0001
,
0101
0100
0010
2010
,
3020
0230
0301
0101
,
1001
0000
1100
0000
1000
0001
1000
0000
,
0001
0001
1001
1010
,
0110
0000
0101
0000
1000
0100
1000
0000
,
0001
1000
0010
0000
1000
0001
0010
0000
,
0001
0001
0100
0100
0010
1000
0002
0003
,
0200
0000
0300
0000
0010
0000
0010
0000
1000
1000
0000
0000
0001
0000
0000
0000
,
0100
0100
0010
0010
1000
0100
0020
0030
,
0002
0003
1000
0100
0220
0330
1001
1000
,
0010
0000
1000
0000
0001
0000
0100
0000
0001
1000
0001
0000
0020
0000
0030
0000
,
0200
0000
0300
0000
1000
0000
0100
0000
0010
0010
0000
0000
0011
0000
0001
0000
,
1000
0000
0001
0000
0100
0000
0010
0000
1000
0001
1000
0000
0200
0000
0300
0000
,
0020
0000
0030
0000
0001
0000
0100
0000
0010
1000
0010
1000
0001
0000
0000
0000
,
0000
0000
0000
0000
,
0000
0000
0000
0000
,
1000
0001
1000
0001
0100
0010
0100
0010
,
1000
0001
2000
0000
3001
0000
1001
1000
,
1000
0000
0100
0000
0010
0000
0001
1000
,
0001
0100
0000
0001
1000
0001
0010
0010
,
0010
0000
0001
0000
0100
0000
0010
1000
,
0010
0100
0000
0001
1000
0100
1000
0100
,
1000
0000
0001
0000
0100
0000
0010
0100
,
0010
0000
1000
0000
0001
0000
0010
0100
,
0010
0000
0001
1000
0001
0000
1000
0000
,
1000
0000
0010
1000
0001
0000
0010
0001
,
0001
0000
0010
0100
1000
0000
0010
1000
,
0010
0100
0010
0000
1010
0000
1000
0001
,
0001
0000
0100
0001
1000
0000
0100
0010
,
0100
1000
0100
0000
0110
0000
0010
0001
,
0010
0000
0100
1000
0100
0000
0010
0001
,
0010
0001
1000
0000
1010
0000
0010
1000
,
0010
0000
0100
0001
0100
0000
0001
1000
,
0001
1000
0020
0000
0130
0000
0001
0010
,
0100
0000
1000
0010
0100
0000
0001
1000
,
0100
1000
0001
0000
0101
0000
0001
1000
,
0100
0000
1000
0010
0100
0000
0010
1000
,
0010
0100
0001
1000
1000
0000
0001
0000
,
0001
0010
0001
1000
,
1000
0000
0010
0000
1000
0000
0001
0100
,
0010
0000
1000
0000
0001
0000
1000
0100
,
0010
0001
1000
0000
0110
0000
1001
0000
,
1001
0000
1000
0001
1000
0001
0100
0000
,
0001
0000
0010
0001
0010
0000
0011
0000
,
0011
0000
0001
1000
0001
0000
1000
0100
,
1000
0100
0010
0000
0110
0000
0100
1000
,
0010
0000
1000
0100
0010
0000
0001
0100
,
0010
0000
0100
0001
0010
0001
1000
0000
,
0010
1000
0010
0000
0100
0001
0100
0010
,
0100
0001
1000
0100
0010
0000
0110
0000
;

//--------------- dance-single - EmeraldX ----------------
#NOTEDATA:;
#STEPSTYPE:dance-single;
#DESCRIPTION:EmeraldX;
#DIFFICULTY:Hard;
#METER:13;
#RADARVALUES:0,0,0,0,0;
#NOTES:
0000
0000
0000
0000
,
0000
0000
0000
0000
,
0000
0000
0000
0000
,
0000
0000
0000
0000
,
0000
0000
0000
0000
0000
0000
1000
0100
,
1000
0000
0001
0010
0001
1000
0010
0100
,
0001
0000
1000
0010
0100
0001
1000
1000
,
0100
0100
0010
0001
1000
0010
0100
0000
,
0010
1000
0001
1000
2000
3001
1001
0000
,
1001
0000
0000
0000
1000
0000
0000
0010
0000
0000
1000
0000
0001
0000
0000
0000
,
0011
0000
0110
0000
2002
3003
1100
0000
,
1100
0000
0000
0000
0010
0000
0000
0001
0000
0000
0010
0000
0200
0000
0000
0000
,
2300
0000
3002
0003
2002
3003
0110
0000
,
0110
0000
0000
0000
0010
0000
0000
1000
0000
0000
0001
0000
0100
0000
0000
0000
,
0101
0000
1001
0000
2020
3030
0110
0000
,
0110
0000
0000
0000
0100
0000
0000
0001
0000
0000
0010
0000
0001
0000
1000
0010
,
0000
0010
0000
0000
0100
0000
0001
1000
0000
1000
0000
0000
1001
0000
0000
0000
,
0011
0000
0000
0000
0001
0000
0000
0100
0000
0000
0010
0000
1010
0000
0000
0000
,
0101
0000
1100
0000
0220
0330
0011
0000
,
1001
0000
0000
0000
1000
0000
0000
0100
0000
0000
1000
0000
0020
0000
0000
0000
,
0230
0000
0302
0003
2002
3003
1100
0000
,
0011
0000
0000
0000
1000
0000
0000
0010
0000
0000
0100
0000
0101
0000
0000
0000
,
1100
0000
0110
0000
2002
3003
0101
0000
,
1100
0000
0000
0000
1000
0000
0000
0010
0000
0000
0100
0000
0001
0000
0010
0001
,
0000
0001
0000
0000
1000
0000
0010
1000
0000
1000
0000
0000
1001
0000
0002
0000
,
0023
0000
0032
0000
2003
0000
3010
0100
0010
1000
0001
0000
0201
0000
0310
0000
,
2010
0000
3001
0000
1002
0000
0013
0000
0100
2000
0000
3001
1000
0000
0020
0000
,
0230
0000
0320
0000
1030
0001
0010
0001
1000
0010
0100
0000
0102
0000
0013
0000
,
2100
0000
3010
0000
0120
0000
1030
0000
2002
3003
0001
1000
0100
0000
0020
0000
,
0230
0000
2300
0000
3020
0000
0130
0001
1000
0100
0010
0000
0011
0000
0001
1000
,
0001
0000
1000
0010
1000
0000
0001
0100
0010
0200
0000
0301
0100
0000
0020
0000
,
2030
0000
3002
0000
0013
0001
1000
0001
0100
0010
1000
0000
1001
0000
1000
0010
,
0100
0000
0001
1000
0100
0000
0010
0000
0220
0330
0010
0001
1000
0000
0000
0000
,
0000
0000
0000
0000
,
0000
0000
0000
0000
0000
0000
0010
1000
,
0010
0000
0100
0000
0001
0000
0001
0000
1000
0000
1000
0000
0100
0010
0100
0000
,
0010
0100
0010
0000
0002
0000
0000
0000
2003
0000
0000
0000
3001
0000
0001
0000
,
0100
0000
0000
0010
0000
0000
1000
0000
0000
0000
0001
0000
1000
0000
0100
0000
,
0010
0001
0000
1000
0010
0100
0010
0010
,
1000
0000
0000
0001
0000
0000
0100
0000
0000
0000
0010
0000
0100
0000
0001
0000
,
1000
0100
0000
1000
0100
0010
0001
1000
,
0001
0001
1000
0010
1000
1000
0001
0100
,
0010
0010
1000
0100
0010
0010
0001
1000
,
0001
1000
0010
0100
0010
0100
0010
0000
,
0010
0000
0000
0000
0100
0000
0010
0000
2002
0000
3003
0000
1000
0100
1000
0000
,
0100
0000
0000
0100
0010
0000
0001
0000
0000
0000
1000
0000
0001
1000
0001
0000
,
0100
0000
0001
0000
1000
0000
0100
0000
0010
0000
0001
0000
1000
0010
1000
0000
,
0010
0000
0000
1000
0010
0000
1000
0000
0000
0000
0001
0000
0100
0000
0001
0000
,
1000
0000
0100
0000
0010
0000
0001
0000
1001
0000
0000
0000
0001
0100
0001
0000
,
0100
0000
0000
0001
0100
0000
0001
0000
0000
0000
1000
0000
0100
0000
1000
0000
,
0010
0000
0100
0000
0001
0000
0010
0000
0100
0000
1000
0000
0001
1000
0001
0000
,
1000
0000
0000
0001
1000
0000
0001
0000
0000
0000
1000
0000
0010
0000
0100
0000
,
0010
0000
1000
0000
0002
0000
0000
0000
1003
0000
0000
0000
0010
1000
0010
0000
,
1000
0000
0000
0010
1000
0000
0010
0000
0000
0000
1000
0000
0001
0000
0010
0000
,
0100
0000
1000
0000
0001
0000
0100
0000
0010
0000
1000
0000
0001
0100
0001
0000
,
0100
0000
0000
0001
0100
0000
0001
0000
0000
0000
1000
0000
0100
0000
0010
0000
,
0001
1000
0010
0100
0110
0000
0010
0000
,
1000
0001
0100
0001
,
0010
0000
0100
0000
1000
0000
0001
0100
,
0010
0000
1000
0100
0010
0000
0001
0001
,
1000
0001
1000
0000
0110
0000
1000
0010
,
0010
0100
0010
1000
0001
0010
0001
0100
,
0010
1000
0001
0010
0100
1000
0001
0100
,
0100
0010
0100
0001
1000
0100
1000
0010
,
0100
0000
0001
0000
1000
0000
0100
0000
0010
0000
0001
0000
1000
0001
1000
0000
,
0001
0000
1000
0001
1000
0000
0010
0000
1000
0000
0001
0000
0100
0000
0100
0000
,
0100
0000
0001
0000
1000
0000
0100
0000
0010
0000
0100
0000
0010
0100
0010
0000
,
0100
0000
0010
0100
0010
0000
0001
0000
1000
0000
0001
0000
0010
0000
0010
0000
,
0010
0001
1000
0010
0100
0001
0020
0000
,
0000
0000
0000
0030
;

//--------------- dance-single - EmeraldX ----------------
#NOTEDATA:;
#STEPSTYPE:dance-single;
#DESCRIPTION:EmeraldX;
#DIFFICULTY:Challenge;
#METER:15;
#RADARVALUES:0,0,0,0,0;
#NOTES:
0000
0000
0000
0000
,
0000
0000
0000
0000
,
0000
0000
0000
0000
,
0000
0000
0000
0000
,
0000
0000
0000
0000
0000
0000
1000
0100
,
1000
0100
0010
0001
1000
0001
0100
0001
,
0100
0001
1000
0100
0010
0001
0100
0100
,
0010
0000
0010
0000
1000
0001
1000
0001
1000
0001
1000
0001
1000
0000
0001
0000
,
0010
0100
0000
0100
0010
0000
0100
0000
2000
0000
3001
0000
0101
0000
0000
0000
,
0110
0000
0000
0000
1010
0000
0000
1001
0000
0000
0001
0000
0011
0000
0000
0000
,
0110
0000
1100
0000
2002
3003
0011
0000
,
1001
0000
0000
0000
1010
0000
0000
0110
0000
0000
0100
0000
0002
0000
0000
0000
,
2003
0000
0000
3000
2002
0000
3003
0000
0220
0000
0330
0000
1010
0000
0000
0000
,
1100
0000
0000
0000
0011
0000
0000
0101
0000
0000
1000
0000
1100
0000
0000
0000
,
1010
0000
0101
0000
2002
3003
0110
0000
,
1010
0000
0000
0000
1001
0000
0000
0011
0000
0000
0100
0000
2000
0000
3000
0001
,
0100
0001
0000
1000
0200
0000
0300
0000
2002
0000
3003
0000
0110
0000
0000
0000
,
0110
0000
0000
0000
1010
0000
0000
1010
0000
0000
1010
0000
1001
0000
0000
0000
,
0011
0000
0101
0000
2020
3030
1001
0000
,
1001
0000
0000
0000
0110
0000
0000
0110
0000
0000
0110
0000
0020
0000
0000
0000
,
2030
0000
0000
3000
2002
0000
3003
0000
0202
0000
0303
0000
1010
0000
0000
0000
,
1010
0000
0000
0000
0101
0000
0000
0101
0000
0000
0101
0000
1001
0000
0000
0000
,
1100
0000
0101
0000
0022
0033
1001
0000
,
1001
0000
0000
0000
1001
0000
0000
0101
0000
0000
0110
0000
2000
0000
3000
0001
,
0010
0000
0001
0000
0000
0000
1000
0000
0020
0000
0000
0000
0030
0000
0000
0000
2002
0000
0000
0000
3003
0000
0000
0000
0101
0000
0000
0000
0100
0000
0000
0010
,
0000
0000
1000
0000
0000
0001
0000
0000
1000
0000
0000
1000
0100
0000
1000
0000
0001
0000
0010
0000
0200
0000
0300
0000
0020
0000
0000
0001
0000
0000
0031
0000
,
2000
0000
0000
0010
0000
0000
3010
0000
0200
0000
0000
0001
0000
0000
0301
0000
1000
0000
0002
0000
0000
0000
0003
0000
1001
0000
0000
0000
1000
0000
0000
0010
,
0000
0000
0100
0000
0000
0010
0000
0000
0100
0000
0010
0100
0010
0000
0100
0000
0001
0000
1000
0000
0020
0000
0030
0000
2000
0000
0000
0010
0000
0000
3001
0000
,
0002
0000
0000
0010
0000
0000
1003
0000
2000
0000
0000
0100
0000
0000
3010
0000
0100
0002
0000
0000
0013
0000
0001
0000
2000
0000
0000
0000
3001
0000
0000
0100
,
0001
0000
1000
0000
0000
0100
0000
0000
1000
0000
0000
0010
0100
0000
0010
0000
1000
0000
0001
0000
0020
0000
0030
0000
0011
0000
0000
0001
0000
0000
0001
0000
,
1100
0000
0000
1000
0000
0000
1000
0000
0010
0000
0000
0100
0010
0000
0010
0000
1000
0000
0200
0000
0000
0000
0310
0000
0002
0000
0000
0000
1003
0000
0000
0010
,
0100
0000
0010
0000
0000
1000
0000
0000
0001
0000
0010
0001
0010
0000
0001
0000
1000
0000
0010
0000
0200
0000
0300
0000
0110
0000
0000
0010
0000
0000
0010
0000
,
1001
0000
0000
1000
0000
0000
1000
0000
0001
0000
0000
0010
0000
0000
0001
0000
1000
0020
0000
0000
0130
0000
0010
0000
1000
0000
0000
0000
0000
0000
0000
0000
,
0000
0000
0000
0000
,
0000
0000
0000
0000
0000
0000
0001
0010
,
0100
0000
0100
0000
0010
0001
0010
0000
0001
1000
0001
0000
1000
0010
1000
0010
,
1000
0001
1000
0001
2000
0000
0000
0000
3002
0000
0000
0000
1003
0000
0010
0000
,
1000
0000
0000
0001
0000
0000
0010
0000
0000
0001
1000
0000
0100
0000
1000
0000
,
0001
0000
1000
0000
0001
0000
0100
0000
0100
0000
0001
1000
0001
0000
0100
0000
,
0001
0000
0000
1000
0000
0000
0010
0000
0000
1000
0001
0000
0100
0000
0010
0000
,
0100
0000
0001
0000
1000
0000
0010
0000
0010
0000
1000
0001
1000
0000
0100
1000
,
0100
0000
0010
0000
0001
0000
1000
0000
0001
0000
1000
0001
1000
0000
0010
1000
,
0010
0000
0100
0000
0001
1000
0001
0000
0001
0000
1000
0100
1000
0001
1000
0001
,
1000
0001
1000
0001
1000
0001
1000
0001
1000
0001
1000
0001
1000
0000
0000
0000
,
0001
0000
0000
0000
0100
0000
0010
0000
2002
0000
3003
0000
0100
0001
0100
0000
,
0010
0000
0100
0001
0100
0000
0010
0000
0000
0100
0001
0000
1000
0100
1000
0100
,
1000
0000
0001
0000
1000
0000
0100
0000
0020
0000
0032
0000
1003
0010
1000
0000
,
0001
0000
1000
0010
1000
0000
0010
0000
0000
1000
0010
0000
0100
0001
0100
0001
,
0100
0001
0010
0100
2200
3300
0010
0001
,
0100
0000
0010
0100
0010
0000
0100
0000
0010
0000
0010
0000
1000
0001
1000
0001
,
1000
0100
1000
0010
0200
0302
1003
0100
,
0010
0000
0001
1000
0001
0000
1000
0000
0001
0000
0001
0000
1000
0000
1000
0000
,
1000
0000
0001
0000
1001
0000
0000
0000
0220
0000
0330
0000
0010
1000
0010
0000
,
0100
0000
0010
1000
0001
0000
0010
0000
0000
0010
0001
0000
1000
0010
1000
0010
,
0100
0000
0001
0000
1000
0000
0010
0000
0200
0000
0302
0000
1003
0100
1000
0000
,
0001
0000
1000
0100
0010
0000
0100
0000
0000
0010
0100
0000
0010
0001
0010
0001
,
0010
0001
0100
0010
2020
3030
1000
0000
,
0001
0000
0000
0010
0001
0000
1000
0000
0000
0001
0100
0000
0010
1000
0010
1000
,
0010
0100
0001
1000
0200
0320
0031
0000
,
1000
0000
0000
0100
0010
0000
0100
0000
0000
1000
0001
0000
0100
0000
0100
0000
,
0100
0010
0110
0000
1001
0000
0011
0010
,
0011
0000
0000
0001
1000
0000
0010
0000
0100
0010
0100
0000
0001
1000
0001
1000
,
0001
0000
1000
0000
0100
0000
0010
0000
0001
1000
0001
0000
0101
0000
0100
0000
,
0101
0000
0000
0001
1000
0000
0100
0000
1000
0100
1000
0000
0001
1000
0001
1000
,
0001
0000
0100
0000
0010
0000
1000
0000
0001
1000
0001
0000
1001
0000
0000
0000
,
1100
0000
0100
1000
0001
0000
0100
0000
0001
0000
1000
0000
0100
1000
0100
1000
,
0001
0000
0100
0000
0010
0000
0010
0000
1000
0001
0010
0100
1000
0000
0001
0000
,
0100
0000
0001
1000
0001
0000
0010
0000
0001
0000
1000
0000
0010
0100
0010
0100
,
0001
0000
1000
0000
0100
0000
0010
0000
0001
1000
0010
0100
0002
0000
0000
0000
,
0000
0000
0000
0003
;
