#VERSION:0.83;
#TITLE:65 Big Plushies Marching;
#SUBTITLE:;
#ARTIST:TonyAkita;
#TITLETRANSLIT:;
#SUBTITLETRANSLIT:;
#ARTISTTRANSLIT:;
#GENRE:TOY MARCH;
#ORIGIN:;
#CREDIT:;
#BANNER:65 Big Plushies Marching.png;
#BACKGROUND:65 Big Plushies Marching-bg.png;
#PREVIEWVID:;
#JACKET:65 Big Plushies Marching-jacket.png;
#CDIMAGE:;
#DISCIMAGE:;
#LYRICSPATH:;
#CDTITLE:;
#MUSIC:65 Big Plushies Marching.ogg;
#OFFSET:-0.002000;
#SAMPLESTART:22.152000;
#SAMPLELENGTH:14.769000;
#SELECTABLE:YES;
#BPMS:0.000=65.000,
95.000=57.500,
95.500=51.000;
#STOPS:;
#DELAYS:;
#WARPS:;
#TIMESIGNATURES:0.000=4=4;
#TICKCOUNTS:0.000=4;
#COMBOS:0.000=1;
#SPEEDS:0.000=1.000=0.000=0;
#SCROLLS:0.000=1.000;
#FAKES:;
#LABELS:0.000=Song Start;
#BGCHANGES:;
#KEYSOUNDS:;
#ATTACKS:
;

//---------------dance-single - ----------------
#NOTEDATA:;
#CHARTNAME:;
#STEPSTYPE:dance-single;
#DESCRIPTION:;
#CHARTSTYLE:;
#DIFFICULTY:Easy;
#METER:4;
#RADARVALUES:0.214596,0.216133,0.052159,0.020864,0.000000,144.000000,139.000000,5.000000,2.000000,0.000000,0.000000,0.000000,0.000000,0.000000,0.214596,0.216133,0.052159,0.020864,0.000000,144.000000,139.000000,5.000000,2.000000,0.000000,0.000000,0.000000,0.000000,0.000000;
#CREDIT:TonyAkita;
#NOTES:
0000
0000
0000
0000
,
0000
0000
0000
0000
,
1000
0100
0010
0001
1000
1000
1000
0000
,
0001
0100
0010
1000
0001
0001
0001
0000
,
1000
0010
1000
0100
1000
0001
1000
0000
,
0001
0010
0001
0100
0001
1000
0001
0000
,
1000
0000
1000
0000
0001
0100
1000
0100
,
0001
0000
0001
0000
1000
0100
0001
0100
,
1000
0000
1000
0000
0001
0010
0100
1000
,
0001
0000
0001
0000
1000
0010
0100
0001
,
1000
0100
1000
0000
0001
0000
0011
0000
,
0001
0100
0001
0000
1000
0000
1010
0000
,
0001
0010
0100
0000
1000
0000
0011
0000
,
1000
0010
0100
0000
0001
0000
1010
0000
,
0001
0100
0010
0100
0001
0001
0001
0000
,
1000
0100
0010
0100
1000
1000
1000
0000
,
0001
0100
0010
1000
0001
0010
0001
0000
,
1000
0100
0010
0001
1000
0010
1000
0000
,
0001
0000
0001
0000
1000
0100
1000
0010
,
1000
0000
1000
0000
0001
0100
0001
0010
,
0001
0000
0001
0000
1000
0100
0010
0001
,
1000
0000
1000
0000
0001
0100
0010
1000
,
0001
0010
1000
0010
0001
0001
0001
0000
,
1000
0010
0001
0010
1000
1000
1000
0220
,
0000
0000
0000
0330
0000
0000
0000
0000
;

//---------------dance-single - ----------------
#NOTEDATA:;
#CHARTNAME:;
#STEPSTYPE:dance-single;
#DESCRIPTION:;
#CHARTSTYLE:;
#DIFFICULTY:Medium;
#METER:8;
#RADARVALUES:0.369583,0.381412,0.146045,0.020864,0.354680,248.000000,234.000000,14.000000,2.000000,0.000000,0.000000,0.000000,0.000000,0.000000,0.369583,0.381412,0.146045,0.020864,0.354680,248.000000,234.000000,14.000000,2.000000,0.000000,0.000000,0.000000,0.000000,0.000000;
#CREDIT:TonyAkita;
#NOTES:
0000
0000
0000
0000
,
0000
0000
0000
0000
,
1000
0000
0000
0100
0000
0000
0010
0000
0000
0100
0000
0000
1000
0000
1000
0001
0000
0001
0100
0000
0000
0011
0000
0000
,
0001
0000
0000
0100
0000
0000
0010
0000
0000
0100
0000
0000
0001
0000
0001
1000
0000
1000
0100
0000
0000
1010
0000
0000
,
1000
0000
0000
0100
0000
0000
1000
0000
0000
0010
0000
0000
0100
0000
0001
0010
0000
0001
1000
0000
0000
1010
0000
0000
,
0001
0000
0000
0100
0000
0000
0001
0000
0000
0010
0000
0000
0100
0000
1000
0010
0000
1000
0001
0000
0000
0110
0000
0000
,
1000
0000
1000
0010
0000
0000
1000
0000
1000
0100
0000
0000
0001
0000
0000
0100
0000
0000
1000
0100
0010
0001
0000
0000
,
0001
0000
0001
0010
0000
0000
0001
0000
0001
0100
0000
0000
1000
0000
0000
0100
0000
0000
0001
0100
0010
1000
0000
0000
,
0001
0000
0010
0001
0000
0000
1000
0000
0010
1000
0000
0000
0001
0000
0000
0100
0000
0000
0001
1000
0001
0010
0000
0000
,
0001
0000
0100
0001
0000
0000
1000
0000
0100
1000
0000
0000
0001
0000
0000
1000
0000
0000
0001
0010
0100
1000
0000
0000
,
0010
0000
0000
1000
0000
0000
0001
0000
1000
0100
0000
0010
0001
0000
0000
0001
0000
0000
0011
0000
0000
0000
0000
0000
,
0010
0000
0000
0001
0000
0000
1000
0000
0001
0100
0000
0010
1000
0000
0000
1000
0000
0000
1010
0000
0000
0000
0000
0000
,
0001
0000
0000
0010
0000
0000
0001
0000
0100
0001
0000
1000
0010
0000
0000
0010
0000
0000
0101
0000
0000
0000
0000
0000
,
1000
0000
0000
0010
0000
0000
1000
0000
0100
1000
0000
0001
0010
0000
0000
0010
0000
0000
1100
0000
0000
0000
0000
0000
,
0001
0000
0000
0100
0000
0000
0010
0000
0000
0100
0000
0000
0001
0000
0001
0000
0001
0000
1000
0000
0000
1010
0000
0000
,
1000
0000
0000
0100
0000
0000
0010
0000
0000
0100
0000
0000
1000
0000
1000
0000
1000
0000
0001
0000
0000
0011
0000
0000
,
1000
0100
1000
0100
0000
0000
0010
0001
0010
0001
0000
0000
1000
0000
1000
0000
1000
0000
0010
0000
0000
0101
0000
0000
,
0001
0100
0001
0100
0000
0000
0010
1000
0010
1000
0000
0000
0001
0000
0001
0000
0001
0000
0010
0000
0000
1100
0000
0000
,
0001
0000
0001
0100
0000
0000
1000
0000
1000
0100
0000
0000
0010
0000
0000
1000
0000
0000
0001
0010
0100
1000
0000
0000
,
1000
0000
1000
0100
0000
0000
0001
0000
0001
0100
0000
0000
0010
0000
0000
0001
0000
0000
1000
0010
0100
0001
0000
0000
,
1000
0000
1000
0100
0000
0000
1000
0000
1000
0010
0000
0000
0100
0000
0000
0001
0000
0000
0010
0001
0010
0001
0000
0000
,
0001
0000
0001
0100
0000
0000
0001
0000
0001
0010
0000
0000
0100
0000
0000
1000
0000
0000
0010
1000
0010
1000
0000
0000
,
0001
0000
0000
0010
0000
0000
1000
0000
0000
0010
0000
0000
0001
0000
0010
0000
0001
0000
1000
0000
0000
1100
0000
0000
,
1000
0000
0000
0010
0000
0000
0001
0000
0000
0010
0000
0000
1000
0000
0010
0000
1000
0000
0001
0000
0000
0220
0000
0000
,
0000
0000
0000
0330
0000
0000
0000
0000
;

//---------------dance-single - ----------------
#NOTEDATA:;
#CHARTNAME:;
#STEPSTYPE:dance-single;
#DESCRIPTION:;
#CHARTSTYLE:;
#DIFFICULTY:Hard;
#METER:13;
#RADARVALUES:0.587160,0.521263,0.312953,0.020864,1.032745,394.000000,364.000000,30.000000,2.000000,0.000000,0.000000,0.000000,0.000000,0.000000,0.587160,0.521263,0.312953,0.020864,1.032745,394.000000,364.000000,30.000000,2.000000,0.000000,0.000000,0.000000,0.000000,0.000000;
#CREDIT:TonyAkita (NO SPEED MODS I DARE YOU);
#NOTES:
// measure 0
0000
0000
0000
0000
,  // measure 1
0000
0000
0000
0000
0000
0000
0000
0000
0000
0000
0000
0000
0000
0000
0000
0000
0000
0000
0000
0000
0000
0000
0000
0000
0000
0000
0000
0000
0000
0000
0000
0000
0000
0000
0000
0000
0000
0000
0000
0000
0000
0000
0000
0000
0000
0000
1000
0100
,  // measure 2
1000
0000
0000
0000
0100
0000
0010
0000
0000
0000
0010
0000
0100
0000
0000
0000
0100
0000
1000
0000
0000
0000
0001
1000
0001
0000
0000
0000
0010
0000
0001
0000
0000
0000
1000
0000
0010
0000
0100
0000
0000
0000
1010
0000
0000
0000
0001
0100
,  // measure 3
0001
0000
0000
0000
0100
0000
0010
0000
0000
0000
0010
0000
0100
0000
0000
0000
0100
0000
0001
0000
0000
0000
1000
0001
1000
0000
0000
0000
0010
0000
1000
0000
0000
0000
0001
0000
0010
0000
0100
0000
1000
0000
1100
0000
0000
0000
0001
0100
,  // measure 4
0001
0000
0000
0000
0100
0000
0010
0000
0000
0000
0100
0000
0001
0000
0000
0000
0100
0000
0010
0000
0000
0000
1000
0010
1000
0000
0000
0000
0001
0000
0010
0000
0000
0000
0001
0000
0100
0000
0001
0000
0000
0000
0011
0000
0000
0000
1000
0100
,  // measure 5
1000
0000
0000
0000
0100
0000
0010
0000
0000
0000
0100
0000
1000
0000
0000
0000
0100
0000
0010
0000
0000
0000
0001
0010
0001
0000
0000
0000
1000
0000
0010
0000
0000
0000
1000
0000
0100
0000
1000
0000
0001
0000
1001
0000
0000
0000
0000
0000
,  // measure 6
0001
0010
0001
0010
0000
0000
0001
0100
0001
0100
0000
0000
1000
0100
0000
0001
0100
0000
0010
0100
0010
0110
0000
0000
,  // measure 7
1000
0010
1000
0010
0000
0000
1000
0100
1000
0100
0000
0000
0001
0100
0000
1000
0100
0000
0010
0001
1000
1001
0000
0000
,  // measure 8
1000
0010
0100
0010
0000
0000
1000
0010
0100
0010
0000
0000
1000
0100
0000
1000
0010
0000
0100
0001
0100
0101
0000
0000
,  // measure 9
0001
0010
0100
0010
0000
0000
0001
0010
0100
0010
0000
0000
0001
0100
0000
0001
0010
0000
0100
1000
0001
1001
0000
0000
,  // measure 10
0011
0000
0000
0000
1000
0000
0001
0000
0000
0000
0000
0000
0101
0000
0000
0000
1000
0000
0001
0000
0000
0000
1000
0010
1000
0000
0000
0000
1000
0000
0000
0000
0001
0000
0010
0000
0100
0000
0000
0000
0000
0000
1100
0000
0000
0000
0000
0000
,  // measure 11
1010
0000
0000
0000
0001
0000
1000
0000
0000
0000
0000
0000
1100
0000
0000
0000
0001
0000
1000
0000
0000
0000
0001
0010
0001
0000
0000
0000
0001
0000
0000
0000
1000
0000
0010
0000
0100
0000
0000
0000
0000
0000
0101
0000
0000
0000
0000
0000
,  // measure 12
1001
0000
0000
0000
1000
0000
0010
0000
0000
0000
0000
0000
1001
0000
0000
0000
0001
0000
0010
0000
0000
0000
0100
1000
0100
0000
0000
0000
1000
0000
0000
0000
0001
0000
0100
0000
0001
0000
0000
0000
0000
0000
0101
0000
0000
0000
0000
0000
,  // measure 13
1001
0000
0000
0000
0001
0000
0010
0000
0000
0000
0000
0000
1001
0000
0000
0000
1000
0000
0010
0000
0000
0000
0100
0001
0100
0000
0000
0000
0001
0000
0000
0000
0100
0000
0010
0000
1000
0000
0000
0000
0000
0000
1010
0000
0000
0000
1000
0100
,  // measure 14
1000
0000
0000
0000
0100
0000
0010
0000
0000
0000
0010
0000
0100
0000
0000
0000
0100
0000
1000
0000
0000
0000
1000
0100
1000
0000
0000
0000
0001
0000
0000
0000
0001
0000
0100
0000
1000
0000
0000
0000
0000
0000
0101
0000
0000
0000
0001
0100
,  // measure 15
0001
0000
0000
0000
0100
0000
0010
0000
0000
0000
0010
0000
0100
0000
0000
0000
0100
0000
0001
0000
0000
0000
0001
0100
0001
0000
0000
0000
1000
0000
0000
0000
1000
0000
0100
0000
0001
0000
0000
0000
0000
0000
1100
0000
0000
0000
0000
0000
,  // measure 16
0001
0000
0010
0000
0001
0000
1000
0000
0010
0000
1000
0000
0001
0000
0010
0000
0100
0000
1000
0000
0000
0000
0001
0010
0001
0000
0000
0000
0001
0000
0000
0000
0100
0000
0010
0000
1000
0000
0000
0000
0000
0000
0101
0000
0000
0000
0000
0000
,  // measure 17
1000
0000
0010
0000
1000
0000
0001
0000
0010
0000
0001
0000
1000
0000
0010
0000
0100
0000
0001
0000
0000
0000
1000
0010
1000
0000
0000
0000
1000
0000
0000
0000
0100
0000
0010
0000
0001
0000
0000
0000
0000
0000
1100
0000
0000
0000
0000
0000
,  // measure 18
0001
0100
0001
0100
0000
0000
1000
0100
1000
0100
0000
0000
0001
0100
0000
0010
0100
0000
0001
1000
0001
0011
0000
0000
,  // measure 19
1000
0100
1000
0100
0000
0000
0001
0100
0001
0100
0000
0000
1000
0100
0000
0010
0100
0000
1000
0001
1000
1010
0000
0000
,  // measure 20
1000
0100
0010
0001
0000
0000
1000
0100
0010
0001
0000
0000
1000
0010
0000
1000
0001
0000
1000
0100
1000
1100
0000
0000
,  // measure 21
0001
0000
0100
0000
0010
0000
1000
0000
0000
0000
0000
0000
0001
0000
0100
0000
0010
0000
1000
0000
0000
0000
0000
0000
0001
0000
0010
0000
0000
0000
0001
0000
1000
0000
0000
0000
0001
0000
0100
0000
0001
0000
0101
0000
0000
0000
1000
0010
,  // measure 22
1000
0000
0000
0000
0010
0000
0001
0000
0000
0000
0001
0000
0010
0000
0000
0000
0010
0000
1000
0000
0000
0000
0001
0010
0001
0000
0000
0000
0010
0000
0000
0000
1000
0000
0010
0000
0001
0000
0000
0000
0000
0000
0011
0000
0000
0000
1000
0100
,  // measure 23
1000
0000
0000
0000
0100
0000
0001
0000
0000
0000
0001
0000
0100
0000
0000
0000
0100
0000
1000
0000
0000
0000
0001
0100
0001
0000
0000
0000
0100
0000
0000
0000
1000
0000
0100
0000
0001
0000
0100
0000
0010
0000
0220
0000
0000
0000
0000
0000
,  // measure 24
0000
0000
0000
0330
0000
0000
0000
0000
;
