#VERSION:0.83;
#TITLE:#LOVECHORD;
#SUBTITLE:;
#ARTIST:iLiFE!;
#TITLETRANSLIT:;
#SUBTITLETRANSLIT:;
#ARTISTTRANSLIT:;
#GENRE:;
#ORIGIN:;
#CREDIT:;
#BANNER:;
#BACKGROUND:;
#PREVIEWVID:;
#JACKET:;
#CDIMAGE:;
#DISCIMAGE:;
#LYRICSPATH:;
#CDTITLE:;
#MUSIC:#LOVECHORD.ogg;
#OFFSET:-0.009000;
#SAMPLESTART:51.387001;
#SAMPLELENGTH:12.000000;
#SELECTABLE:YES;
#BPMS:0.000=189.000;
#STOPS:;
#DELAYS:;
#WARPS:;
#TIMESIGNATURES:0.000=4=4;
#TICKCOUNTS:0.000=4;
#COMBOS:0.000=1;
#SPEEDS:0.000=1.000=0.000=0;
#SCROLLS:0.000=1.000;
#FAKES:;
#LABELS:0.000=Song Start;
#BGCHANGES:;
#KEYSOUNDS:;
#ATTACKS:
;

//---------------dance-single - ----------------
#NOTEDATA:;
#CHARTNAME:;
#STEPSTYPE:dance-single;
#DESCRIPTION:;
#CHARTSTYLE:;
#DIFFICULTY:Edit;
#METER:16;
#RADARVALUES:0.814050,0.970688,0.492180,0.535929,0.355463,521.000000,476.000000,45.000000,49.000000,0.000000,0.000000,0.000000,0.000000,0.000000,0.814050,0.970688,0.492180,0.535929,0.355463,521.000000,476.000000,45.000000,49.000000,0.000000,0.000000,0.000000,0.000000,0.000000;
#CREDIT:;
#NOTES:
// measure 0
0000
0000
0000
0000
,  // measure 1
0000
0000
0000
0000
,  // measure 2
0000
0000
0000
0000
,  // measure 3
0000
0000
0000
0000
,  // measure 4
0000
0000
0000
0000
,  // measure 5
1000
0000
0100
1000
0001
1000
0010
0100
,  // measure 6
0001
0010
0100
1000
0001
1000
0001
0000
,  // measure 7
1000
1000
0100
0100
0010
0010
0001
0001
,  // measure 8
1000
0001
1000
0000
0001
1000
0001
0000
0200
0000
0000
0000
0300
0000
0000
0000
,  // measure 9
0010
0000
1000
0000
0100
0000
0001
0000
0000
0100
0000
0010
0100
0000
1000
0000
,  // measure 10
0001
0000
0100
0000
0010
0000
1000
0000
0100
1000
0100
0000
1000
0000
0100
0000
,  // measure 11
0010
0000
0001
0000
0100
0000
1000
0000
0000
0100
0000
0010
0100
0000
0001
0000
,  // measure 12
1000
0100
1000
0000
0100
0000
0010
0001
0010
0000
0001
0000
1000
0001
1000
0000
,  // measure 13
0100
0000
1000
0000
0010
0000
0001
0000
0000
0010
0000
0100
0010
0000
1000
0000
,  // measure 14
0001
0000
0010
0000
0100
0000
1000
0000
0010
1000
0010
0000
0100
0000
0001
0000
,  // measure 15
0101
0000
1001
0000
0011
0010
0000
0100
,  // measure 16
2000
0000
0000
0000
3001
0100
0010
0000
1000
0000
0000
0000
0001
0000
1000
0000
,  // measure 17
0100
0000
0100
0010
0000
0100
1000
0100
,  // measure 18
0001
0100
1000
0100
0010
0000
0011
0000
,  // measure 19
1000
0001
0100
0010
0000
1000
0000
0001
,  // measure 20
0010
1000
0000
0010
0000
0001
0100
0000
,  // measure 21
0010
1000
0000
0100
0000
0100
1000
0001
,  // measure 22
0010
1000
0010
0001
1000
0100
0010
0000
,  // measure 23
0001
1000
0010
0100
0001
0000
0010
0100
,  // measure 24
0000
1000
0001
1000
0020
0000
0130
0000
,  // measure 25
0201
0000
0000
0000
1300
0000
0000
0100
0010
0000
1000
0000
0001
0000
0020
0000
,  // measure 26
0000
0000
1030
0000
0010
0000
0100
0000
0010
0001
0010
0001
1000
0000
0000
0000
,  // measure 27
1010
0000
0010
0000
0100
0000
0002
0000
0000
0000
0013
0100
0010
0000
0001
0000
,  // measure 28
1000
0010
1000
0000
0001
0000
0010
0000
0001
0100
0010
1000
0001
0000
0000
0000
,  // measure 29
1200
0000
0000
0000
0301
0000
0000
0100
0010
0000
0001
0000
1000
0000
0010
0000
,  // measure 30
0000
0000
0001
0000
0010
0000
0100
0000
0010
1000
0010
1000
0001
0000
0000
0000
,  // measure 31
1000
0001
0010
0200
0000
0301
0100
1000
,  // measure 32
0010
0100
0010
0000
1000
0001
1000
0001
0020
0000
0000
0000
0030
0000
0000
0000
,  // measure 33
0002
0100
0100
0100
0000
2003
0100
0100
,  // measure 34
0100
0000
3001
0010
1000
0001
0100
1000
,  // measure 35
0020
0100
0100
0100
0000
2030
0100
0100
,  // measure 36
3100
0000
1000
0010
0001
1000
0100
0002
,  // measure 37
0000
0013
0011
0000
1100
0000
0101
0000
,  // measure 38
0011
0000
1010
0000
0101
0000
1100
1002
,  // measure 39
0000
0000
0013
0100
0010
0000
0001
0000
0100
0010
1000
0000
0001
0000
0010
0000
,  // measure 40
0001
0100
0001
0100
0010
1000
0010
1000
0001
0000
1000
0100
1000
0000
0001
0000
,  // measure 41
0010
0000
0000
0000
2010
0000
0000
0000
3001
0000
1000
0000
0100
0010
0002
0000
,  // measure 42
0000
0000
1003
0001
0100
0000
0010
0000
2000
0000
0000
0000
3001
0010
0100
0000
,  // measure 43
1100
0000
0000
0000
0102
0000
0000
0000
1003
0000
0010
0000
0100
0001
2000
0000
,  // measure 44
0000
0000
3001
0010
0100
0000
1000
0000
0002
0000
0000
0000
1003
0010
0100
0000
,  // measure 45
0101
0000
0000
0000
2001
0000
0000
0000
3010
0000
1000
0000
0100
0010
0002
0000
,  // measure 46
0000
0000
1003
0010
0100
0000
0001
0000
0010
0100
0010
0000
0100
0000
1000
0000
,  // measure 47
1100
0101
0011
1010
,  // measure 48
0002
0000
0000
0000
0023
0000
0000
0000
0130
0000
1000
0001
0100
0000
0010
0000
,  // measure 49
1000
0000
1000
0000
0011
0000
0000
0000
0001
0000
1000
0000
0100
0010
0002
0000
,  // measure 50
0000
0000
0103
0010
1000
0000
0001
0000
0010
0100
0010
0000
0001
1000
0010
0000
,  // measure 51
0110
0000
0000
0000
1010
0000
0000
0000
1000
0000
0001
0000
0010
0100
2000
0000
,  // measure 52
0000
0000
3010
0100
0001
0000
1000
0000
0100
0010
0100
0000
1000
0001
0010
0000
,  // measure 53
0011
0000
0000
0000
1010
0000
0000
0000
0001
0000
0100
0000
0010
1000
0002
0000
,  // measure 54
0000
0000
0013
0100
1000
0000
0010
0100
0001
0000
0000
0000
0101
0000
0000
0000
,  // measure 55
1100
1000
0010
0100
0102
0000
1003
0001
,  // measure 56
0011
0010
0100
1000
2100
0000
3001
1000
,  // measure 57
1010
0010
0100
0000
0201
0301
1000
0000
,  // measure 58
1200
1300
0001
0010
0210
0310
0001
0000
,  // measure 59
2020
0000
3030
0202
0000
0303
0022
0000
,  // measure 60
0033
2200
0000
3300
0220
0330
2002
3003
,  // measure 61
0220
0000
0000
0330
,  // measure 62
0001
0100
0010
1000
0100
0100
1000
0001
,  // measure 63
0010
0000
0100
0000
0010
0000
1000
0010
0001
0000
1000
0000
0010
0000
0000
0000
,  // measure 64
1000
0010
0100
0001
0010
0010
0100
1000
,  // measure 65
0001
0000
1000
0000
0010
0000
0001
0010
1000
0000
0001
0000
0100
0000
0100
0000
,  // measure 66
0001
0010
0100
1000
0010
0010
0100
0001
,  // measure 67
1000
0000
0001
0000
0010
0000
1000
0010
0001
0000
1000
0000
0001
0000
0000
0000
,  // measure 68
1000
0000
0010
0000
0001
0000
0010
0000
1000
0001
1000
0001
0010
0000
0100
0000
,  // measure 69
2000
0000
0000
0000
3001
0100
0010
0000
1000
0001
1000
0001
0010
0001
1000
0100
,  // measure 70
2000
0000
0000
0000
,  // measure 71
3000
0000
0000
0000
;

//---------------dance-single - ----------------
#NOTEDATA:;
#CHARTNAME:;
#STEPSTYPE:dance-single;
#DESCRIPTION:;
#CHARTSTYLE:;
#DIFFICULTY:Hard;
#METER:14;
#RADARVALUES:0.706239,0.776550,0.328120,0.590616,0.120311,452.000000,422.000000,30.000000,54.000000,0.000000,0.000000,0.000000,0.000000,0.000000,0.706239,0.776550,0.328120,0.590616,0.120311,452.000000,422.000000,30.000000,54.000000,0.000000,0.000000,0.000000,0.000000,0.000000;
#CREDIT:;
#NOTES:
// measure 0
0000
0000
0000
0000
,  // measure 1
0000
0000
0000
0000
,  // measure 2
0000
0000
0000
0000
,  // measure 3
0000
0000
0000
0000
,  // measure 4
0000
0000
0000
0000
,  // measure 5
1000
0000
0100
1000
0001
1000
0010
0100
,  // measure 6
0001
0010
0100
1000
0001
1000
0001
0000
,  // measure 7
1000
1000
0100
0100
0010
0010
0001
0001
,  // measure 8
1000
0001
1000
0000
0001
1000
0001
0000
0200
0000
0000
0000
0300
0000
0000
0000
,  // measure 9
0010
0000
1000
0000
0100
0000
0001
0000
0000
0100
0000
0010
0100
0000
1000
0000
,  // measure 10
0001
0000
0100
0000
0010
0000
1000
0000
0100
1000
0100
0000
1000
0000
0100
0000
,  // measure 11
0010
0000
0001
0000
0100
0000
1000
0000
0000
0100
0000
0010
0100
0000
0001
0000
,  // measure 12
1000
0100
1000
0000
0100
0000
0010
0001
0010
0000
0001
0000
1000
0001
1000
0000
,  // measure 13
0100
0000
1000
0000
0010
0000
0001
0000
0000
0010
0000
0100
0010
0000
1000
0000
,  // measure 14
0001
0000
0010
0000
0100
0000
1000
0000
0010
1000
0010
0000
0100
0000
0001
0000
,  // measure 15
0101
0000
1001
0000
0011
0010
0000
0100
,  // measure 16
2000
0000
0000
0000
3001
0100
0010
0000
1000
0000
0000
0000
0001
0000
0000
0000
,  // measure 17
1000
1000
0100
0100
,  // measure 18
1000
0010
0100
0001
1000
0000
1100
0000
,  // measure 19
0001
0001
0100
0100
,  // measure 20
0001
0010
0000
2000
0000
3010
0001
0000
,  // measure 21
1000
1000
0010
0010
,  // measure 22
0100
0001
1000
0001
0010
0100
1000
0000
,  // measure 23
0001
0000
0001
0000
0100
0000
0001
0010
,  // measure 24
0000
0100
0010
0100
0020
0000
0031
0000
,  // measure 25
0102
0000
1003
0001
0010
0010
0100
2000
,  // measure 26
0000
3001
1000
0010
0100
0100
0010
0000
,  // measure 27
2010
0000
3001
1000
0100
0100
0010
0002
,  // measure 28
0000
1003
0010
0100
0001
0001
1000
0000
,  // measure 29
2100
0000
3001
0010
0100
0100
1000
0020
,  // measure 30
0000
0031
0010
0100
0001
0001
1000
0000
,  // measure 31
0012
0000
1003
0001
0100
0100
0001
0020
,  // measure 32
0000
0000
0130
1000
0001
0000
1000
0000
0020
0000
0000
0000
0130
0000
0000
0000
,  // measure 33
0001
0001
0100
0101
0000
1000
1000
0100
,  // measure 34
1100
0000
0001
0010
0100
0001
0100
0010
,  // measure 35
0001
0001
0100
0110
0000
1000
1000
0100
,  // measure 36
0110
0000
1000
0010
0100
1000
0100
0002
,  // measure 37
0000
0013
0100
0010
1000
0010
0100
0010
,  // measure 38
0001
0100
0010
1000
0001
1000
0100
0020
,  // measure 39
0000
1030
0010
0001
1000
0010
0100
0001
,  // measure 40
0020
0000
0000
0000
0031
1000
0100
0010
,  // measure 41
0001
0000
2010
0000
3001
1000
0001
0020
,  // measure 42
0000
0130
1000
0001
0200
0000
0310
0100
,  // measure 43
0001
0000
2100
0000
3001
1000
0010
0002
,  // measure 44
0000
0013
0100
0010
2000
0000
3100
0010
,  // measure 45
0001
0000
2010
0000
3001
1000
0001
0020
,  // measure 46
0000
0130
0010
0001
1000
0010
0100
0001
,  // measure 47
0020
0230
2300
3001
,  // measure 48
0101
0000
1010
0000
1000
0001
0010
0100
,  // measure 49
1000
1000
0102
0000
1003
0001
1000
0200
,  // measure 50
0000
0310
0001
0100
0020
0000
0031
0010
,  // measure 51
1000
0000
0012
0000
1003
0001
0010
2000
,  // measure 52
0000
3010
0100
0010
0002
0000
0103
0010
,  // measure 53
1000
0000
0012
0000
1003
0001
0100
0020
,  // measure 54
0000
0031
0010
1000
0001
0000
0011
0000
,  // measure 55
0110
0100
1000
0001
0020
0000
0031
0100
,  // measure 56
0010
0010
1000
0001
0020
0000
0130
1000
,  // measure 57
0010
0010
0100
0000
0001
0001
0010
0000
,  // measure 58
0100
0100
1000
0001
1000
1000
0010
0000
,  // measure 59
2020
0000
3030
0202
0000
0303
0022
0000
,  // measure 60
0033
0220
0000
0330
2200
3300
2002
3003
,  // measure 61
0220
0000
0000
0330
,  // measure 62
1000
0100
0001
0100
0010
0010
0001
1000
,  // measure 63
0000
0000
0001
0000
0100
0000
0010
1000
0001
0000
0001
0000
0010
0000
0000
0000
,  // measure 64
0001
0100
1000
0100
0010
0010
1000
0001
,  // measure 65
0000
0000
0001
0000
0010
0000
0100
1000
0001
0000
0001
0000
0100
0000
0001
0000
,  // measure 66
1000
0010
0001
0010
0100
0100
0001
1000
,  // measure 67
0000
0000
0001
0000
1000
0000
0100
0010
0001
0000
0001
0000
1000
0000
0000
0000
,  // measure 68
0001
0000
0100
0000
1000
0000
0100
0000
0001
0100
0001
0100
0010
0000
1000
0000
,  // measure 69
0002
0000
0000
0000
0013
0000
0100
0000
1000
0001
1000
0001
1000
0000
0000
0000
,  // measure 70
2002
0000
0000
0000
,  // measure 71
3003
0000
0000
0000
;

//---------------dance-single - ----------------
#NOTEDATA:;
#CHARTNAME:;
#STEPSTYPE:dance-single;
#DESCRIPTION:;
#CHARTSTYLE:;
#DIFFICULTY:Medium;
#METER:10;
#RADARVALUES:0.484367,0.621240,0.164060,0.382807,0.000000,310.000000,295.000000,15.000000,35.000000,0.000000,0.000000,0.000000,0.000000,0.000000,0.484367,0.621240,0.164060,0.382807,0.000000,310.000000,295.000000,15.000000,35.000000,0.000000,0.000000,0.000000,0.000000,0.000000;
#CREDIT:;
#NOTES:
// measure 0
0000
0000
0000
0000
,  // measure 1
0000
0000
0000
0000
,  // measure 2
0000
0000
0000
0000
,  // measure 3
0000
0000
0000
0000
,  // measure 4
0000
0000
0000
0000
,  // measure 5
0001
0100
0001
0100
,  // measure 6
0010
1000
0010
1000
,  // measure 7
0001
0010
0100
1000
,  // measure 8
0001
1000
0001
1000
0002
0000
0003
0000
,  // measure 9
1000
0100
1000
0010
,  // measure 10
0100
0000
0001
0000
1000
0001
0010
0000
,  // measure 11
0001
0100
0001
1000
,  // measure 12
0010
1000
0001
0000
0010
0001
1000
0000
,  // measure 13
0001
0100
0001
1000
,  // measure 14
0100
0000
0010
0000
0001
1000
0010
0000
,  // measure 15
1000
0000
0010
0000
0100
0001
0000
1000
,  // measure 16
0002
0000
0013
0100
0010
0000
0100
0000
,  // measure 17
1000
1000
0100
1000
,  // measure 18
0100
0000
0100
0000
0010
0001
1000
0000
,  // measure 19
0001
0001
0100
0100
,  // measure 20
0001
1000
0000
0001
0000
1000
0001
0000
,  // measure 21
0010
0010
0001
0010
,  // measure 22
0100
0000
1000
0000
0001
1000
0001
0000
,  // measure 23
1000
0000
1000
0000
0010
0000
0100
0001
,  // measure 24
0000
1000
0001
0000
0020
0000
0030
0000
,  // measure 25
0001
0000
1000
0000
0010
0100
0000
0001
,  // measure 26
0000
0100
0001
0000
1000
0001
0010
0000
,  // measure 27
0100
0000
1000
0000
0001
1000
0000
0010
,  // measure 28
0000
1000
0010
0000
0100
0001
1000
0000
,  // measure 29
0001
0000
0100
0000
0010
1000
0000
0001
,  // measure 30
0000
1000
0100
0000
0010
0001
1000
0000
,  // measure 31
0001
0000
0100
0000
0001
1000
0000
0001
,  // measure 32
0000
0010
0100
0010
0200
0000
0300
0000
,  // measure 33
2000
0100
0000
0001
,  // measure 34
3001
0000
0100
0001
0100
0000
0001
0000
,  // measure 35
0002
0010
0000
1000
,  // measure 36
1003
0000
0100
1000
0100
0000
1000
0001
,  // measure 37
0000
1000
0001
0000
0100
0000
0010
0000
,  // measure 38
1000
0000
0001
0000
0010
0000
0100
0010
,  // measure 39
0000
0001
1000
0000
0001
0100
0010
0100
,  // measure 40
0002
0000
1000
1003
,  // measure 41
0100
0012
1003
0001
,  // measure 42
0100
0100
0010
0010
,  // measure 43
0100
0000
2010
0000
3001
0000
0010
0001
,  // measure 44
0000
0100
0001
0100
0002
0000
0003
0000
,  // measure 45
0010
2100
3001
0100
,  // measure 46
0010
1000
0001
0001
,  // measure 47
2000
3200
0320
0032
,  // measure 48
1000
0000
1003
0000
0001
0100
0010
0000
,  // measure 49
0100
0000
2010
0000
3001
0000
1000
0100
,  // measure 50
0000
0010
0001
0010
0001
0000
1000
0001
,  // measure 51
0010
0000
2100
0000
3001
0000
1000
0010
,  // measure 52
0000
0100
0001
0100
0001
0000
0001
1000
,  // measure 53
0100
0000
0012
0000
1003
0000
0001
0100
,  // measure 54
0000
0010
1000
0001
1000
0000
0001
0000
,  // measure 55
1000
0100
1000
0000
0001
0100
0001
0000
,  // measure 56
1000
0010
1000
0000
0001
0010
0001
0000
,  // measure 57
0020
0130
2002
3003
,  // measure 58
0202
0303
0220
0330
,  // measure 59
2010
0000
0000
3002
0000
0000
0023
0000
,  // measure 60
0000
0230
0000
0000
2300
0000
3002
0000
,  // measure 61
2000
0000
0000
3003
,  // measure 62
0001
0000
0100
0000
0010
1000
0000
0001
,  // measure 63
0000
0001
1000
0000
0001
0010
0100
0000
,  // measure 64
1000
0000
0100
0000
0010
0001
0000
1000
,  // measure 65
0000
1000
0001
0000
1000
0010
0100
0000
,  // measure 66
0001
0000
0010
0000
0100
0010
0000
0001
,  // measure 67
0000
1000
0010
0000
0100
0001
0010
0000
,  // measure 68
0011
0011
0110
0110
,  // measure 69
2000
0000
3001
0100
0010
1000
0001
0000
,  // measure 70
2002
0000
0000
0000
,  // measure 71
3003
0000
0000
0000
;

//---------------dance-single - ----------------
#NOTEDATA:;
#CHARTNAME:;
#STEPSTYPE:dance-single;
#DESCRIPTION:;
#CHARTSTYLE:;
#DIFFICULTY:Easy;
#METER:6;
#RADARVALUES:0.306245,0.388275,0.131248,0.109373,0.000000,196.000000,184.000000,12.000000,10.000000,0.000000,0.000000,0.000000,0.000000,0.000000,0.306245,0.388275,0.131248,0.109373,0.000000,196.000000,184.000000,12.000000,10.000000,0.000000,0.000000,0.000000,0.000000,0.000000;
#CREDIT:;
#NOTES:
// measure 0
0000
0000
0000
0000
,  // measure 1
0000
0000
0000
0000
,  // measure 2
0000
0000
0000
0000
,  // measure 3
0000
0000
0000
0000
,  // measure 4
0000
0000
0000
0000
,  // measure 5
1000
0000
1000
0000
,  // measure 6
0001
0000
0001
0000
,  // measure 7
1000
0010
1000
0010
,  // measure 8
0100
0001
2000
3000
,  // measure 9
0001
0000
0010
0000
,  // measure 10
0100
0010
0001
0000
,  // measure 11
1000
0000
0010
0000
,  // measure 12
0100
0010
1000
0000
,  // measure 13
0001
0000
0100
0000
,  // measure 14
0010
1000
0001
0000
,  // measure 15
1000
1000
0100
0000
,  // measure 16
0010
0010
0001
0000
,  // measure 17
1000
0000
1000
0000
,  // measure 18
0001
0100
0010
0000
,  // measure 19
1000
0000
1000
0000
,  // measure 20
0100
0010
0001
0000
,  // measure 21
0001
0000
0001
0000
,  // measure 22
1000
0010
0100
0000
,  // measure 23
0001
0000
0001
0000
,  // measure 24
0010
0100
1000
0000
,  // measure 25
0001
0100
0001
0000
,  // measure 26
1000
0100
0010
0000
,  // measure 27
0100
1000
0100
0000
,  // measure 28
1000
0001
0100
0000
,  // measure 29
0001
0100
1000
0000
,  // measure 30
1000
0100
0001
0000
,  // measure 31
1000
0100
0001
0000
,  // measure 32
0001
0100
1000
0000
,  // measure 33
0002
0000
0100
0000
,  // measure 34
0103
0000
0000
0000
,  // measure 35
2000
0000
0100
0000
,  // measure 36
3100
0000
0000
0000
,  // measure 37
0001
0100
0001
0000
,  // measure 38
1000
0100
1000
0000
,  // measure 39
0001
0010
0100
1000
,  // measure 40
0002
0000
0000
0003
,  // measure 41
0010
1001
0000
0001
,  // measure 42
0100
0001
1000
0100
,  // measure 43
0010
1001
0000
0001
,  // measure 44
0100
0010
1000
0000
,  // measure 45
0100
1001
0000
1000
,  // measure 46
0100
0010
0001
0000
,  // measure 47
1000
0010
0001
0010
,  // measure 48
1000
1000
0001
0010
,  // measure 49
0100
1001
0000
1000
,  // measure 50
0100
0001
0100
1000
,  // measure 51
0010
1001
0000
1000
,  // measure 52
0010
0001
0010
1000
,  // measure 53
0100
1001
0000
0001
,  // measure 54
0010
1000
0010
0001
,  // measure 55
1001
0000
0101
0000
,  // measure 56
1001
0000
1100
0000
,  // measure 57
1001
0000
0002
0003
,  // measure 58
0020
0030
0200
0300
,  // measure 59
1000
0000
0000
0001
0000
0000
1000
0000
,  // measure 60
0000
0001
0000
0000
0100
0000
0000
0000
,  // measure 61
0020
0000
0000
0030
,  // measure 62
1000
0001
0100
0000
,  // measure 63
0010
1000
0001
0001
,  // measure 64
1000
0001
0010
0000
,  // measure 65
0100
1000
0001
0100
,  // measure 66
0001
1000
0100
0000
,  // measure 67
0010
0001
1000
1000
,  // measure 68
0010
0010
0100
0001
,  // measure 69
1000
0100
0010
0000
,  // measure 70
2002
0000
0000
0000
,  // measure 71
3003
0000
0000
0000
;
