#TITLE:witchcraft;
#SUBTITLE:;
#ARTIST:paraoka;
#TITLETRANSLIT:;
#SUBTITLETRANSLIT:;
#ARTISTTRANSLIT:;
#GENRE:;
#CREDIT:;
#MUSIC:witchcraft.mp3;
#BANNER:BR2024-bn.png;
#BACKGROUND:BR2024-bg.png;
#CDTITLE:;
#SAMPLESTART:24.263;
#SAMPLELENGTH:20.000;
#SELECTABLE:YES;
#OFFSET:0.705;
#BPMS:0.000=115.000
,63.000=172.500
,63.750=57.500
,64.000=115.000
,155.000=173.025
,155.750=57.675
,156.000=115.350
;
#STOPS:79.250=0.458
,137.000=0.522
;
#DISPLAYBPM:115.000;
#ORIGIN:;
#PREVIEWVID:;
#JACKET:BR2024-jacket.png;
#CDIMAGE:;
#DISCIMAGE:;
#BGCHANGES:;
#FGCHANGES:;

//--------------- dance-single - ----------------
#NOTES:
     dance-single:
     :
     Beginner:
     4:
     0.142648,0.166007,0,0,0,90,90,0,0,0,0,0,0,0,0.142648,0.166007,0,0,0,90,90,0,0,0,0,0,0,0:
0000
0000
0000
0000
,
0000
0000
0000
0000
,
0000
0000
0000
0000
,
0000
0000
0000
0000
,
0001
0000
0010
0000
,
0100
0000
1000
1000
,
0001
0000
0100
0000
,
0010
0000
1000
0000
,
0100
0000
0010
0000
,
0001
0000
0100
0100
,
0010
0000
1000
0000
,
0001
0000
0010
0000
,
0100
1000
0100
0000
,
1000
0001
1000
0000
,
0001
0100
0001
0000
,
0100
0010
0100
0000
,
0000
0001
1000
0000
,
0010
0100
0001
0000
,
1000
0100
0010
0000
,
0001
1000
0010
0000
,
0000
0000
0000
0000
,
0000
0000
0000
0000
,
0000
0000
0000
0000
,
0000
0000
0000
0000
,
1000
0000
1000
0000
0000
0000
0000
0001
,
0000
0001
0000
0000
0000
0000
0010
0000
,
0010
0000
0000
0000
0000
0100
0000
0100
,
0000
0000
0000
0000
0000
1000
0000
1000
,
0000
0000
0010
0010
,
0000
0000
0000
0100
0000
0100
0000
0000
,
0000
0001
0000
0010
,
0100
1000
0000
0001
,
0000
0100
0000
0010
,
0100
0001
0000
1000
,
0000
0001
0000
0000
,
1000
0010
1000
0000
,
0001
0010
0001
0000
,
0100
0010
0100
0000
,
0010
1000
0001
0000
,
0000
0100
0001
0000
,
0010
0001
0100
0000
,
0010
1000
0100
0000
,
0010
0100
1000
0010
;

//--------------- dance-single - ----------------
#NOTES:
     dance-single:
     :
     Easy:
     8:
     0.377225,0.355728,0.02219,0.044379,0.061022,238,236,2,4,0,0,0,0,0,0.377225,0.355728,0.02219,0.044379,0.061022,238,236,2,4,0,0,0,0,0:
0000
0000
0000
0000
,
0000
0000
0000
0000
,
0000
0000
0000
0000
,
1000
0000
0000
1000
0000
0000
0010
0000
0100
0000
0000
0100
0000
0000
0001
0000
,
1000
0000
0001
0010
0001
0000
1000
0100
,
1000
0000
0000
0000
0010
0000
0100
0000
0001
0000
0000
0001
0000
0000
1000
0000
,
0001
0000
1000
0010
1000
0000
0001
0100
,
0001
0000
0000
0000
0010
0000
0100
0000
1000
0000
0000
1001
0000
0000
0000
0000
,
0001
0000
1000
0010
1000
0000
0001
0100
,
0001
0000
0000
0000
0010
0000
0100
0000
1000
0000
0000
1000
0000
0000
0001
0000
,
1000
0000
0001
0010
0001
0000
1000
0100
,
1000
0000
0010
0100
0001
1000
0001
0000
,
1000
0100
0010
0100
1000
0001
0100
0000
,
0001
0100
0010
0100
0001
1000
0100
0000
,
0010
0100
1000
0010
0100
0001
1000
0000
,
0010
0100
0001
0010
0100
1000
0002
0000
,
1003
0010
0100
0010
1000
0001
0010
0000
,
0001
0010
0100
0010
0001
1000
0010
0000
,
0100
0010
1000
0100
0010
0001
1000
0000
,
0100
0000
0000
0000
0000
0000
0000
0000
0010
0000
0000
0000
0000
0000
0000
0000
0001
0000
0000
0000
0000
0000
0000
0000
0100
0000
0000
0000
0000
0000
0000
0000
0010
0000
0000
0000
0000
0000
0000
0000
1000
0000
0000
0000
0000
0000
0000
0000
0001
0000
0000
0000
2000
3000
0000
0000
0000
0000
0000
0000
0000
0000
0000
0000
,
0000
0000
0000
0000
,
0000
0000
0000
0000
,
0000
0000
0000
0000
,
0000
0000
0000
0000
0000
0000
0000
0000
1001
0000
0000
1000
0000
0000
0010
0000
,
0100
0000
0001
0100
0001
1000
0100
0010
,
0000
0100
1000
0100
1000
0010
0100
0000
,
0010
1000
0100
0010
0100
1000
0000
0100
,
1000
0000
0001
0000
0000
0001
0000
0000
0010
0000
0100
0000
0000
0000
1000
0000
,
0100
1000
0001
0100
0010
0000
0100
0001
,
0100
0001
0010
0100
0000
0010
0001
0100
,
0010
0000
0100
0000
0001
0000
0000
0001
0000
0000
0000
0000
1000
0000
0000
1000
,
0000
0100
0010
0000
0100
1000
0001
0000
,
1000
0000
0001
0000
0100
0010
1000
0000
,
0001
0000
0010
0000
0100
1000
0010
0100
,
0001
0000
0000
0000
0000
0000
0000
0000
0000
0000
0000
0000
0000
0000
0000
0000
2000
3000
0000
0000
0000
0000
0000
0000
0000
0000
0000
0000
0000
0000
0000
0000
0010
0000
0000
0000
0000
0000
0000
0000
0000
0000
0000
0000
0010
0000
0000
0000
0000
0000
0000
0000
0000
0000
0000
0000
0100
0000
0000
0000
0000
0000
0000
0000
,
0001
1000
0100
1000
0010
0100
0001
0000
,
1000
0001
0100
0001
0010
0100
1000
0000
,
0001
0010
0001
1000
0010
1000
0100
0000
,
1000
0010
1000
0001
0010
0001
0200
0000
,
0301
0100
0010
1000
0100
0010
0100
0000
,
1000
0100
0010
0001
0100
0010
0100
0000
,
0010
1000
0001
0010
0001
0100
0010
0000
,
0100
0001
1000
0001
0100
0001
0010
0000
;

//--------------- dance-single - ----------------
#NOTES:
     dance-single:
     :
     Medium:
     12:
     0.561082,0.54545,0.02219,0.732259,0.660143,354,352,2,66,0,0,0,0,0,0.561082,0.54545,0.02219,0.732259,0.660143,354,352,2,66,0,0,0,0,0:
0000
0000
0000
0000
,
0000
0000
0000
0000
,
0000
0000
0000
0000
,
1000
0001
0000
0100
0001
0000
1000
0000
0100
0000
0000
0010
0000
0000
0100
0000
,
1000
0000
0001
0100
0010
0000
1000
0000
0100
0000
0010
0001
1000
0000
0010
0000
,
0100
0000
0001
0010
0100
0000
1000
0000
0001
1000
0000
0010
0100
0000
0010
0000
,
1000
0000
0001
0010
0100
0000
1000
0000
0010
0000
0100
0001
1000
0000
0100
0000
,
0010
0000
0001
0100
0010
0000
1000
0000
0001
0000
0010
0001
0000
1000
0010
0100
,
0001
0000
1000
0100
0010
0000
0001
0000
0100
0000
0010
1000
0001
0000
0010
0000
,
0100
0000
1000
0010
0100
0000
0001
0000
1000
0001
0000
0010
0100
0000
0010
0000
,
0001
0000
1000
0010
0100
0000
0001
0000
0010
0000
0100
1000
0001
0000
0100
0000
,
0010
0000
1000
0100
0010
0000
0001
0000
1000
0010
0100
0001
1000
0000
0001
0000
,
0200
0300
0000
0000
0000
0000
0000
0000
0200
0300
0000
0000
1000
0000
0000
0000
0001
0000
0000
0000
0000
0000
0000
0000
0200
0300
0000
0000
0000
0000
0000
0000
0200
0300
0000
0000
1000
0000
0000
0000
0001
0000
0000
0000
0000
0000
0000
0000
1000
0000
0000
0000
0000
0000
0000
0000
1000
0000
0000
0000
0000
0000
0000
0000
,
0200
0300
0000
0000
0000
0000
0000
0000
0200
0300
0000
0000
0001
0000
0000
0000
1000
0000
0000
0000
0000
0000
0000
0000
0200
0300
0000
0000
0000
0000
0000
0000
0200
0300
0000
0000
0001
0000
0000
0000
1000
0000
0000
0000
0000
0000
0000
0000
0001
0000
0000
0000
0000
0000
0000
0000
0001
0000
0000
0000
0000
0000
0000
0000
,
0020
0030
0000
0000
0000
0000
0000
0000
0020
0030
0000
0000
1000
0000
0000
0000
0001
0000
0000
0000
0000
0000
0000
0000
0020
0030
0000
0000
0000
0000
0000
0000
0020
0030
0000
0000
1000
0000
0000
0000
0001
0000
0000
0000
0000
0000
0000
0000
1000
0000
0000
0000
0000
0000
0000
0000
1000
0000
0000
0000
0000
0000
0000
0000
,
0020
0030
0000
0000
0000
0000
0000
0000
0020
0030
0000
0000
0001
0000
0000
0000
1000
0000
0000
0000
0000
0000
0000
0000
0020
0030
0000
0000
0000
0000
0000
0000
0020
0030
0000
0000
0001
0000
0000
0000
1000
0000
0000
0000
0000
0000
0000
0000
0020
0000
0000
0000
0000
0000
0000
0000
0000
0000
0000
0000
0000
0000
0000
0000
,
0230
0300
0000
0000
0000
0000
0000
0000
0200
0300
0000
0000
1000
0000
0000
0000
0010
0000
0000
0000
0000
0000
0000
0000
0200
0300
0000
0000
0000
0000
0000
0000
0200
0300
0000
0000
1000
0000
0000
0000
0010
0000
0000
0000
0000
0000
0000
0000
1000
0000
0000
0000
0000
0000
0000
0000
1000
0000
0000
0000
0000
0000
0000
0000
,
0200
0300
0000
0000
0000
0000
0000
0000
0200
0300
0000
0000
0001
0000
0000
0000
0010
0000
0000
0000
0000
0000
0000
0000
0200
0300
0000
0000
0000
0000
0000
0000
0200
0300
0000
0000
0001
0000
0000
0000
0010
0000
0000
0000
0000
0000
0000
0000
0001
0000
0000
0000
0000
0000
0000
0000
0001
0000
0000
0000
0000
0000
0000
0000
,
0020
0030
0000
0000
0000
0000
0000
0000
0020
0030
0000
0000
1000
0000
0000
0000
0100
0000
0000
0000
0000
0000
0000
0000
0020
0030
0000
0000
0000
0000
0000
0000
0020
0030
0000
0000
1000
0000
0000
0000
0100
0000
0000
0000
0000
0000
0000
0000
1000
0000
0000
0000
0000
0000
0000
0000
1000
0000
0000
0000
0000
0000
0000
0000
,
0020
0030
0000
0000
0000
0000
0000
0000
0020
0030
0000
0000
0001
0000
0000
0000
0100
0000
0000
0000
0000
0000
0000
0000
0020
0030
0000
0000
0000
0000
0000
0000
0020
0030
0000
0000
0001
0000
0000
0000
0100
0000
0000
0000
0000
0000
0000
0000
0001
0000
0000
0000
2000
3000
0000
0000
0000
0000
0000
0000
0000
0000
0000
0000
,
0000
0000
0000
0000
,
0000
0000
0000
0000
,
0000
0000
0000
0000
,
0000
0000
0000
0000
0001
0000
0100
0000
0110
0000
0000
1010
0000
1000
0001
0010
,
0100
0000
0010
0001
0000
1000
0000
0100
0000
0010
0000
0001
1000
0000
0010
0000
,
0100
0001
0000
0100
0000
0010
0000
1000
0000
0100
0010
0000
0100
0000
1000
0001
,
0000
0010
0000
0100
0000
1000
0000
0010
0100
0000
0001
0000
1000
0001
0000
1000
,
0000
0010
1000
0001
1000
0001
1000
0000
0100
0000
1000
0000
0010
1000
0000
0001
,
0000
0100
0000
0010
0000
1000
0001
0000
0010
0000
0100
1000
0000
0100
0000
0010
,
0000
0001
0000
0100
0010
0000
0100
0000
0001
1000
0000
0010
0000
0100
0000
0001
,
0000
0010
0100
0000
1000
0000
0001
1000
0000
0000
0000
0000
0010
0100
0000
0010
,
0000
1000
0001
0000
0010
0000
0000
0000
0100
0000
1000
0000
0001
0000
0100
0000
,
0001
0000
1000
0000
0100
0010
0001
1000
,
0010
0000
0100
0010
1000
0000
0100
0000
0010
0000
0100
0000
1000
0000
0010
0000
,
0100
0000
0000
0000
0000
0000
0000
0000
0001
0000
0000
0000
1000
0000
0000
0000
0200
0300
0000
0000
0000
0000
0000
0000
0000
0000
0000
0000
0000
0000
0000
0000
1000
0000
0000
0000
0000
0000
0000
0000
0100
0000
0000
0000
1000
0000
0000
0000
0000
0000
0000
0000
0010
0000
0000
0000
0100
0000
0000
0000
0001
0000
0000
0000
,
1000
0000
0000
0000
0200
0300
0000
0000
0000
0000
0000
0000
0200
0300
0000
0000
0001
0000
0000
0000
0000
0000
0000
0000
1000
0000
0000
0000
0200
0300
0000
0000
0000
0000
0000
0000
0200
0300
0000
0000
0001
0000
0000
0000
0000
0000
0000
0000
1000
0000
0000
0000
0001
0000
0000
0000
1000
0000
0000
0000
0000
0000
0000
0000
,
0001
0000
0000
0000
0200
0300
0000
0000
0000
0000
0000
0000
0200
0300
0000
0000
1000
0000
0000
0000
0000
0000
0000
0000
0001
0000
0000
0000
0200
0300
0000
0000
0000
0000
0000
0000
0200
0300
0000
0000
1000
0000
0000
0000
0000
0000
0000
0000
0001
0000
0000
0000
1000
0000
0000
0000
0001
0000
0000
0000
0000
0000
0000
0000
,
1000
0000
0000
0000
0020
0030
0000
0000
0000
0000
0000
0000
0020
0030
0000
0000
0001
0000
0000
0000
0000
0000
0000
0000
1000
0000
0000
0000
0020
0030
0000
0000
0000
0000
0000
0000
0020
0030
0000
0000
0001
0000
0000
0000
0000
0000
0000
0000
1000
0000
0000
0000
0001
0000
0000
0000
1000
0000
0000
0000
0000
0000
0000
0000
,
0001
0000
0000
0000
0020
0030
0000
0000
0000
0000
0000
0000
0020
0030
0000
0000
1000
0000
0000
0000
0000
0000
0000
0000
0001
0000
0000
0000
0020
0030
0000
0000
0000
0000
0000
0000
0020
0030
0000
0000
1000
0000
0000
0000
0000
0000
0000
0000
0002
0000
0000
0000
0000
0000
0000
0000
0000
0000
0000
0000
0000
0000
0000
0000
,
1003
0000
0000
0000
0200
0300
0000
0000
0000
0000
0000
0000
0200
0300
0000
0000
0010
0000
0000
0000
0000
0000
0000
0000
1000
0000
0000
0000
0200
0300
0000
0000
0000
0000
0000
0000
0200
0300
0000
0000
0010
0000
0000
0000
0000
0000
0000
0000
1000
0000
0000
0000
0010
0000
0000
0000
1000
0000
0000
0000
0000
0000
0000
0000
,
0001
0000
0000
0000
0200
0300
0000
0000
0000
0000
0000
0000
0200
0300
0000
0000
0010
0000
0000
0000
0000
0000
0000
0000
0001
0000
0000
0000
0200
0300
0000
0000
0000
0000
0000
0000
0200
0300
0000
0000
0010
0000
0000
0000
0000
0000
0000
0000
0001
0000
0000
0000
0010
0000
0000
0000
0001
0000
0000
0000
0000
0000
0000
0000
,
1000
0000
0000
0000
0020
0030
0000
0000
0000
0000
0000
0000
0020
0030
0000
0000
0100
0000
0000
0000
0000
0000
0000
0000
1000
0000
0000
0000
0020
0030
0000
0000
0000
0000
0000
0000
0020
0030
0000
0000
0100
0000
0000
0000
0000
0000
0000
0000
1000
0000
0000
0000
0100
0000
0000
0000
1000
0000
0000
0000
0000
0000
0000
0000
,
0001
0000
0000
0000
0010
0000
0000
0000
0100
0000
0000
0000
1000
0000
0000
0000
0020
0030
0000
0000
0000
0000
0000
0000
0020
0030
0000
0000
0001
0000
0000
0000
0100
0000
0000
0000
0010
0000
0000
0000
1000
0000
0000
0000
0000
0000
0000
0000
0100
0000
0000
0000
0000
0000
0000
0000
0000
0000
0000
0000
0000
0000
0000
0000
;

//--------------- dance-single - ----------------
#NOTES:
     dance-single:
     :
     Hard:
     15:
     0.714825,0.711457,0.244086,0.332845,0.948609,451,429,22,30,0,0,0,0,0,0.714825,0.711457,0.244086,0.332845,0.948609,451,429,22,30,0,0,0,0,0:
0000
0000
0000
0000
,
0000
0000
0000
0000
,
0000
0000
0000
0000
,
1000
0001
0000
0100
0010
1000
0001
0000
1001
0000
0000
0101
0000
0000
0001
0100
,
0010
0000
0000
0000
0000
0000
0000
0000
1000
0000
0000
0000
0001
0000
0000
0000
0010
0000
0000
0000
0001
0000
0000
0000
0200
0300
0000
0000
0000
0000
0000
0000
0200
0300
0000
0000
0000
0000
0000
0000
1000
0000
0000
0000
0001
0000
0000
0000
0010
0000
0000
0000
0001
0000
0000
0000
0200
0300
0000
0000
0000
0000
0000
0000
,
0200
0300
0000
0000
0000
0000
0000
0000
1000
0000
0000
0000
0001
0000
0000
0000
0010
0000
0000
0000
0001
0000
0000
0000
0100
0000
0000
0000
0000
0000
0000
0000
0001
0000
0000
0000
1000
0000
0000
0000
0010
0000
0000
0000
1000
0000
0000
0000
0001
0000
0000
0000
0010
0000
0000
0000
0100
0000
0000
0000
1000
0000
0000
0000
,
0010
0000
0000
0000
0000
0000
0000
0000
1000
0000
0000
0000
0001
0000
0000
0000
0100
0000
0000
0000
0001
0000
0000
0000
0020
0030
0000
0000
0000
0000
0000
0000
0020
0030
0000
0000
0000
0000
0000
0000
1000
0000
0000
0000
0001
0000
0000
0000
0100
0000
0000
0000
0001
0000
0000
0000
0020
0030
0000
0000
0000
0000
0000
0000
,
0020
0030
0000
0000
0000
0000
0000
0000
1000
0000
0000
0000
0001
0000
0000
0000
0100
0000
0000
0000
0001
0000
0000
0000
0010
0000
0000
0000
0000
0000
0000
0000
0001
0000
0000
0000
1000
0000
0000
0000
0001
0000
0000
0000
1000
0000
0000
0000
0000
0000
0000
0000
0010
0000
0000
0000
0100
0000
0000
0000
0010
0000
0000
0000
,
0100
0000
0000
0000
0000
0000
0000
0000
0001
0000
0000
0000
1000
0000
0000
0000
0010
0000
0000
0000
1000
0000
0000
0000
0200
0300
0000
0000
0000
0000
0000
0000
0200
0300
0000
0000
0000
0000
0000
0000
0001
0000
0000
0000
1000
0000
0000
0000
0010
0000
0000
0000
1000
0000
0000
0000
0200
0300
0000
0000
0000
0000
0000
0000
,
0200
0300
0000
0000
0000
0000
0000
0000
0001
0000
0000
0000
1000
0000
0000
0000
0010
0000
0000
0000
1000
0000
0000
0000
0100
0000
0000
0000
0000
0000
0000
0000
1000
0000
0000
0000
0001
0000
0000
0000
0010
0000
0000
0000
0001
0000
0000
0000
1000
0000
0000
0000
0010
0000
0000
0000
0100
0000
0000
0000
0001
0000
0000
0000
,
0010
0000
0000
0000
0000
0000
0000
0000
0001
0000
0000
0000
1000
0000
0000
0000
0100
0000
0000
0000
1000
0000
0000
0000
0020
0030
0000
0000
0000
0000
0000
0000
0020
0030
0000
0000
0000
0000
0000
0000
0001
0000
0000
0000
1000
0000
0000
0000
0100
0000
0000
0000
1000
0000
0000
0000
0020
0030
0000
0000
0000
0000
0000
0000
,
0020
0030
0000
0000
0000
0000
0000
0000
0001
0000
0000
0000
1000
0000
0000
0000
0100
0000
0000
0000
1000
0000
0000
0000
0010
0000
0000
0000
0000
0000
0000
0000
1000
0000
0000
0000
0001
0000
0000
0000
0010
0000
0000
0000
0100
0000
0000
0000
1000
0000
0000
0000
0010
0000
0000
0000
0100
0000
0000
0000
0001
0000
0000
0000
,
1000
0100
0100
0001
1000
0000
1000
0100
0100
0001
1000
0000
0010
0000
0100
0000
,
0001
0100
0100
1000
0001
0000
0001
0100
0100
1000
0001
0000
0010
0000
0100
0000
,
1000
0010
0010
0001
1000
0000
1000
0010
0010
0001
1000
0000
0010
0000
0100
0000
,
0001
0010
0010
1000
0001
0000
0001
0010
0010
1000
0001
0000
0200
0000
0000
0000
,
0310
1000
0100
0200
0001
0000
0310
1000
0100
0100
0001
0000
1000
0000
0100
0000
,
0010
0001
0100
0200
1000
0000
0310
0001
0100
0100
1000
0000
0001
0000
0010
0000
,
0100
1000
0010
0020
0001
0000
0130
1000
0010
0010
0001
0000
1000
0000
0010
0000
,
0100
0000
0000
0000
0001
0000
0000
0000
0010
0000
0000
0000
0020
0000
0000
0000
1000
0000
0000
0000
0000
0000
0000
0000
0130
0000
0000
0000
0001
0000
0000
0000
0010
0000
0000
0000
0010
0000
0000
0000
1000
0000
0000
0000
0001
0000
0000
0000
1000
0000
0000
0000
0002
0003
0000
0000
0000
0000
0000
0000
0000
0000
0000
0000
,
0000
0000
0000
0000
,
0000
0000
0000
0000
,
0000
0000
0000
0000
,
0000
0000
0000
0000
0010
0000
0100
0000
1001
0000
0001
1000
0000
0010
1000
0100
,
0010
0000
0001
0010
0100
0010
0000
0110
0000
1100
0000
1000
0001
0000
1001
0000
,
1000
0010
0100
0010
0000
0110
0000
0101
0000
0001
1000
0000
1100
0000
0100
0010
,
0001
0100
0000
0110
0000
1010
0000
1000
0001
0000
0101
0000
0100
0010
1000
0100
,
0000
0010
0100
1000
0010
0100
0001
0010
0100
1000
0001
0000
1000
0010
0100
0001
,
0000
0011
0000
0101
0000
0001
1000
0000
1001
0000
0001
0010
0100
1000
0000
1010
,
0000
1100
0000
1000
0001
0000
0011
0000
0010
0100
1000
0010
0000
0101
0000
0011
,
0000
0010
0100
0000
1100
0000
1000
0001
0000
0000
0000
0000
0100
0010
0000
0100
,
0000
0001
1000
0000
0100
0000
0000
0000
0010
0000
0001
0000
1000
0000
0010
0000
,
1000
0000
0001
0000
0100
0001
1000
0100
,
1100
0000
1000
0010
0100
0000
0001
0000
1000
0000
0001
1000
0010
1000
0001
0000
,
1000
0000
0000
0000
0000
0000
0000
0000
0010
0000
0000
0000
0100
0000
0000
0000
0002
0003
0000
0000
0000
0000
0000
0000
0000
0000
0000
0000
0000
0000
0000
0000
1000
0000
0000
0000
0100
0000
0000
0000
1000
0000
0000
0000
0001
0000
0000
0000
0100
0000
0000
0000
0001
0000
0000
0000
0010
0000
0000
0000
0100
0000
0000
0000
,
1000
0100
0100
0002
0010
0000
1003
0100
0100
0001
0010
0000
0100
1000
0001
0000
,
0001
0100
0100
2000
0010
0000
3001
0100
0100
1000
0010
0000
0100
0001
1000
0000
,
1000
0010
0010
0002
0100
0000
1003
0010
0010
0001
0100
0000
0010
1000
0001
0000
,
0001
0010
0010
2000
0100
0000
3001
0010
0010
1000
0100
0000
0020
0000
0000
0000
,
0031
1000
0100
0200
0010
0000
0301
1000
0100
0100
0010
0000
0100
0010
1000
0000
,
1000
0001
0100
0200
0010
0000
1300
0001
0100
0100
0010
0000
0100
0010
0001
0000
,
0001
1000
0010
0010
0100
0000
1000
0001
0010
0010
0100
0000
0001
1000
0010
0000
,
0100
0100
1000
0010
0010
0001
0100
0100
1000
0010
0010
0001
1000
0000
0000
0000
;
