#VERSION:0.83;
#TITLE:tiny tales continue;
#SUBTITLE:;
#ARTIST:Chroma;
#TITLETRANSLIT:;
#SUBTITLETRANSLIT:;
#ARTISTTRANSLIT:;
#GENRE:CHIPTUNE;
#ORIGIN:;
#CREDIT:;
#BANNER:tiny tales continue.png;
#BACKGROUND:tiny tales continue-bg.png;
#PREVIEWVID:;
#JACKET:tiny tales continue-jacket.png;
#CDIMAGE:;
#DISCIMAGE:;
#LYRICSPATH:;
#CDTITLE:;
#MUSIC:tiny tales continue.ogg;
#OFFSET:0.613301;
#SAMPLESTART:84.575531;
#SAMPLELENGTH:15.600000;
#SELECTABLE:YES;
#BPMS:0.000=188.000;
#STOPS:;
#DELAYS:;
#WARPS:;
#TIMESIGNATURES:0.000=4=4;
#TICKCOUNTS:0.000=4;
#COMBOS:0.000=1;
#SPEEDS:0.000=1.000=0.000=0;
#SCROLLS:0.000=1.000,
194.000=2.000,
196.000=1.000;
#FAKES:;
#LABELS:0.000=Song Start;
#BGCHANGES:;
#KEYSOUNDS:;
#ATTACKS:
;

//---------------dance-single - ----------------
#NOTEDATA:;
#CHARTNAME:;
#STEPSTYPE:dance-single;
#DESCRIPTION:;
#CHARTSTYLE:;
#DIFFICULTY:Hard;
#METER:16;
#RADARVALUES:0.757000,1.001454,0.149502,0.664452,0.627076,638.000000,620.000000,18.000000,80.000000,21.000000,0.000000,1.000000,0.000000,0.000000,0.757000,1.001454,0.149502,0.664452,0.627076,638.000000,620.000000,18.000000,80.000000,21.000000,0.000000,1.000000,0.000000,0.000000;
#CREDIT:BlindedVanguard573;
#NOTES:
0000
0000
0000
0000
,
0000
0000
0000
0000
,
0000
0000
0000
0000
,
0000
0000
0000
0000
,
0000
0000
0000
0000
,
0000
0000
0000
0000
,
0000
0000
0000
0000
,
0000
0000
0000
0000
,
0000
0000
0000
0000
0000
0000
0000
0000
0000
0000
0001
0000
0100
0000
0001
1000
,
0100
0000
0000
0100
0010
0000
0000
0100
,
0000
0000
1000
0000
0100
00M0
0100
0000
0001
0000
0100
0001
0100
0000
0010
0000
,
0100
0000
0000
0000
0000
0000
0100
0000
0001
0000
0100
00M0
0100
0000
1000
0100
,
1000
0000
0001
0000
0010
0000
0010
0001
1000
0000
0000
0000
0010
1000
0010
1000
,
0010
0100
0001
1000
,
0100
0000
0000
0000
0010
0000
0000
0000
0001
0000
0000
0000
1000
0000
0000
1000
,
0001
0100
0010
1000
0001
1000
0100
0010
,
0001
1000
0001
1000
0001
1000
0001
1000
0020
0000
0000
0000
0130
0000
0010
1000
,
0020
0000
0000
0000
1030
0000
0010
0M10
0001
0000
0100
0000
0001
0000
1000
0000
,
0200
0000
0000
0000
1300
0000
0100
01M0
0001
0000
0100
0000
0010
0000
1000
0000
,
0002
0023
0230
0302
,
0203
0000
0000
0000
0010
0000
0000
0000
0001
0000
0000
0000
1300
0000
0100
0010
,
0002
0000
0000
0000
1003
0000
0010
0M10
0001
0000
0100
0000
0010
0000
1000
0000
,
0200
0000
0000
0000
1300
0000
0010
0M10
0001
0000
0000
1000
0000
0000
0100
01M0
,
0002
0000
0000
0000
0103
0000
0010
1000
0002
0000
0000
0000
1000
0000
0000
0000
,
0100
0000
0000
0000
0010
0000
0000
0000
1003
0000
0000
0000
0001
0010
0100
1000
,
0001
0000
1000
0010
0000
1000
0010
0000
0100
0010
0000
0100
0001
0000
1000
0000
,
0001
0000
0010
0100
0000
0010
0100
0000
1000
0100
0000
1000
0001
0000
1000
0000
,
0001
0000
0100
0001
0000
1000
0001
0010
0100
0000
0010
0100
1000
0000
0100
1000
,
0001
0000
0100
0001
0000
0100
0001
0000
0100
0010
0000
0100
0010
0000
1000
0001
,
0010
0000
0100
0010
0000
0100
1000
0001
1000
0000
0010
0000
0100
0000
0010
0000
,
1000
0000
0100
1000
0000
0001
1000
0000
0001
0000
0100
0001
0000
1000
0010
0000
,
0010
0000
1000
0010
0000
1000
0001
0010
0100
0000
1000
0100
0000
1000
0001
0000
,
0100
0000
0001
1000
0000
0001
0100
0000
0010
0000
0100
0001
0100
0001
1000
0001
,
1000
0000
0001
0001
0001
0100
0010
0100
,
0002
0000
0000
0000
1003
0000
0100
00M0
0100
0000
0001
0000
0010
0000
0100
0000
,
2000
0000
0000
0000
3001
0000
0010
0M00
0010
0000
1000
0000
0100
0000
0010
0000
,
2000
0000
0000
0000
3010
0000
0100
00M0
0100
0000
0001
0000
1000
0000
0010
0000
,
1000
0000
0001
0001
0001
0010
0100
0010
,
0002
0000
0000
0000
1003
0000
0010
0M00
0010
0000
0001
0000
0100
0000
0010
0000
,
2000
0000
0000
0000
3001
0000
0100
00M0
0100
0000
1000
0000
0010
0000
0100
0000
,
0001
1000
0001
1000
0001
1000
0001
1000
0010
0000
0000
0000
1001
0000
0000
0000
,
0001
0100
0001
0100
0001
0100
0010
0100
0020
0000
0000
0000
2030
0000
0000
0000
,
3001
0010
0001
0010
0001
0010
0100
0010
0002
0000
0000
2003
0000
0000
3200
0000
,
2300
0000
0000
0000
3020
0000
0000
0000
0032
0000
0000
0023
0000
0000
0130
0000
,
0200
0000
0000
0000
0310
0000
1000
0010
2000
0000
0000
0000
3001
0000
0000
0000
,
1000
0100
1000
0100
1000
0100
0010
0100
0020
0000
0000
0000
0032
0000
0000
0000
,
1003
0010
1000
0010
1000
0010
0100
0010
0200
0000
0000
0000
0301
0000
0000
0000
,
1000
0100
0010
1000
0001
0100
0010
0001
,
1000
0010
0100
1000
0400
0000
0000
0300
,
2002
0000
0000
3003
0000
0001
0200
0000
0000
0310
0000
0100
,
0002
0000
0000
0003
0000
1000
0200
0000
0000
1300
0000
0010
,
2000
0000
0000
3000
0001
0100
0020
0000
0000
0032
0000
0000
,
0023
0000
0000
0030
1000
0010
1000
0000
1000
0002
0000
0000
,
0023
0000
0000
0000
0000
0130
0010
0000
0000
0010
0100
1000
,
0001
0000
1000
0100
0000
0010
0200
0000
0000
0302
0000
0000
,
0203
0000
0000
0000
0000
2300
0000
0000
0000
0002
0000
0000
,
0000
0000
0000
3MM3
,
1002
0000
0000
0000
1003
0000
0010
0M10
0001
0000
0010
0000
0200
0000
0000
0000
,
2300
0000
0000
0000
3001
0000
0010
0M10
1000
0000
0010
0000
0200
0000
0000
0000
,
0302
0000
0000
0000
1003
0000
0100
01M0
0001
0000
0010
0000
0200
0000
0000
0000
,
0301
0100
0010
0100
1000
0001
1001
0000
,
0202
0000
0000
0000
0303
0000
0100
01M0
1000
0000
0000
0010
0000
0000
0001
0000
,
0000
0010
0100
0001
0000
1000
1100
0000
,
2001
0001
0010
0100
,
0001
0000
0000
0000
0100
0000
0000
0000
0010
0000
0000
0000
3001
1000
0001
1000
,
0001
0010
0100
1000
,
0001
0001
0001
0001
0001
0000
1000
0001
,
0102
0000
0000
0000
1003
0000
0010
0M10
0001
0000
0100
0000
0010
0000
0100
0000
,
2000
0000
0000
0000
3200
0000
0000
0000
0302
0000
0000
0000
1003
0000
0100
01M0
,
0002
0000
0000
0000
0013
0000
0100
01M0
0001
0000
0100
0000
0010
0000
0100
0000
,
2000
0000
0000
0000
3100
0000
0000
0000
0001
0000
0000
0000
1000
0000
0100
0010
,
0002
0000
0103
0010
2000
0000
3001
0000
,
2000
3200
0320
0230
,
0302
0000
0103
0010
0002
0000
2003
0000
,
3002
0000
0000
0000
0100
0000
0000
0000
1003
0000
0010
1000
0001
0000
0010
0001
,
2000
0000
0000
0000
3000
0000
1000
0000
1010
0000
0000
0000
0010
0000
0100
0001
,
0010
0000
0001
0000
0000
0000
0010
0000
0011
0000
0000
0000
0001
0000
1000
0010
,
0200
0302
2003
3020
,
0230
0000
0000
1300
2000
0000
3100
0001
,
1001
0000
1001
0000
0000
0000
0001
0010
0001
0000
1000
0000
0100
0000
0001
0000
,
0100
0000
0000
0010
0001
1000
0100
0000
0000
0010
0001
1000
0010
0000
0000
0000
,
1000
1000
0010
1000
0001
0001
0100
0001
,
1000
1000
0100
1000
0001
0001
0010
0001
,
1000
0001
0101
0001
1000
0010
1010
1000
,
0001
0010
0011
0001
1001
0000
0110
0000
,
1001
0000
0001
0100
0000
0010
0100
0001
0100
0000
0010
0000
0001
0000
0010
0000
,
0100
0000
0001
0010
0000
0001
0010
0000
0100
0000
1000
0010
0000
1000
0001
0000
,
0001
0000
0100
0010
0000
0100
0001
0010
0100
0000
1000
0010
0000
1000
0010
0000
,
0100
0000
0001
0010
0000
0001
0010
0000
0100
0000
1000
0001
0100
0001
1000
0100
,
1000
0000
1000
0010
0000
0010
0100
0000
0100
0001
0000
0001
1000
0001
0010
0000
,
0001
1000
0010
0000
1000
0001
0010
0000
0001
1000
0100
0000
1000
0001
0100
0001
,
1000
0100
0010
0001
,
1000
0000
0000
0000
0001
1000
0001
1000
0002
0000
0000
0000
0003
0000
0000
0000
;

//---------------dance-single - ----------------
#NOTEDATA:;
#CHARTNAME:;
#STEPSTYPE:dance-single;
#DESCRIPTION:;
#CHARTSTYLE:;
#DIFFICULTY:Medium;
#METER:12;
#RADARVALUES:0.546986,0.654796,0.107973,0.456811,0.116279,461.000000,448.000000,13.000000,55.000000,0.000000,0.000000,0.000000,0.000000,0.000000,0.546986,0.654796,0.107973,0.456811,0.116279,461.000000,448.000000,13.000000,55.000000,0.000000,0.000000,0.000000,0.000000,0.000000;
#CREDIT:;
#NOTES:
0000
0000
0000
0000
,
0000
0000
0000
0000
,
0000
0000
0000
0000
,
0000
0000
0000
0000
,
0000
0000
0000
0000
,
0000
0000
0000
0000
,
0000
0000
0000
0000
,
0000
0000
0000
0000
,
0000
0000
0000
0000
0000
0001
0010
0001
,
1000
0000
0000
1000
0010
0000
0000
1000
,
0000
0001
0100
0010
1000
0000
0001
0001
,
0001
0000
0000
0001
0010
0001
0001
0001
,
1000
0010
0100
0100
0010
0000
1000
0001
,
1000
0100
0010
0001
,
1000
0010
0100
0001
,
1000
0001
0100
0010
1000
0001
0010
0100
,
1000
0010
0100
0001
0020
0000
0130
0010
,
0002
0000
0103
0000
0001
1000
0001
1000
,
0200
0000
1300
0000
0001
1000
0001
1000
,
0002
0203
0320
0032
,
0023
1000
0100
1030
,
0002
0000
0013
0000
0100
1000
0001
1000
,
0200
0000
0000
0000
0310
0000
0000
0000
0001
0000
0000
0100
0000
0000
0010
0000
,
0002
0013
2000
0100
,
0010
0000
0001
0000
3100
0000
1000
0001
,
1000
0000
0000
1000
0000
0000
0010
0000
0000
0010
0000
0000
0100
0000
0001
0000
,
1000
0000
0000
1000
0000
0000
0100
0000
0000
0100
0000
0000
0010
0000
0001
0000
,
1000
0000
0000
1000
0000
0000
0010
0000
0100
0000
0010
0000
0001
0000
0010
0000
,
0100
0000
0000
0100
0000
0000
0001
0000
0000
0001
0000
0000
0010
0000
0001
0000
,
1000
0000
0000
1000
0000
0000
0010
0000
0100
0000
0010
0000
0001
0000
0010
0000
,
0100
0000
0000
0100
0000
0000
0001
0000
1000
0000
0000
0100
0000
0000
0001
0000
,
0001
0000
0000
0100
0000
0000
0010
0000
0001
0000
0000
0100
0000
0000
0010
0000
,
1000
0000
0000
0001
0000
0000
0010
0000
0100
0000
1000
0000
0001
0000
0100
0000
,
0010
0000
1000
0010
1000
0001
1000
0100
,
2000
0000
3000
0001
0010
0001
1000
0001
,
0200
0000
0300
0001
1000
0100
0010
0100
,
0002
0000
0003
0001
0100
0010
0100
1000
,
0001
0000
1000
0100
1000
0001
1000
0010
,
2000
0000
3000
0001
0100
0001
1000
0001
,
0020
0000
0030
0001
1000
0010
0100
0010
,
0002
0000
0003
0001
0010
0000
1010
0000
,
1000
1000
1000
0200
0010
0000
1300
0000
,
0001
0000
0001
0000
0001
0000
0100
0000
1000
0000
0000
0100
0000
0000
0001
0000
,
1000
0000
0000
0000
0100
0000
0000
0000
0010
0000
0000
0001
0000
0000
0100
0000
,
0200
0000
0320
1000
0130
0000
1001
0000
,
0001
0001
0001
0200
0010
0000
0301
0000
,
1000
1000
1000
0020
0100
0000
1030
0000
,
0001
1000
0010
0100
0001
1000
0100
0010
,
0001
0100
0010
0001
0020
0000
0000
0030
,
1001
0000
0000
0000
0000
1000
0100
0000
0000
0010
0000
0000
,
0001
0000
0000
0000
0000
0001
0100
0000
0000
0010
0000
0000
,
1000
0000
0000
0000
0000
0100
0010
0000
0000
1000
0000
0000
,
0010
0000
0000
0000
0000
0010
0001
0000
0000
1000
0000
0000
,
0020
1000
0130
0010
,
1000
0100
0010
1000
,
0020
0000
0000
0000
0000
0032
0000
0000
0000
2000
0000
0000
,
0000
0000
0000
3003
,
2100
0000
3001
0100
0001
1000
0010
0000
,
0102
0000
1003
0100
1000
0001
0010
0000
,
0012
0000
1003
0010
1000
0001
0020
0000
,
2030
0000
3010
0001
,
2000
0000
0000
0000
3000
0000
0000
0000
0010
0000
0000
0010
0000
0000
0010
0000
,
0000
0100
0001
1000
0000
0100
0020
0000
,
0200
0000
0000
0030
,
2000
0000
0300
3001
,
1000
0010
0100
0001
,
1000
1000
1000
1000
1000
0000
0001
0000
,
0102
0000
1000
0000
0103
0001
1000
0001
,
0020
2030
3020
0130
,
2000
0000
3001
0000
0100
0001
0010
0100
,
0002
0000
0103
0000
1000
0000
0001
0100
,
0020
0000
1030
1000
0002
0000
0013
0000
,
0002
0203
0320
0230
,
2300
0000
3200
0301
2000
0000
0100
0000
,
3002
0000
0010
0000
0100
0000
0013
0001
,
1000
0000
0010
0000
1010
0000
1000
0001
,
0100
0000
0001
0000
0101
0000
0001
0010
,
0100
0010
0001
1000
,
0010
0000
0100
1000
0100
0000
0001
1000
,
0010
0010
0000
0000
0000
0000
0000
0101
,
0000
1000
0010
0000
0000
0000
1001
0000
,
1000
1000
1000
0000
0100
0100
0100
0000
,
0010
0010
0010
0000
0001
0001
0001
0000
,
1000
0010
1000
0010
0100
0001
0100
0001
,
1000
0100
1000
0100
0010
0000
1001
0000
,
0001
0000
0000
0001
0000
0000
0100
0000
0001
0000
1000
0000
0001
0000
0010
0000
,
0100
0000
0000
0100
0000
0000
1000
0000
0010
0000
0000
0010
0000
0000
0100
0000
,
0100
0000
0000
0100
0000
0000
0001
0000
1000
0000
0000
1000
0000
0000
0100
0000
,
0010
0000
0000
0010
0000
0000
0001
0000
1000
0000
0010
0000
0100
0000
0001
0000
,
1000
0100
0010
0100
0001
0100
0010
0100
,
1000
0010
0100
0010
0001
0010
0100
0010
,
1000
0100
0010
0001
,
1000
0000
1000
0001
2002
0000
3003
0000
;

//---------------dance-single - ----------------
#NOTEDATA:;
#CHARTNAME:;
#STEPSTYPE:dance-single;
#DESCRIPTION:;
#CHARTSTYLE:;
#DIFFICULTY:Easy;
#METER:6;
#RADARVALUES:0.363075,0.385174,0.049834,0.099668,0.000000,306.000000,300.000000,6.000000,12.000000,0.000000,0.000000,0.000000,0.000000,0.000000,0.363075,0.385174,0.049834,0.099668,0.000000,306.000000,300.000000,6.000000,12.000000,0.000000,0.000000,0.000000,0.000000,0.000000;
#CREDIT:;
#NOTES:
0000
0000
0000
0000
,
0000
0000
0000
0000
,
0000
0000
0000
0000
,
0000
0000
0000
0000
,
0000
0000
0000
0000
,
0000
0000
0000
0000
,
0000
0000
0000
0000
,
0000
0000
0000
0000
,
0000
0000
0000
0000
,
1000
0000
0010
0000
,
0100
0001
1000
0001
,
0001
0000
0010
0100
,
1000
0010
0100
0001
,
1000
1000
0100
0100
,
0010
0010
0001
0001
,
0100
0100
0010
0010
,
1000
0001
1000
1001
,
1000
0100
1000
1000
,
0001
0010
0001
0001
,
1000
0010
0100
1000
,
0200
0010
0310
0100
,
0001
0010
0100
1000
,
0001
0100
0010
1000
,
0002
0010
1003
0001
,
0100
0010
1000
0001
,
1000
0100
0001
0001
,
0100
0010
0001
0001
,
1000
0010
0100
1000
,
0100
0100
0010
0010
,
1000
0010
0001
0001
,
0010
0100
0001
0010
,
0001
1000
0100
0010
,
0100
1000
0001
0100
,
0000
0010
0010
0100
,
0001
0000
0010
0100
,
1000
0000
0010
1000
,
0001
0000
0010
0001
,
1000
0100
0100
1000
,
0001
0000
0100
0001
,
0010
0000
0100
1000
,
0010
0000
0100
1001
,
0001
0001
0001
0010
,
1000
1000
1000
0010
,
0100
1000
0010
0100
,
0001
0000
1000
0000
,
0100
0100
0100
0010
,
0001
0001
0001
0100
,
0010
1000
0100
0001
,
0100
1000
0020
0030
,
1001
0000
0001
0100
,
0001
0000
1000
0100
,
1000
0000
0001
0010
,
0001
0000
1000
0010
,
1000
0000
0010
0100
,
0001
0000
0100
0010
,
1000
0000
0100
0010
,
0001
0010
0100
1000
,
0001
0000
0100
1000
,
0100
0000
0001
0010
,
0001
0000
1000
0100
,
0010
0001
0010
0100
,
1000
0000
0001
0001
,
0001
0100
0010
0100
,
0002
0000
0000
0000
,
0000
0000
0000
0003
,
1000
0100
0010
0100
,
0001
0100
1000
0001
,
2002
3003
0001
0100
,
0010
0010
0020
0130
,
0001
0010
0100
1000
,
0002
0010
1003
0001
,
0100
0010
1000
0001
,
0010
0100
1000
0001
,
0100
1000
0100
0010
,
1000
0001
0010
0100
,
2000
0010
3001
1000
,
0002
0010
1003
0001
,
1000
0100
0001
0010
,
1000
0000
0001
0000
,
0100
0000
0010
1000
,
0001
1000
0100
0010
,
0001
0001
0001
0100
,
1000
1000
1000
0100
,
0010
0010
0010
1000
,
0001
0010
0100
1001
,
0001
0100
0010
0010
,
0100
0001
1000
0100
,
0010
0100
1000
1000
,
0001
0100
0010
0001
,
0010
1000
0100
1000
,
0001
0010
0001
0100
,
0010
0010
0100
0100
,
0001
1000
2002
3003
;

//---------------dance-single - ----------------
#NOTEDATA:;
#CHARTNAME:;
#STEPSTYPE:dance-single;
#DESCRIPTION:;
#CHARTSTYLE:;
#DIFFICULTY:Beginner;
#METER:4;
#RADARVALUES:0.247983,0.307309,0.008306,0.041528,0.000000,209.000000,208.000000,1.000000,5.000000,0.000000,0.000000,0.000000,0.000000,0.000000,0.247983,0.307309,0.008306,0.041528,0.000000,209.000000,208.000000,1.000000,5.000000,0.000000,0.000000,0.000000,0.000000,0.000000;
#CREDIT:;
#NOTES:
// measure 0
0000
0000
0000
0000
,  // measure 1
0000
0000
0000
0000
,  // measure 2
0000
0000
0000
0000
,  // measure 3
0000
0000
0000
0000
,  // measure 4
0000
0000
0000
0000
,  // measure 5
0000
0000
0000
0000
,  // measure 6
0000
0000
0000
0000
,  // measure 7
0000
0000
0000
0000
,  // measure 8
0000
0000
0000
0000
,  // measure 9
1000
0000
0001
0000
,  // measure 10
0100
0100
0100
0000
,  // measure 11
0010
0000
1000
0000
,  // measure 12
0001
0001
0001
0000
,  // measure 13
0010
0010
0010
0000
,  // measure 14
0100
0100
0100
0000
,  // measure 15
1000
1000
1000
0000
,  // measure 16
0001
0001
0001
0001
,  // measure 17
0001
0000
0100
0100
,  // measure 18
0100
0000
0010
0010
,  // measure 19
0010
0000
1000
0000
,  // measure 20
0001
0000
1000
0000
,  // measure 21
0100
0000
0010
0010
,  // measure 22
0010
0000
0001
0001
,  // measure 23
0001
0000
1000
0000
,  // measure 24
0010
0000
0100
0000
,  // measure 25
0001
0001
0001
0000
,  // measure 26
1000
1000
1000
0000
,  // measure 27
0100
0100
0100
0100
,  // measure 28
0100
0000
0010
0000
,  // measure 29
0001
0001
0001
0000
,  // measure 30
1000
1000
1000
0000
,  // measure 31
0010
0010
0010
0000
,  // measure 32
0100
0100
0100
0100
,  // measure 33
0100
0000
0001
0001
,  // measure 34
0001
0000
0010
0010
,  // measure 35
0010
0000
0100
0100
,  // measure 36
0100
0000
1000
1000
,  // measure 37
1000
0000
0001
0001
,  // measure 38
0001
0000
0100
0100
,  // measure 39
0100
0000
0010
0010
,  // measure 40
0010
0000
1001
0000
,  // measure 41
1000
0000
0100
0100
,  // measure 42
0100
0000
0010
0010
,  // measure 43
0010
0000
0001
0000
,  // measure 44
1000
0000
0100
0000
,  // measure 45
1000
0000
0010
0010
,  // measure 46
0010
0000
0100
0100
,  // measure 47
0100
0000
0001
0000
,  // measure 48
1000
0000
0000
0000
,  // measure 49
0001
0000
0000
0000
,  // measure 50
0100
0000
0000
0000
,  // measure 51
0010
0000
0000
0000
,  // measure 52
1000
0000
1000
0000
,  // measure 53
1000
0000
0000
0000
,  // measure 54
0100
0000
0000
0000
,  // measure 55
0010
0000
0000
0000
,  // measure 56
0001
0000
0000
0001
,  // measure 57
0001
0000
0100
0100
,  // measure 58
0100
0000
0010
0010
,  // measure 59
0010
0000
1000
1000
,  // measure 60
1000
0000
0001
0000
,  // measure 61
0010
0000
0100
0100
,  // measure 62
0100
0000
0010
0010
,  // measure 63
0020
0000
0000
0000
,  // measure 64
0000
0000
0030
0000
,  // measure 65
0200
0000
0300
0000
,  // measure 66
0020
0000
0030
0000
,  // measure 67
0001
0000
0100
0100
,  // measure 68
0100
0100
0100
0000
,  // measure 69
0010
0000
1000
1000
,  // measure 70
1000
0000
0001
0000
,  // measure 71
0010
0000
0100
0000
,  // measure 72
1000
1000
1000
0000
,  // measure 73
0001
0001
0001
0000
,  // measure 74
0100
0100
0100
0100
,  // measure 75
0200
0000
0300
0000
,  // measure 76
0020
0000
0030
0000
,  // measure 77
1000
1000
1000
1000
,  // measure 78
1000
0000
0001
0000
,  // measure 79
0010
0000
0100
0100
,  // measure 80
0100
0000
0010
0010
,  // measure 81
0010
0000
0001
0000
,  // measure 82
1000
0000
0100
0000
,  // measure 83
1000
0000
0001
0000
,  // measure 84
0100
0000
0010
0010
,  // measure 85
0010
0000
0100
0100
,  // measure 86
0100
0000
0001
0001
,  // measure 87
0001
0000
0010
0010
,  // measure 88
0010
0000
0100
0100
,  // measure 89
0100
0000
1000
0000
,  // measure 90
0001
0000
0100
0000
,  // measure 91
0010
0010
0010
0010
,  // measure 92
0000
0100
0100
0000
;
