#VERSION:0.83;
#TITLE:snow prism (GFDM ver.);
#SUBTITLE:;
#ARTIST:Qrispy Joybox;
#TITLETRANSLIT:;
#SUBTITLETRANSLIT:;
#ARTISTTRANSLIT:;
#GENRE:;
#ORIGIN:;
#CREDIT:;
#BANNER:snow prism (GFDM ver.).png;
#BACKGROUND:snow prism (GFDM ver.)-bg.png;
#PREVIEWVID:;
#JACKET:snow prism (GFDM ver.)-jacket.png;
#CDIMAGE:;
#DISCIMAGE:;
#LYRICSPATH:;
#CDTITLE:;
#MUSIC:snow prism (GFDM ver.).ogg;
#OFFSET:0.605000;
#SAMPLESTART:12.851252;
#SAMPLELENGTH:11.999994;
#SELECTABLE:YES;
#BPMS:0.000=196.000;
#STOPS:;
#DELAYS:;
#WARPS:;
#TIMESIGNATURES:0.000=4=4;
#TICKCOUNTS:0.000=4;
#COMBOS:0.000=1;
#SPEEDS:0.000=1.000=0.000=0;
#SCROLLS:0.000=1.000;
#FAKES:;
#LABELS:0.000=Song Start;
#BGCHANGES:2.000=snow prism (GFDM ver.).mp4=1.000=0=0=1=====,
99999=-nosongbg-=1.000=0=0=0 // don't automatically add -songbackground-
;
#KEYSOUNDS:;
#ATTACKS:
;

//---------------dance-single - ----------------
#NOTEDATA:;
#CHARTNAME:;
#STEPSTYPE:dance-single;
#DESCRIPTION:;
#CHARTSTYLE:;
#DIFFICULTY:Hard;
#METER:13;
#RADARVALUES:0.656974,0.678808,0.385530,0.725163,0.000000,501.000000,459.000000,42.000000,79.000000,0.000000,0.000000,0.000000,0.000000,0.000000,0.656974,0.678808,0.385530,0.725163,0.000000,501.000000,459.000000,42.000000,79.000000,0.000000,0.000000,0.000000,0.000000,0.000000;
#CREDIT:Ben Speirs;
#NOTES:
0000
0000
0000
0000
,
0000
0000
0000
0000
,
0000
0000
0000
0000
,
0000
0000
0000
0000
,
0000
0000
0000
0000
,
0002
0000
1003
0200
0000
1300
0010
0200
,
0000
0301
0010
0100
1000
0000
0101
0000
,
2000
0000
3100
0010
0001
1030
0001
0200
,
0000
0020
0000
0000
0000
0000
0330
0000
,
2002
0000
0000
3003
,
0010
0000
0010
0000
1000
0001
1000
0001
,
1000
0100
0001
0100
0010
0001
0100
0020
,
0000
2030
0000
3002
0000
0013
0100
1000
,
0001
0100
1000
0100
0010
1000
0100
0020
,
0000
0332
0000
2003
0000
3010
0010
0000
,
1000
0010
0001
0010
0100
0001
0010
0200
,
0000
2300
0000
3002
0000
0103
0010
1000
,
0001
0010
1000
0001
0100
1000
0010
0020
,
0000
0130
0000
0110
0000
2002
0000
3033
,
1000
0100
1000
0010
0100
0100
0001
0010
,
0000
0011
0000
1200
0000
3310
0001
0100
,
0001
1000
0010
0100
0010
0010
1000
0100
,
0000
1100
0000
0021
0000
0133
0100
0000
,
1000
0001
1000
0010
0100
0100
0001
0010
,
0000
0012
0000
1003
0000
2010
0000
3200
,
0000
0000
0310
0000
0010
0001
1000
0002
,
0000
0103
0010
2000
0000
3001
3001
0000
,
1100
0000
0001
0011
0000
0000
1000
0010
,
0000
1010
0000
0110
0000
0001
1000
0001
,
0101
0000
1000
1010
0000
0000
0001
0010
,
0000
0011
0000
1001
0000
1000
0010
0010
,
0100
0000
0101
0001
0000
1000
0100
1100
,
0000
0110
0000
0001
1000
0001
1000
0000
,
0001
0100
0020
0000
1030
0100
0020
0000
,
0031
1000
0010
0010
0100
0001
1000
0000
,
0001
0010
0200
0000
1300
0010
0200
0000
,
0301
1000
0100
0100
0010
0001
1000
0010
,
0220
0000
0000
0330
,
0001
1000
0001
1000
0001
0010
0100
1000
,
1020
0000
0031
0010
0100
0010
1000
0001
,
1000
0100
0010
0001
0100
0000
1001
0000
,
0201
0000
1300
0100
0010
0100
0001
1000
,
0001
0010
0100
1000
0010
0100
0100
0000
,
2001
0000
3001
0010
1000
0010
0100
0010
,
0001
0100
0010
1000
0100
0000
1100
0000
,
0001
0100
1000
0001
0010
1000
0100
0200
,
0000
0310
0000
0011
0000
2002
0000
3003
,
1000
0001
1000
0010
1000
0100
1000
0020
,
0000
0130
0001
2000
0000
3100
0010
0000
,
0001
1000
0001
0010
0001
0100
0001
0020
,
0000
0130
1000
0002
0000
0103
0100
0000
,
0001
1000
0010
0100
0001
0010
0100
1000
,
0010
0100
0010
0001
0010
0100
0010
2000
,
0000
0000
3100
0000
1000
0001
1000
0001
,
0100
0010
1000
0100
0010
0001
1000
0000
,
0001
0100
0010
0100
0010
0100
0010
0100
,
0001
0010
0100
2000
0000
3002
0000
0103
,
0010
1000
0001
1000
0100
0200
0000
1300
,
0001
1000
0010
0020
0000
0130
0001
1000
,
0200
0000
0302
0000
0103
2000
0000
3002
,
0000
0103
0010
2000
0000
0000
3100
0000
,
1000
0001
0100
0001
1000
0100
0010
0011
,
0000
1100
0000
0101
0000
2002
0000
3003
,
1000
0010
0100
0010
0100
0010
0100
0010
,
1000
0100
0010
0002
0000
2003
0000
3010
,
0100
0002
0000
0013
0020
0000
3130
0200
,
0000
1300
0001
1000
0010
0100
0001
0000
,
1000
0001
0010
0001
0010
0001
0010
0001
,
0100
0010
1000
0200
0000
0320
0000
0031
,
0200
0000
0310
0000
1000
0100
0301
0100
,
1000
0000
1100
0000
0000
0011
0000
0000
,
2002
0000
0000
0000
,
0000
0000
0000
0000
,
0000
0000
0000
0000
,
0000
0000
3003
3003
,
0101
0000
1000
0200
0000
0310
0001
2000
,
0000
3010
0100
0002
0000
1003
0100
0000
,
1100
0000
0001
0200
0000
0310
1000
0002
,
0000
0013
0100
0010
0100
1000
0001
0000
,
0102
0000
1003
0100
0001
0100
1000
0020
,
0000
0130
0010
0200
0000
0301
1000
0000
,
0001
0010
0100
2000
0000
3010
0100
0002
,
0000
1003
0100
0010
0001
0100
0010
0000
,
1000
0100
0010
0002
0000
0103
0010
2000
,
0000
3001
0010
0100
1000
0010
0100
0000
,
0101
0000
1000
1100
0000
0110
0000
0002
,
0000
2000
0000
0000
0000
0000
0000
0000
,
3003
0000
0000
0000
;

//---------------dance-single - ----------------
#NOTEDATA:;
#CHARTNAME:;
#STEPSTYPE:dance-single;
#DESCRIPTION:;
#CHARTSTYLE:;
#DIFFICULTY:Medium;
#METER:10;
#RADARVALUES:0.476011,0.598948,0.422247,0.504860,0.000000,363.000000,317.000000,46.000000,55.000000,0.000000,0.000000,0.000000,0.000000,0.000000,0.476011,0.598948,0.422247,0.504860,0.000000,363.000000,317.000000,46.000000,55.000000,0.000000,0.000000,0.000000,0.000000,0.000000;
#CREDIT:Ben Speirs;
#NOTES:
0000
0000
0000
0000
,
0000
0000
0000
0000
,
0000
0000
0000
0000
,
0000
0000
0000
0000
,
0000
0000
0000
0000
,
1000
0001
0100
0010
,
1000
0000
0100
0010
0002
0000
1003
0000
,
0001
0000
0100
0000
0010
0000
1000
0200
,
0000
0020
0000
0000
0000
0000
0330
0000
,
2002
0000
0000
3003
,
0001
0000
1000
0000
0010
0100
0010
0000
,
1000
0100
1000
0100
1000
0000
0001
0100
,
0000
0100
0000
0020
0000
0000
1030
0000
,
0001
0010
0001
0010
0001
0000
1000
0010
,
0000
0010
0000
0200
0000
0000
0301
0000
,
1000
0100
1000
0100
1000
0000
0001
0100
,
0000
0100
0000
0020
0000
0000
1030
0000
,
0001
0000
0010
0000
0100
0000
1000
0010
,
0000
0100
0000
0002
0000
2000
0000
3003
,
0001
0100
0001
0000
0100
0001
0100
0000
,
0001
0010
0100
0110
,
1000
0100
1000
0000
0100
1000
0100
0000
,
1000
0001
0100
0110
,
0001
0100
0001
0000
1000
0100
1000
0000
,
0001
0010
0100
1000
,
0020
0000
0100
0130
,
0001
0010
0200
0000
2000
0000
3300
0000
,
0001
0000
0000
0101
0000
0000
1000
0000
,
0000
1100
0000
0000
0000
0000
0000
0000
,
0100
0000
0000
0110
0000
0000
1001
0000
,
0000
0000
0000
0000
0000
1000
0001
0000
,
0101
0000
0000
1001
0000
0000
1100
0000
,
0000
1001
0000
0000
0110
0000
1001
0000
,
0001
0000
0100
0010
0000
0000
0010
0000
,
1000
0000
0100
0010
0000
0000
0010
0000
,
0001
0000
1000
0100
0000
0000
0100
0000
,
1000
0000
0001
0100
0000
0000
0100
0000
,
2002
0000
0000
3003
,
0010
0010
0100
0100
,
1001
0000
0101
0000
1000
0001
0010
0000
,
0100
1000
0002
0003
,
1001
0000
1100
0000
1000
0001
0100
0000
,
0010
1000
0002
0003
,
1001
0000
0101
0000
0001
0010
0100
0000
,
1000
0001
2000
3000
,
0001
0000
0100
0000
0010
0000
1000
0100
,
0000
0010
0000
0002
0000
2000
0000
3003
,
1000
0100
1000
0000
1100
0000
1100
0000
,
0110
0110
2002
3003
,
0001
0100
0001
0000
0101
0000
0101
0000
,
0110
0110
2002
3003
,
1000
0010
1000
0000
1010
0000
1010
0000
,
0110
0110
2002
3003
,
0001
0000
0010
0000
0100
0010
0100
0000
,
1000
0010
0100
0000
0010
1000
0001
0000
,
1000
0100
0020
0000
0230
0000
0320
0000
,
0031
0000
0100
0010
0000
0010
0000
2000
,
0000
0000
3001
0000
0001
0000
1000
0100
,
0000
0100
0010
0000
0001
1000
0001
0000
,
2000
0000
3020
0000
0130
0002
0000
2003
,
0000
3100
0010
0200
0000
0000
1300
0000
,
0001
0000
0100
0000
0010
0000
1000
0100
,
0000
0010
0000
0002
0000
2000
0000
3003
,
0001
0010
0200
0000
0320
0000
0230
0000
,
1300
0000
0010
0100
0000
0100
0000
0001
,
0000
0101
0000
0000
1000
0000
0000
1100
,
0000
0000
0001
0000
0000
1000
0001
0000
,
1000
0100
0020
0000
0230
0000
0320
0000
,
0031
0000
1000
0020
0000
0230
0000
0302
,
0000
0000
1003
0000
0001
0010
0100
0000
,
1000
0000
1100
0000
0000
0011
0000
0000
,
2002
0000
0000
0000
,
0000
0000
0000
0000
,
0000
0000
0000
0000
,
0000
0000
3003
3003
,
0101
0100
0010
1000
,
0100
0010
0100
0000
0020
0000
0030
0000
,
0001
1000
0010
0100
,
0001
1000
0001
0000
2000
0000
3000
0000
,
1001
0000
0001
0100
0001
0100
0001
0200
,
0000
0300
0010
0110
,
2000
0000
0000
3100
0000
0010
0100
0010
,
0000
0001
0010
0001
0000
0000
1000
0000
,
0002
0000
0000
0103
0000
0010
0100
0010
,
0000
1000
0100
1000
0000
0000
0001
0000
,
0101
0000
0000
1100
0000
0101
0000
2000
,
0000
0002
0000
0000
0000
0000
0000
0000
,
3003
0000
0000
0000
;

//---------------dance-single - ----------------
#NOTEDATA:;
#CHARTNAME:;
#STEPSTYPE:dance-single;
#DESCRIPTION:;
#CHARTSTYLE:;
#DIFFICULTY:Easy;
#METER:7;
#RADARVALUES:0.297671,0.359369,0.027538,0.100972,0.000000,227.000000,224.000000,3.000000,11.000000,0.000000,0.000000,0.000000,0.000000,0.000000,0.297671,0.359369,0.027538,0.100972,0.000000,227.000000,224.000000,3.000000,11.000000,0.000000,0.000000,0.000000,0.000000,0.000000;
#CREDIT:Ben Speirs;
#NOTES:
0000
0000
0000
0000
,
0000
0000
0000
0000
,
0000
0000
0000
0000
,
0000
0000
0000
0000
,
0000
0000
0000
0000
,
0001
0100
0010
0000
,
1000
0100
0010
0000
,
0001
1000
0010
0100
,
0010
0000
0000
0000
,
1000
0000
0000
0000
,
0000
0000
0000
0000
,
0001
0010
0100
1000
,
0010
0010
0010
0000
,
1000
0100
0010
0001
,
0100
0100
0100
0000
,
0001
1000
0001
1000
,
0100
0100
0100
0000
,
1000
0100
0010
0001
,
0100
0000
0010
0000
,
1000
0010
0100
0001
,
1000
1000
1000
0000
,
0001
0010
0100
1000
,
0001
0001
0001
0000
,
1000
0100
1000
0001
,
0100
0100
0010
0010
,
2000
0000
0000
3000
,
0002
0000
0000
0003
,
1000
0000
0000
1000
0000
0000
0100
0000
,
0000
0100
0000
0000
0000
0000
0000
0000
,
0010
0000
0000
0010
0000
0000
0001
0000
,
0000
0000
0000
0000
,
1000
0000
0000
1000
0000
0000
0010
0000
,
0000
0010
0000
0000
0000
0000
0000
0000
,
1000
0010
0000
0010
,
0100
0001
0000
0001
,
0010
0100
0000
0100
,
1000
0001
0000
0000
,
2002
0000
0000
0000
,
0000
0000
0000
3003
,
0001
0100
0010
1000
,
0100
0010
0001
0000
,
1000
0010
0100
0001
,
0010
0100
1000
0000
,
0001
0100
0010
1000
,
0100
0010
0001
0000
,
1000
0010
0100
0001
,
1000
0000
0001
0000
,
1000
1000
0100
0100
,
0010
0001
1000
0000
,
0001
0001
0100
0100
,
0010
1000
0001
0000
,
1000
1000
0100
0100
,
0010
0010
0001
0001
,
0200
0000
0000
0300
,
0020
0000
0000
0030
,
1000
0001
1000
0001
,
0010
0100
1000
0000
,
0001
0001
0100
0000
,
0010
0010
1000
0000
,
0001
0010
0100
0000
,
1000
0010
0100
0000
,
0010
0010
0010
0010
,
0010
0000
1001
0000
,
1000
0100
1000
0100
,
1000
0100
0010
0001
,
1000
0010
0100
0001
,
1000
1000
0001
0000
,
0001
0010
0001
0010
,
0001
0010
0100
1000
,
0020
0000
0000
0000
,
0030
0000
1000
0000
0000
0001
0000
0000
,
2002
0000
0000
0000
,
0000
0000
0000
0000
,
0000
0000
0000
0000
,
0000
0000
3003
0000
,
0001
0000
0100
0000
,
0010
0010
1000
0000
,
1000
0000
0100
0000
,
0010
0010
0001
0000
,
1000
0001
1000
0001
,
1000
0001
0100
0000
,
0001
0100
0010
0000
,
1000
0100
0010
0000
,
0001
1000
0010
0000
,
1000
0001
0100
0000
,
0001
0010
0100
1000
,
0002
2000
0000
0000
,
3003
0000
0000
0000
;

//---------------dance-single - ----------------
#NOTEDATA:;
#CHARTNAME:;
#STEPSTYPE:dance-single;
#DESCRIPTION:;
#CHARTSTYLE:;
#DIFFICULTY:Beginner;
#METER:3;
#RADARVALUES:0.144246,0.197355,0.009179,0.000000,0.000000,110.000000,109.000000,1.000000,0.000000,0.000000,0.000000,0.000000,0.000000,0.000000,0.144246,0.197355,0.009179,0.000000,0.000000,110.000000,109.000000,1.000000,0.000000,0.000000,0.000000,0.000000,0.000000,0.000000;
#CREDIT:Ben Speirs;
#NOTES:
0000
0000
0000
0000
,
0000
0000
0000
0000
,
0000
0000
0000
0000
,
0000
0000
0000
0000
,
0000
0000
0000
0000
,
1000
0000
0000
0000
,
0001
0000
0000
0000
,
0100
0000
0100
0000
,
0100
0000
0000
0000
,
0010
0000
0000
0000
,
0000
0000
0000
0000
,
1000
1000
1000
0000
,
1000
0000
0000
0000
,
0100
0100
0100
0000
,
0100
0000
0000
0000
,
0010
0010
0010
0000
,
0010
0000
0000
0000
,
0001
0000
0001
0000
,
0000
0000
0000
0000
,
0001
0001
0001
0000
,
0001
0000
0000
0000
,
0100
0100
0100
0000
,
0100
0000
0000
0000
,
0010
0010
0010
0000
,
0010
0000
0000
0000
,
1000
0000
0000
0000
,
0000
0000
0000
0000
,
1000
0000
0000
0000
,
0000
0000
0000
0000
,
0100
0000
0000
0000
,
0000
0000
0000
0000
,
0010
0000
0000
0000
,
0000
0000
0000
0000
,
0001
0000
0001
0000
,
0001
0000
0000
0000
,
1000
0000
1000
0000
,
1000
0000
0000
0000
,
0010
0000
0000
0000
,
0000
0000
0000
0000
,
1000
0000
1000
0000
,
1000
1000
0000
0000
,
0001
0000
0001
0000
,
0001
0001
0000
0000
,
0100
0000
0100
0000
,
0100
0100
0000
0000
,
0010
0000
0000
0000
,
0010
0000
0000
0000
,
1000
0000
1000
0000
,
1000
1000
0000
0000
,
0100
0000
0100
0000
,
0100
0100
0000
0000
,
0010
0000
0010
0000
,
0010
0010
0000
0000
,
0001
0000
0000
0000
,
0000
0000
0000
0000
,
1000
0000
1000
0000
,
1000
0000
1000
0000
,
1000
0000
0000
0000
,
0010
0000
0000
0000
,
0100
0100
0000
0000
,
0100
0000
0000
0000
,
0001
0000
0001
0000
,
0001
0000
0000
0000
,
0001
0000
0001
0000
,
0001
0000
0001
0000
,
0001
0000
0000
0000
,
0010
0000
0000
0000
,
0100
0000
0100
0000
,
0100
0000
0100
0000
,
0100
0000
0000
0000
,
1000
0000
0000
0000
,
1001
0000
0000
0000
,
0000
0000
0000
0000
,
0000
0000
0000
0000
,
0000
0000
0000
0000
,
1000
0000
0000
0000
,
0010
0000
0000
0000
,
0100
0000
0000
0000
,
0100
0000
0000
0000
,
0001
0000
0000
0000
,
0000
0000
0000
0000
,
1000
0000
1000
0000
,
1000
0000
0000
0000
,
0100
0000
0100
0000
,
0100
0000
0000
0000
,
0010
0000
0010
0000
,
0010
0000
0000
0000
;

//---------------dance-single - ----------------
#NOTEDATA:;
#CHARTNAME:;
#STEPSTYPE:dance-single;
#DESCRIPTION:;
#CHARTSTYLE:;
#DIFFICULTY:Challenge;
#METER:16;
#RADARVALUES:0.835315,0.918387,0.587474,0.449785,0.357992,637.000000,573.000000,64.000000,49.000000,0.000000,0.000000,0.000000,0.000000,0.000000,0.835315,0.918387,0.587474,0.449785,0.357992,637.000000,573.000000,64.000000,49.000000,0.000000,0.000000,0.000000,0.000000,0.000000;
#CREDIT:Ben Speirs;
#NOTES:
// measure 0
0000
0000
0000
0000
,  // measure 1
0000
0000
0000
0000
,  // measure 2
0000
0000
0000
0000
,  // measure 3
0000
0000
0000
0000
,  // measure 4
0000
0000
0000
0000
,  // measure 5
1010
0000
0000
1000
0100
0000
0010
0000
0001
0000
0000
0001
0100
0000
0010
0000
,  // measure 6
0100
0000
0000
0100
0001
0000
0010
0000
0100
0000
1000
0001
1000
0000
0000
0000
,  // measure 7
0101
0000
0000
0001
1000
0000
0100
0000
0001
0000
0100
0000
1000
0000
0020
0000
,  // measure 8
0000
0000
0200
0000
0000
0000
0000
0000
0000
0000
0000
0000
0330
0000
0001
1000
,  // measure 9
0001
0000
0000
0000
,  // measure 10
1000
0000
0000
0000
0001
0000
0000
0000
1000
0000
0100
0010
0100
0010
0100
0010
,  // measure 11
0001
0000
0100
0000
0010
0000
1000
0000
0001
0010
0001
0000
1000
0000
1010
0000
,  // measure 12
0000
0110
0000
0201
0000
0313
1000
0001
,  // measure 13
1000
0000
0100
0000
0010
0000
0001
0000
1000
0010
1000
0000
0001
0000
0011
0000
,  // measure 14
0000
0000
0110
0000
0000
0000
1200
0000
0000
0000
1330
0001
1000
0000
0000
0000
,  // measure 15
0001
0000
0100
0000
0010
0000
1000
0000
0100
0010
0100
0000
1000
0000
1010
0000
,  // measure 16
0000
0101
0000
2001
0000
3100
0010
0001
,  // measure 17
1000
0000
0010
0000
0001
0000
0010
0100
0010
0000
0100
0000
0001
0010
0100
0000
,  // measure 18
0000
0000
1100
0000
0000
0000
0011
0000
0000
0000
1000
0001
0100
0000
0000
0000
,  // measure 19
1001
0000
0001
0000
0100
0000
0010
0000
1000
0100
0010
0000
0001
0000
1000
0010
,  // measure 20
0000
0000
0010
0100
0000
0000
0100
0001
0000
0000
1000
0000
3100
0000
0010
0000
,  // measure 21
0001
0000
1000
0000
0010
0000
0100
0000
0001
0010
0100
0000
1000
0000
0001
0100
,  // measure 22
0000
0000
0100
0010
0000
0000
0010
1000
0000
0000
0001
1000
0001
0000
0000
0000
,  // measure 23
1000
0000
0100
0000
0010
0000
0001
0000
0100
0010
1000
0000
0001
0000
0012
0000
,  // measure 24
0000
1003
0010
2010
0000
3001
0010
0100
,  // measure 25
1002
0000
0000
0000
0103
0000
0000
0100
0010
0000
1000
0000
0001
0000
0021
0003
,  // measure 26
0000
0000
0130
0000
0100
0000
1000
0000
0000
0000
0001
1000
0001
0000
0000
0000
,  // measure 27
1010
0010
0100
1000
0100
0010
1000
0100
,  // measure 28
0010
0000
0120
0000
0000
0000
2330
0000
0000
0000
3010
0000
0001
1000
0001
1000
,  // measure 29
0001
0100
0010
0001
0010
0100
0001
0011
,  // measure 30
0000
0000
1000
0000
0000
0000
1030
0000
0000
0000
0001
0003
0100
0010
0100
0010
,  // measure 31
1000
0100
0001
0100
1000
0010
1000
0100
,  // measure 32
0010
0000
0011
0000
0000
0000
1100
0000
0001
0000
0100
0010
0100
0000
0010
0000
,  // measure 33
1000
0000
0001
0000
0010
0000
0010
0000
0100
0000
1000
0000
0010
0000
1000
0001
,  // measure 34
1000
0100
0010
0010
0001
1000
0010
0100
,  // measure 35
0001
0000
1000
0000
0100
0000
0100
0000
0010
0000
0001
0000
0100
0000
0001
1000
,  // measure 36
0001
0000
0010
0000
0100
0000
0100
0000
1000
0000
0001
0000
0100
0000
0010
1000
,  // measure 37
0002
0000
0000
0000
,  // measure 38
0103
0000
0100
0000
0010
0000
0010
0000
1000
0001
1000
0001
1000
0001
1000
0001
,  // measure 39
0010
0000
0100
0000
0010
0000
1000
0000
0010
0100
0010
0000
0001
0000
0102
0000
,  // measure 40
0000
0000
1003
0003
0100
0000
2100
0000
0000
0000
3001
0000
1000
0000
0001
0000
,  // measure 41
0100
0000
0010
0000
0100
0000
1000
0000
0100
0010
0100
0000
0001
0000
0012
0000
,  // measure 42
0000
0000
1003
3000
0010
0000
2010
0000
0000
0000
3001
0010
0100
0000
0000
0000
,  // measure 43
1000
0000
0010
0000
1000
0000
0001
0000
1000
0100
0010
0000
0001
0000
0102
0000
,  // measure 44
0000
1003
0100
2100
0000
3100
0010
0000
,  // measure 45
0001
0000
0100
0000
1000
0000
0100
0010
0100
0000
0010
0000
1000
0100
0010
0000
,  // measure 46
0000
0000
0011
0000
0000
0000
1100
0000
0000
0000
0001
1000
0010
0000
0000
0000
,  // measure 47
1001
0000
0001
0000
0100
0000
1000
0000
0100
0010
0100
0000
0010
0000
1000
0100
,  // measure 48
0000
0000
0010
0001
0000
0000
1000
0001
1000
0000
0010
0000
0100
0000
0001
0000
,  // measure 49
1000
0000
1000
0000
0100
0000
0001
0000
0100
0010
0100
0000
0010
0000
0001
0100
,  // measure 50
0000
0000
0010
1000
0000
0000
0001
1000
0001
0000
0100
0000
0010
0000
1000
0000
,  // measure 51
0100
0000
0001
0000
0100
0000
0010
0000
0001
1000
0001
0000
0100
0000
0102
0000
,  // measure 52
0000
1003
0010
2010
0000
3100
0010
1002
,  // measure 53
0000
0103
0010
0100
0010
1000
0001
0021
,  // measure 54
0000
0000
0130
0000
0100
0000
1000
0000
0001
0000
0100
0010
0100
0000
0000
0000
,  // measure 55
0110
0010
0010
0010
0011
0010
0010
0010
,  // measure 56
1000
0100
0010
0002
0000
0103
0000
0001
,  // measure 57
1000
0100
0010
0002
0100
0103
0001
0010
,  // measure 58
0100
0000
2000
0000
0010
0000
3010
0000
1000
0000
0001
1000
0010
0000
0100
0000
,  // measure 59
0101
0000
2010
0000
3100
0001
0100
0020
,  // measure 60
0000
0031
0100
0020
0000
1030
0001
1000
,  // measure 61
0100
0000
0010
0000
0010
0000
0010
0000
0001
1000
0010
0000
0100
0000
0101
0000
,  // measure 62
0000
0000
0110
0000
0000
0000
1010
0000
0000
0000
1000
0001
0010
0000
0000
0000
,  // measure 63
0011
0010
0010
0010
0110
0010
1010
0010
,  // measure 64
0001
0100
0010
2000
0000
3002
0000
0013
,  // measure 65
0100
0000
1000
0100
1000
0000
0001
0000
1000
0010
1000
0000
0001
0000
1000
0100
,  // measure 66
1000
0000
0001
0000
1000
0010
1000
0000
0010
0000
0100
0001
1003
0000
0000
0000
,  // measure 67
1010
0010
0010
0010
0110
0010
0011
0010
,  // measure 68
1000
0000
3100
0000
0010
0000
0002
0000
0000
0000
0103
0010
0100
0000
0000
0000
,  // measure 69
2001
0000
3100
0001
0100
1000
0010
0100
,  // measure 70
0001
1000
1100
0000
0000
0011
0000
0000
,  // measure 71
2002
0000
0000
0000
,  // measure 72
0000
0000
0000
0000
,  // measure 73
0000
0000
0000
0000
,  // measure 74
0000
0000
3003
3003
,  // measure 75
1020
0000
0031
0002
0000
0013
1000
0200
,  // measure 76
0000
0000
0310
0000
0001
0000
0100
0010
0100
0000
0001
0000
1000
0000
0000
0000
,  // measure 77
1010
0010
0100
0210
0000
0301
0010
0021
,  // measure 78
0000
0000
0130
0000
1000
0000
0100
0000
1000
0000
0001
0100
0310
0000
1000
0000
,  // measure 79
2100
0000
3001
0001
0100
0100
0010
0210
,  // measure 80
0000
0000
0301
0000
1000
0000
1002
0000
0000
0000
0013
0100
1000
0001
1000
0000
,  // measure 81
0020
0003
0031
0010
1000
0100
0010
0002
,  // measure 82
0000
0000
0103
0000
1000
0000
0100
0010
0100
0000
0000
0000
0110
0000
0000
0000
,  // measure 83
2001
0000
3100
0002
0000
0103
0010
0200
,  // measure 84
0000
0000
1300
0000
0010
0000
0100
0010
0100
0000
0001
0000
1000
0100
0010
0001
,  // measure 85
1000
0010
0100
0110
0000
0101
0001
2000
,  // measure 86
0000
0002
0000
0000
0000
0000
0000
0000
,  // measure 87
3003
0000
0000
0000
;

//---------------dance-double - ----------------
#NOTEDATA:;
#CHARTNAME:;
#STEPSTYPE:dance-double;
#DESCRIPTION:;
#CHARTSTYLE:;
#DIFFICULTY:Hard;
#METER:13;
#RADARVALUES:0.615012,0.678808,0.367171,0.835315,0.000000,469.000000,429.000000,40.000000,91.000000,0.000000,0.000000,0.000000,0.000000,0.000000,0.615012,0.678808,0.367171,0.835315,0.000000,469.000000,429.000000,40.000000,91.000000,0.000000,0.000000,0.000000,0.000000,0.000000;
#CREDIT:Ben Speirs;
#NOTES:
00000000
00000000
00000000
00000000
,
00000000
00000000
00000000
00000000
,
00000000
00000000
00000000
00000000
,
00000000
00000000
00000000
00000000
,
00000000
00000000
00000000
00000000
,
00012000
00000000
00103000
02000000
00000000
13000000
00010000
20000000
,
00000000
30100000
00010000
00002000
00000000
00013000
00000100
00000000
,
00020100
00000000
00030010
00000100
00000010
00000100
00001000
00020000
,
00000000
00002000
00000000
00000000
00000000
00000000
00033000
00000000
,
02200000
00000000
00000000
03300000
,
20000000
00000000
30020000
00000000
01030000
00100000
01000000
00100000
,
10000000
01000000
00100000
00010000
01000000
00100000
01000000
00002000
,
00000000
00203000
00000000
00320000
00000000
01030300
00001030
01000000
,
00001000
00010000
00000100
00000010
00000001
00001000
00000010
00000200
,
00000000
00000320
00000000
00002030
00000000
00003001
00000001
00000000
,
00001000
00000100
00001000
00000100
00000001
00000100
00001000
00000020
,
00000000
00000230
00000000
00002300
00000000
00013000
00000100
00000000
,
00010000
00001000
00010000
00100000
10000000
01000000
00100000
00002000
,
00000000
00013000
00000000
00010010
00000000
00000220
00000000
00000330
,
00000001
00000010
00000100
00001000
00000010
00000100
00000010
00020000
,
00000000
00030200
00000000
00002300
00000000
00303010
03010000
00000010
,
00010000
00001000
00100000
01000000
10000000
00010000
01000000
00200000
,
00000000
02300000
00000000
03020000
00000000
10030000
10000000
00000000
,
00010000
00100000
00010000
00100000
10000000
00100000
00010000
02000000
,
00000000
03200000
00000000
00320000
00000000
00032000
00000000
00003020
,
00000000
00000000
00001000
00000000
00000100
00000000
00000031
00000200
,
00000000
00000310
00001000
00000001
00001000
00000000
00000100
00000000
,
00010100
00000000
00000000
01001000
00000000
00000000
00001000
00100000
,
00000000
00100000
00000000
00100000
00000000
00001000
01000000
00000000
,
01001000
00000000
00000000
00010010
00000000
00000000
00010000
00000100
,
00000010
00000100
00000010
00000100
00000010
00000100
00010000
00000000
,
00010010
00000000
00000000
00011000
00000000
00000000
01001000
00000000
,
00000000
01100000
00000000
01100000
00000000
10000000
00010000
00000000
,
10000000
01000000
00200000
00000000
00310000
01000000
00002000
00000000
,
00013000
00000010
00000100
00000100
00000000
00000001
00001000
00000000
,
00000001
00000010
00000200
00000000
00001300
00000010
00020000
00000000
,
00031000
01000000
00100000
00100000
00000000
10000000
00010000
00000000
,
02200000
00000000
00000000
03300000
,
00001000
00010000
00001000
00010000
00000010
00000100
00000010
00000100
,
00000102
00000000
00001003
00000100
00000010
00000100
00000001
00000200
,
00000000
00020300
00000000
00031000
00100000
00000000
00101000
00000000
,
00001000
00010000
00001000
00010000
00100000
01000000
00100000
10100000
,
00000000
01100000
00000000
01020000
00000000
10030000
10000000
00000000
,
21000000
00000000
30010000
01000000
00100000
01000000
10000000
02000000
,
00000000
03302000
00000000
00013000
00000010
00000000
00010010
00000000
,
00010000
00001000
00000100
00000001
00000010
00000100
00010000
00002000
,
00000000
00103000
00000000
00110000
00000000
20020000
00000000
30030000
,
10000000
00010000
10000000
00100000
10000000
01000000
00100000
00020000
,
00000000
01030000
00001000
00020000
00000000
00000000
00030100
00000000
,
00010000
00001000
00010000
00000010
00010000
00000100
00000010
00000002
,
00000000
00000103
00000010
00000200
00000000
00000310
00001000
00000000
,
00000001
00001000
00000001
00000100
00000001
00000010
00000100
00002000
,
00000000
00003010
00010000
00002000
00000000
00103000
00013000
02000000
,
00000000
00000000
00100000
00000000
03100000
00000000
10000000
00020000
,
00000000
00100000
10030000
11000000
,
00010000
01000000
00100000
01000000
00100000
01000000
00100000
01000000
,
00010000
00100000
00001000
00020000
00000000
00030010
00000000
00002010
,
00000000
00003001
00000020
00000000
00000031
00000200
00000000
00000310
,
00001000
00000001
00001000
00000200
00000000
00001300
00000010
00010000
,
00002000
00000000
00203000
00000000
01300000
00100000
00010000
02000000
,
00000000
03100000
10000000
00020000
00000000
00130000
00001000
00000000
,
00010000
00001000
00010000
00000010
00000100
00001000
00000100
00000002
,
00000000
00001003
00000000
00000110
00000000
00002002
00000000
00003003
,
00001000
00000010
00000100
00000010
00000100
00000010
00000100
00000010
,
00001000
00000100
00010000
00002000
00000000
02003000
00000000
03100000
,
10000000
01000000
00000000
01000000
10000000
00100000
00010000
00002000
,
00000000
00103000
00101000
00011000
,
00010000
00000010
00000100
00000010
00000100
00000010
00000100
00000010
,
00001000
00000100
00000001
00000200
00000000
00020300
00000000
00031000
,
02000000
00000000
03100000
00000000
10000000
00100000
01000000
00010000
,
10000000
00000000
11000000
00000000
00000000
00110000
00000000
00000000
,
20020000
00000000
00000000
00000000
,
00000000
00000000
00000000
00000000
,
00000000
00000000
00000000
00000000
,
00000000
00000000
30030000
00000000
,
01010000
00000000
10000000
02000000
00000000
03100000
00001000
00020000
,
00000000
00030010
00000100
00000020
00000000
00001030
00000001
00000000
,
00001000
00000100
00000010
00000002
00000000
00000103
00000000
00002001
,
00000000
00003100
00010000
00000100
00010000
00001000
01000000
00000000
,
02001000
00000000
03010000
10000000
00010000
10000000
00010000
00200000
,
00000000
01300000
10000000
00020000
00000000
00000000
01030000
00000000
,
01001000
00000000
00011000
00000000
00010000
00000100
00001000
00000000
,
00000100
00001000
00000010
00000000
00000100
00000001
00001000
00000000
,
00010010
00000000
00011000
00000000
00001000
00100000
00010000
00000000
,
00100000
00010000
01000000
00000000
00100000
10000000
00010000
00000000
,
10000000
00010000
10000000
00200000
00000000
00320000
00000000
00032000
,
00000300
00000020
00000000
00000000
00000000
00000000
00000000
00000000
,
00003030
00000000
00000000
00000000
;

//---------------dance-double - ----------------
#NOTEDATA:;
#CHARTNAME:;
#STEPSTYPE:dance-double;
#DESCRIPTION:;
#CHARTSTYLE:;
#DIFFICULTY:Challenge;
#METER:16;
#RADARVALUES:0.799909,0.918387,0.523219,0.468143,0.316685,610.000000,553.000000,57.000000,51.000000,0.000000,0.000000,0.000000,0.000000,0.000000,0.799909,0.918387,0.523219,0.468143,0.316685,610.000000,553.000000,57.000000,51.000000,0.000000,0.000000,0.000000,0.000000,0.000000;
#CREDIT:Ben Speirs;
#NOTES:
00000000
00000000
00000000
00000000
,
00000000
00000000
00000000
00000000
,
00000000
00000000
00000000
00000000
,
00000000
00000000
00000000
00000000
,
00000000
00000000
00000000
00000000
,
00000101
00000000
00000000
00000001
00001000
00000000
00000100
00000000
00010000
00000000
00000000
00010000
00001000
00000000
01000000
00000000
,
00100000
00000000
00000000
00100000
10000000
00000000
01000000
00000000
00100000
00000000
00010000
10000000
00010000
00000000
00000000
00000000
,
10100000
00000000
00000000
10000000
01000000
00000000
00100000
00000000
01000000
00000000
00100000
00000000
00001000
00000000
00020000
00000000
,
00000000
00000000
00000200
00000000
00000000
00000000
00000000
00000000
00000000
00000000
00000000
00000000
00030300
00000000
00010000
00001000
,
00020000
00000000
00000000
00000000
,
00032000
00000300
00000000
00000000
00003200
00000000
00000000
00000000
00000310
00000000
00001000
00000001
00001000
00000001
00001000
00000001
,
00001000
00000000
00000100
00000000
00000001
00000000
00000100
00000000
00000010
00000100
00000010
00000000
00000001
00000000
00000101
00000000
,
00000000
00000110
00000000
00002001
00000000
00003100
00000010
00000100
,
00010000
00000000
00001000
00000000
01000000
00000000
00100000
00000000
10000000
00010000
10000000
00000000
00100000
00000000
10100000
00000000
,
00000000
00000000
01100000
00000000
00000000
00000000
01020000
00000000
00000000
00000000
00130000
00001000
00010000
00000000
00000000
00000000
,
00001000
00000000
00010000
00000000
00100000
00000000
00010000
00000000
00001000
00100000
00001000
00000000
00100000
00000000
01100000
00000000
,
00000000
11000000
00000000
10020000
00000000
01030000
00100000
00000000
,
10000000
00000000
01000000
00000000
00010000
00000000
00001000
00000000
00000010
00000100
00000010
00000000
00000001
00000000
00000101
00000000
,
00000000
00000000
00001010
00000000
00000000
00000000
00000110
00000000
00000000
00000000
00001000
00000001
00000010
00000000
00000000
00000000
,
00000001
00000000
00000100
00000000
00000010
00000000
00001000
00000000
00000100
00000010
00000100
00000000
00010000
00000000
00001000
01000000
,
00000000
00000000
01000000
00100000
00000000
00000000
00100000
10000000
00000000
00000000
00010000
00000000
00100000
00000000
01000000
00000000
,
10000000
00000000
00100000
00000000
01000000
00000000
00010000
00000000
00100000
01000000
00100000
00000000
00001000
00000000
00010000
00000010
,
00000000
00000000
00000010
00000100
00000000
00000000
00000100
00000001
00000000
00000000
00001000
00000000
00001100
00000000
00000000
00000000
,
00000001
00000000
00000100
00000000
00001000
00000000
00000100
00000000
00000010
00000100
00000010
00000000
00001000
00000000
00000100
00010000
,
00000000
00000000
00010000
00001000
00000000
00000000
00001000
01000000
00000000
00000000
01000000
00100000
00000000
00000000
10000000
00000000
,
01000000
00000000
00100000
00000000
00010000
00000000
10000000
00100000
10000000
00000000
00010000
00000000
01000000
00000000
01020000
00000000
,
00000000
00000000
00130000
00000000
00100000
00000000
00001000
00000000
00000000
00000000
00010000
00001000
00010000
00000000
00000000
00000000
,
00010100
00000100
00000010
00001000
00000010
00000100
00001000
00000020
,
00000000
00000000
00000230
00000000
00000000
00000000
00002300
00000000
00000000
00000000
00013000
00000000
00001000
00010000
00001000
00010000
,
00001000
00100000
01000000
00010000
01000000
00100000
00010000
01000000
,
00000000
00000000
01010000
00000000
00000000
00000000
01301000
00000000
00000000
00000000
00031000
00000000
00010000
00001000
00010000
00001000
,
00010000
00000010
00000100
00001000
00010000
00100000
01000000
00010000
,
00000000
00000000
01010000
00000000
00000000
00000000
10000000
00000000
00010000
00000000
10000000
01000000
00100000
00000000
00000000
00000000
,
00010000
00000000
01000000
00000000
00100000
00000000
00100000
00000000
00010000
00000000
00001000
00000000
00000100
00000000
00000010
00000100
,
00000010
00001000
00000001
00000001
00000010
00000100
00001000
00000001
,
00001000
00000000
00000010
00000000
00000100
00000000
00000100
00000000
00001000
00000000
00010000
00000000
00100000
00000000
01000000
00100000
,
01000000
00000000
00010000
00000000
10000000
00000000
10000000
00000000
01000000
00000000
00100000
00000000
00010000
00000000
01000000
00001000
,
00020000
00000000
00000000
00000000
,
00030010
00000000
00000100
00000000
00000010
00000000
00000100
00000000
00000001
00001000
00000001
00001000
00000001
00001000
00000001
00001000
,
00000100
00000000
00000010
00000000
00000100
00000000
00000001
00000000
00000100
00000010
00000100
00000000
00001000
00000000
00001020
00000000
,
00000000
00010030
00001000
00201000
00000000
00310000
10000000
00010000
,
01000000
00000000
00100000
00000000
01000000
00000000
10000000
00000000
01000000
00100000
01000000
00000000
00010000
00000000
00110000
00000000
,
00000000
00000000
00010010
00000000
00000000
00000000
00021000
00000000
00000000
00000000
00030100
00000010
00000100
00000000
00000000
00000000
,
00001001
00000000
00000001
00000000
00000100
00000000
00000010
00000000
00001000
00000100
00001000
00000000
00000010
00000000
00020010
00000000
,
00000000
00031000
00100000
00201000
00000000
00313000
10000000
01000000
,
10000000
00000000
00100000
00000000
00010000
00000000
00001000
00000000
00000100
00000010
00000100
00000000
00000001
00000000
00000011
00000000
,
00000000
00000000
00001100
00000000
00000000
00000000
00000110
00000000
00000000
00000000
00000001
00001000
00000010
00000000
00000000
00000000
,
00001001
00000000
00001000
00000000
00000100
00000000
00010000
00000000
00001000
00100000
00001000
00000000
00010000
00000000
00001000
01000000
,
00000000
00000000
01000000
00100000
00000000
00000000
10000000
00010000
10000000
00000000
00010000
00000000
00100000
00000000
01000000
00000000
,
10000000
00000000
00100000
00000000
01000000
00000000
00010000
00000000
00100000
01000000
00100000
00000000
00001000
00000000
00010000
00000010
,
00000000
00000000
00000010
00000100
00000000
00000000
00000100
00000001
00000000
00000000
00001000
00000100
00001000
00000000
00000001
00000000
,
00000100
00000000
00000010
00000000
00001000
00000000
00000100
00000000
00001000
00000001
00001000
00000000
00000010
00000000
00002010
00000000
,
00000000
00003100
00000000
00020100
00000000
00031000
00000000
02001000
,
00000000
03100000
10000000
01000000
00100000
00100000
00010000
02010000
,
00000000
00000000
03100000
00000000
10000000
00000000
00000000
00000000
00010000
00000000
00100000
00300000
00101000
00000000
00000000
00000000
,
00011000
00000010
00000010
00000010
00000010
00000010
00000010
00000010
,
00001000
00000100
00000010
00000002
00000000
00000103
00000000
00002001
,
00000000
00003100
00000001
00000100
00010000
00010000
00001000
01000000
,
00100000
10000000
01000000
01000000
00010000
01000000
10000000
00000000
,
10200000
00000000
00320000
00000000
00031000
00010000
00100000
00020000
,
00000000
00031000
00000010
00000200
00000000
00001300
00000001
00000000
,
00001000
00000010
00000100
00000010
00000001
00000010
00000100
00000101
,
00000000
00000000
00001010
00000000
00000000
00000000
00010100
00000000
00000000
00000000
00010000
00001000
00010000
00000000
00000000
00000000
,
00011000
00100000
00100000
00100000
00100000
00100000
00100000
00100000
,
00010000
01000000
00100000
20000000
00000000
31000000
00000000
10000000
,
00100000
00000000
01000000
00000000
01000000
00000000
00010000
00100000
00010000
00000000
01000000
00000000
00001000
00000000
00021000
00000000
,
00000000
00000000
00030100
00000000
00000010
00000000
00000001
00000100
00000010
00000000
00001000
00000001
00001000
00000000
00000000
00000000
,
00001010
00000010
00000010
00000010
00000011
00000010
00000110
00000010
,
00001000
00000100
00000001
00000200
00000000
00020300
00000000
00031000
,
02000000
00000000
03100000
10000000
00010000
00010000
00100000
01000000
,
10000000
00000000
11000000
00000000
00000000
00110000
00000000
00000000
,
20020000
00000000
00000000
00000000
,
00000000
00000000
00000000
00000000
,
00000000
00000000
00000000
00000000
,
00000000
00000000
30030000
00000000
,
02010000
00000000
03100000
00020000
00000000
00031000
00100000
00002000
,
00000000
00013000
00000010
00000200
00000000
00000301
00001000
00000000
,
00000001
00000010
00000100
00001200
00000000
00010300
00001000
02000000
,
00000000
00000000
03100000
00000000
10000000
00000000
00010000
00000000
10000000
00000000
00010000
00100000
01000000
00000000
10000000
00000000
,
21000000
00000000
30010000
01000000
00100000
00010000
00001000
00000200
,
00000000
00000000
00000310
00000000
00001000
00000000
00000002
00000000
00000000
00000000
00001003
00000100
00000010
00000001
00001000
00000000
,
00001002
00000000
00001003
00000010
00000100
00000010
00010000
00002000
,
00000000
00103000
01000000
10000000
00100000
00000000
10100000
00000000
,
10020000
00000000
00130000
00001000
00010000
00000010
00000100
00000010
,
00001000
00000000
00000100
00000000
00000010
00000000
00000001
00000000
00000200
00000000
00000000
00000000
00000310
00001000
00000010
00001000
,
00000001
00001000
00000001
00000020
00000000
00001330
00010000
02003000
,
00000000
00200000
00000000
00000000
00000000
00000000
00000000
00000000
,
03330000
00000000
00000000
00000000
;

//---------------dance-double - ----------------
#NOTEDATA:;
#CHARTNAME:;
#STEPSTYPE:dance-double;
#DESCRIPTION:;
#CHARTSTYLE:;
#DIFFICULTY:Medium;
#METER:10;
#RADARVALUES:0.506172,0.638878,0.440605,0.862852,0.000000,386.000000,338.000000,48.000000,94.000000,0.000000,0.000000,0.000000,0.000000,0.000000,0.506172,0.638878,0.440605,0.862852,0.000000,386.000000,338.000000,48.000000,94.000000,0.000000,0.000000,0.000000,0.000000,0.000000;
#CREDIT:Ben Speirs;
#NOTES:
00000000
00000000
00000000
00000000
,
00000000
00000000
00000000
00000000
,
00000000
00000000
00000000
00000000
,
00000000
00000000
00000000
00000000
,
00000000
00000000
00000000
00000000
,
10020000
00000000
00000000
02030000
00000000
03100000
10000000
00200000
,
00000000
01300000
00001000
00020000
00000000
00000000
00030100
00000000
,
00001200
00000000
00000000
00000310
00000000
00000001
00001000
00000020
,
00000000
00000200
00000000
00000000
00000000
00000000
00000330
00000000
,
00002002
00000000
00000000
00003003
,
00000002
00000023
00002030
00013000
,
00001000
01000000
00001000
00000000
01000000
00000000
00010000
00100000
,
00000000
00100000
00000000
02000000
00000000
00000000
13000000
00000000
,
00010000
01000000
00010000
00000000
10000000
00000000
01000000
00100000
,
00000000
00100000
00000000
00002000
00000000
00000000
00013000
00000000
,
00000100
00010000
00000100
00000000
00010000
00000000
00000010
00000100
,
00000000
00000100
00000000
00000002
00000000
00000000
00001003
00000000
,
00000001
00000010
00000100
00000000
00001000
00000001
00001000
00000200
,
00000000
00020300
00000000
00031000
00000000
00022000
00000000
00033000
,
00001000
00010000
00001000
00000000
01000000
00010000
01000000
00000000
,
00010000
00100000
02000000
13000000
,
00010000
01000000
00010000
00000000
10000000
01000000
10000000
00000000
,
00010000
00100000
00002000
00013000
,
00000010
00010000
00000010
00000000
00001000
00000100
00001000
00000000
,
00000002
00000203
00000320
00002030
,
00003200
00000000
00010000
00000000
00001000
00000000
00000010
00000320
,
00000300
00000000
00000032
00000000
00001003
00000010
00000100
00000000
,
00000102
00000000
00000000
00002003
00000000
00000000
00003200
00000000
,
00000000
00020300
00000000
00000000
00031000
00000000
00131000
00000000
,
00200000
00000000
00000000
00320000
00000000
00000000
02030000
00000000
,
00000000
00000000
03100000
00000000
00100000
10000000
00010000
00000000
,
20100000
00000000
00000000
30020000
00000000
00000000
00230000
00000000
,
00000000
00302000
00000000
00000000
00013000
00000000
00013100
00000000
,
00000100
00000000
00001000
00000000
00000010
00001000
00000010
00000000
,
00001000
00000000
00000001
00000020
00000000
00000000
00000130
00000000
,
00001000
00000000
00000010
00000000
00010000
00001000
00010000
00000000
,
00001000
00000000
00100000
00020000
00000000
00000000
01030000
00000000
,
20020000
00000000
00000000
30030000
,
00020000
00230000
00302000
00013000
,
00011000
00011000
00010100
00010100
,
00000100
00001000
00000010
00000000
00000200
00000000
00000301
00000000
,
00000101
00000101
00001001
00001001
,
00001000
00000100
00020000
00000000
00002000
00000000
00033000
00000000
,
00011000
00011000
00101000
00101000
,
00100000
00010000
01000000
00000000
03200000
00000000
10300000
00000000
,
00010000
10000000
00010000
00000000
10000000
01000000
10000000
02000000
,
00000000
03200000
00000000
00301000
00000000
00022000
00000000
00033000
,
00010000
00000010
00001000
00000000
00001010
00000000
00001001
00000000
,
00001000
00000100
00000010
00000000
00000022
00000000
00000033
00000000
,
00000001
00001000
00000010
00000000
00001010
00000000
00001100
00000000
,
00000100
00010000
00001000
00000000
00022000
00000000
00033000
00000000
,
00001000
01000000
00010000
00000000
01010000
00000000
10010000
00000000
,
00010000
00100000
01000000
00000000
11000000
00000000
01100000
00000000
,
00220000
00000000
00330000
00000000
10000000
00010000
10000000
00020000
,
00000000
01030000
00001000
00011000
,
00010000
00000000
00000100
00000010
00000100
00000000
00000010
00000100
,
00000010
00000000
00000001
00000200
00000000
00000320
00000000
00002030
,
00000000
00000000
00003100
00000000
00010000
00001000
00000000
00010000
,
00000000
00001000
00010000
00001000
00000000
00100000
00010000
00000000
,
20000000
00000000
30200000
00000000
01300000
01000000
00000000
00010000
,
00000000
00100000
00001000
00020000
00000000
00000000
00031000
00000000
,
00100000
00001000
00100000
00001000
00100000
00001000
00100000
00010000
,
00000000
00110000
00000000
00001100
00000000
00022000
00000000
00033000
,
00001000
01000000
00100000
01000000
00200000
00000000
01300000
00000000
,
00010000
00000000
00100000
00001000
00000000
00010000
00000000
00000100
,
00000000
00002000
00000000
00000000
00003002
00000000
00000000
00000203
,
00000000
00000000
00000320
00000000
00000000
00001030
00000001
00000000
,
00001000
00000100
00001000
00000000
00000001
00000100
00000001
00000000
,
00001000
00000000
00000100
00020000
00000000
00032000
00000000
01003000
,
00200000
00000000
10300000
00000000
00010000
00100000
01000000
00000000
,
10000000
00000000
11000000
00000000
00000000
00110000
00000000
00000000
,
20020000
00000000
00000000
00000000
,
00000000
00000000
00000000
00000000
,
00000000
00000000
00000000
00000000
,
00000000
00000000
30030000
00000000
,
20100000
00000000
00000000
30100000
00000000
10000000
01000000
10000000
,
00000000
00010000
01000000
00020000
00000000
00000000
00130000
00000000
,
00102000
00000000
00000000
00013000
00000000
00001000
00010000
00001000
,
00000000
00010000
00000100
00002000
00000000
00000000
00003001
00000000
,
00001001
00000000
00001000
00000010
00000100
00000010
00000100
00000002
,
00000000
00001003
00001100
00000011
,
00001002
00000000
00000000
00000103
00000000
00000001
00000100
00000001
,
00000000
00001000
00000100
00020000
00000000
00000000
00031000
00000000
,
00012000
00000000
00000000
00203000
00000000
00310000
01000000
00010000
,
00000000
10000000
01000000
20000000
00000000
00000000
30010000
00000000
,
02010000
00000000
00000000
03002000
00000000
00023000
00000000
00030200
,
00000000
00000020
00000000
00000000
00000000
00000000
00000000
00000000
,
00000330
00000000
00000000
00000000
;

//---------------dance-double - ----------------
#NOTEDATA:;
#CHARTNAME:;
#STEPSTYPE:dance-double;
#DESCRIPTION:;
#CHARTSTYLE:;
#DIFFICULTY:Easy;
#METER:7;
#RADARVALUES:0.313407,0.399299,0.073434,0.302916,0.000000,239.000000,231.000000,8.000000,33.000000,0.000000,0.000000,0.000000,0.000000,0.000000,0.313407,0.399299,0.073434,0.302916,0.000000,239.000000,231.000000,8.000000,33.000000,0.000000,0.000000,0.000000,0.000000,0.000000;
#CREDIT:Ben Speirs;
#NOTES:
00000000
00000000
00000000
00000000
,
00000000
00000000
00000000
00000000
,
00000000
00000000
00000000
00000000
,
00000000
00000000
00000000
00000000
,
00000000
00000000
00000000
00000000
,
00020000
00030000
00001000
00010000
,
00000100
00000100
00020000
00030000
,
00002000
00003000
00010000
00001000
,
01000000
02000000
00000000
00000000
,
03200000
00000000
00000000
00000000
,
20300000
00000000
00020000
30030000
,
10010000
10000000
01000000
00100000
,
00001000
00001000
00001000
00000000
,
00010000
00001000
00010000
00000010
,
00000100
00000100
00000100
00000000
,
00000001
00000100
00000010
00001000
,
00000001
00000001
00000001
00000000
,
00001000
00000100
00010000
00001000
,
00000000
00100000
00000000
00100000
00000000
00100000
00000000
00000000
,
00001000
00010000
00000010
00000100
,
00000010
00000010
00000010
00000000
,
00000100
00000001
00000010
00000100
,
00010000
00010000
00010000
00000000
,
00001000
01000000
00010000
00100000
,
01000000
10000000
00100000
01000000
,
00020000
00000000
00000000
00030000
,
20000000
00000000
00000000
30000000
,
00010000
00000000
00000000
00010000
00000000
00000000
00100000
00000000
,
00000000
00100000
00000000
00000000
00000000
00000000
00000000
00000000
,
00001000
00000000
00000000
00001000
00000000
00000000
00010000
00000000
,
00000000
00000000
00000000
00000000
,
00010000
00000000
00000000
00010000
00000000
00000000
00000010
00000000
,
00000000
00000010
00000000
00000000
00000000
00000000
00000000
00000000
,
00001000
00000010
00000100
00000001
,
00000010
00000200
00000300
00000000
,
00001000
00000100
00010000
00001000
,
00100000
00020000
00030000
00000000
,
20020000
00000000
00000000
30030000
,
02200000
00000000
00000000
03300000
,
10000000
01000000
00100000
00010000
,
00100000
00001000
00020000
00030000
,
00000010
00001000
00000001
00000010
,
00000100
00001000
00000002
00000003
,
00001000
00000010
00010000
00001000
,
00100000
00010000
02000000
03000000
,
00010000
00000000
00100000
00000000
00001000
00000000
00000000
00010000
,
00000000
00010000
00000000
00010000
00000000
00010000
00000000
00000000
,
00001000
00100000
00010000
01000000
,
00100000
10000000
02000000
03000000
,
10000000
01000000
00100000
00010000
,
01000000
00001000
00020000
00030000
,
00000100
00010000
00000100
00000010
,
00000001
00001000
00000010
00000100
,
00000020
00000000
00000000
00000030
,
00000200
00000000
00000000
00000300
,
00001001
00001000
00000100
00010000
,
00001000
00100000
00010000
10000000
,
00100000
00100000
01000000
01000000
,
00100000
00100000
01000000
01000000
,
00020000
00030000
00100000
00010000
,
00100000
00010000
02000000
03000000
,
00001000
00001000
00001000
00001000
,
00000000
00010000
00000000
00010000
00000000
00010000
00000000
00000000
,
00001000
00010000
00000100
00000010
,
00000001
00001000
00000010
00000100
,
00000000
00000001
00000000
00000000
00001000
00000000
00000000
00000100
,
00000000
00000000
00010000
00000000
00000000
00001000
00000000
00000000
,
01000000
01000000
00010000
00010000
,
10000000
01000000
00100000
00010000
,
20020000
00000000
00000000
30030000
,
03000000
00000000
11000000
00000000
00003000
00110000
00000000
00000000
,
20020000
00000000
00000000
00000000
,
00000000
00000000
00000000
00000000
,
00000000
00000000
00000000
00000000
,
00000000
00000000
30030000
00000000
,
00020000
00030000
02000000
03000000
,
00010000
00100000
00001000
00000000
,
00020000
00030000
00000200
00000300
,
00001000
00000010
00000100
00000000
,
00000010
00000010
00000010
00000010
,
00000100
00000100
00000100
00000000
,
00000001
00000010
00000100
00000000
,
00001000
00000010
00010000
00000000
,
00001000
00100000
00010000
00000000
,
10000000
00100000
01000000
00000000
,
00001000
00000000
00000000
00010000
00000000
00010000
00000000
00010000
,
00000000
00020000
00000000
00000000
00000000
00000000
00000000
00000000
,
00030000
00000000
00000000
00000000
;
