#TITLE:polygon;
#SUBTITLE:;
#ARTIST:Sota Fujimori;
#TITLETRANSLIT:;
#SUBTITLETRANSLIT:;
#ARTISTTRANSLIT:;
#GENRE:;
#CREDIT:;
#MUSIC:polygon.ogg;
#BANNER:bn.png;
#BACKGROUND:bg.png;
#CDTITLE:cd-title.png;
#SAMPLESTART:25.280;
#SAMPLELENGTH:16.552;
#SELECTABLE:YES;
#OFFSET:-0.452;
#BPMS:0.000=174.000;
#STOPS:;
#BGCHANGES:;
#FGCHANGES:;

//--------------- dance-single - Frondal ----------------
#NOTES:
     dance-single:
     Frondal:
     Beginner:
     5:
     0,0,0,0,0:
0000
0000
0000
0000
,
0000
0000
0000
0000
,
0001
0000
0001
0000
,
0001
0000
0001
0000
,
1000
0000
1000
0000
,
1000
0000
1000
0000
,
0010
0000
0010
0000
,
0010
0000
0010
0000
,
0100
0000
0100
0000
,
0200
0000
0300
0000
,
0001
0000
0001
0000
,
0010
0100
0000
0000
,
1000
0000
1000
0000
,
0010
0100
0000
0000
,
0001
0000
0100
0000
,
0001
0010
0000
0000
,
0011
0000
1100
0000
,
1000
0001
1000
0000
,
0020
0000
0000
0000
,
0000
0000
0000
0000
,
0130
0000
0100
0000
,
0001
0000
0001
0000
,
0020
0000
0000
0000
,
0000
0000
0000
0000
,
0130
0000
0100
0000
,
1001
0000
0000
0000
,
1000
0000
1000
0000
,
0010
0100
0010
0000
,
1000
0000
1000
0000
,
0100
0000
0010
0010
,
0001
0000
0001
0000
,
0100
0010
0100
0000
,
0001
0000
0001
0000
,
0010
0100
0010
0000
,
0002
0000
0103
0000
,
2000
0000
3100
0000
,
0002
0000
0013
0000
,
2000
0000
3010
0001
,
2000
0000
3010
0000
,
0002
0000
0013
0000
,
2000
0000
3100
0000
,
0110
0000
0000
0000
,
0001
0100
0001
0000
,
0001
0010
0001
0000
,
0000
1000
0000
1000
,
0000
0001
0000
0001
,
1000
0010
1000
0000
,
1000
0100
1000
0000
,
1010
0000
0101
0000
,
0001
0010
0100
1000
,
0000
0000
0000
0000
,
0000
0000
0000
0000
,
0000
0000
0000
0000
,
0000
0000
0000
0000
,
0000
0000
0000
0000
,
0000
0000
0000
0000
,
0000
0000
0000
0000
,
0000
0000
0000
0000
,
0001
0001
0001
0000
,
1000
0000
0100
0000
,
1000
1000
1000
0000
,
0001
0000
0100
0000
,
0001
0001
0001
0000
,
0010
0000
0100
0000
,
1000
1000
1000
0000
,
0010
0000
0100
0000
,
0001
0001
1000
0000
,
0010
0100
0010
0000
,
1000
1000
0001
0000
,
0010
0100
0010
0000
,
1000
1000
0100
0000
,
0010
0001
0100
0000
,
0001
0001
0100
0000
,
0001
0010
0100
1000
,
0000
0010
0000
0010
,
0000
0100
0000
0100
,
0000
0001
0000
0001
,
0000
1000
0000
1000
,
0000
0100
0000
0010
,
0000
0001
0000
1000
,
0000
0010
0000
0200
,
0000
0010
0300
1001
;

//--------------- dance-single - Frondal ----------------
#NOTES:
     dance-single:
     Frondal:
     Easy:
     10:
     0,0,0,0,0:
0000
0000
0000
0000
,
0000
0000
0000
0000
,
0001
0000
0100
0000
0010
1000
0010
0000
,
0100
0001
0010
0011
,
1000
0000
0010
0000
0100
0001
0100
0000
,
0010
1000
0100
1100
,
0001
0000
0010
0000
0100
1000
0100
0000
,
0010
0001
0100
0101
,
1000
0000
0100
0000
0010
0001
0010
0000
,
0100
0000
0000
0100
0000
0000
0100
0000
0000
0000
1000
0000
0001
0000
0001
0000
,
2000
0000
3200
0000
0310
0100
1000
0100
,
0010
0011
0001
1000
,
0002
0000
0203
0000
0310
0100
0010
1000
,
0010
1010
1000
0001
,
2000
0000
3200
0000
0301
0100
1000
0000
,
0001
0100
1000
0000
0100
0000
1001
0000
,
0002
0000
2003
0000
3001
0100
0001
0010
,
0000
0010
0000
0100
1000
0001
1001
0000
,
2000
3020
1030
0100
,
0020
0032
0203
0000
,
0301
0010
0001
0001
,
1000
0000
0010
0000
1000
0000
1000
0001
,
2000
3200
1300
0010
,
0200
0302
0023
0000
,
1030
0000
0010
0000
0001
1000
0010
1000
,
0001
0000
0000
0001
0000
0000
0001
0000
0000
0000
0000
0000
1001
0000
0000
0000
,
1000
0010
0001
0000
0010
0000
1000
0001
,
1000
0000
0000
0000
0100
0000
0000
1100
0000
0000
1000
0000
0000
0000
0000
0000
,
0001
0100
1000
0000
0100
0000
0001
1000
,
0001
0010
0001
0000
0100
0100
0100
0000
,
0001
0010
1000
0000
0010
0000
0001
1000
,
0001
0000
0000
0000
0100
0000
0000
0101
0000
0000
0001
0000
0000
0000
0000
0000
,
1000
0100
0001
0000
0100
0000
1000
0010
,
0200
0000
0302
0000
0013
0010
0010
0000
,
0002
0203
0310
0100
,
2000
0000
3200
0000
0301
1000
0001
0000
,
2000
3200
0310
1000
,
0020
0000
0032
0000
0103
0010
0100
0100
,
0002
0023
0130
0010
,
2000
3020
0130
1000
,
0020
0000
0032
0000
0013
0000
0100
0100
,
0001
0000
0000
0001
0000
0000
0001
0000
0000
0000
0010
0000
0100
0000
0000
0000
,
1000
0010
1000
0000
1000
0100
1000
0000
,
0001
0100
0001
0000
0010
0000
0100
0000
,
1000
0010
0100
0010
,
1000
1001
0010
1001
,
0001
0100
0001
0000
0001
0010
0001
0000
,
1000
0010
1000
0000
0100
0000
0010
0000
,
0001
0000
0000
0001
0000
0000
0000
0000
1000
0000
0000
1000
0000
0000
0000
0000
,
0010
0100
0010
1000
0100
0010
1001
0000
,
0000
0000
0000
0000
,
0000
0000
0000
0000
,
0000
0000
0000
0000
,
0000
0000
0000
0000
,
0000
0000
0000
0000
,
0000
0000
0000
0000
,
0000
0000
0000
0000
,
2000
0000
0000
3010
,
1000
0100
0010
0000
0010
0100
1000
0000
,
0001
0100
0001
0010
,
0001
0100
0010
0000
0010
0100
0001
0000
,
1000
0100
0001
0100
,
1000
0001
0100
0000
0100
0001
0010
0000
,
0001
0100
0010
1000
,
0001
1000
0100
0000
0100
1000
0010
0000
,
1000
0000
0001
0000
0010
0100
0010
0100
,
1000
0010
0001
0000
0001
0010
1000
0000
,
0001
0100
0010
1000
,
0001
0010
1000
0000
1000
0010
0001
0000
,
1000
0100
0110
0000
,
0001
0100
1000
0000
0001
0010
1000
0000
,
0001
0000
0100
0000
0001
0010
0001
0001
,
1000
0100
0001
0000
1000
0010
0001
0000
,
1000
0000
0000
1000
0000
0000
1000
0000
0010
0000
0100
0000
0010
0000
0010
0000
,
1000
0000
0100
0000
0002
0000
0103
1000
,
0002
0103
1000
0200
,
0301
1000
0010
0010
,
1000
0100
0010
0110
,
0001
0100
1000
0100
,
0001
0010
0100
0010
,
2000
3010
0200
1300
,
0100
0000
0000
0100
0000
0000
0100
0000
0000
0000
0010
0000
0001
0000
0000
0000
;

//--------------- dance-single - Frondal ----------------
#NOTES:
     dance-single:
     Frondal:
     Medium:
     13:
     0,0,0,0,0:
0000
0000
0000
0000
,
0000
0000
0000
0000
,
1000
0000
0001
0100
0000
0000
0010
0000
0010
1000
0000
0000
0001
0000
1000
0000
,
0001
0000
0010
0100
0000
0000
0100
0000
1000
0000
0000
0000
1001
0000
0000
0000
,
0001
0000
1000
0100
0000
0000
0010
0000
0010
0001
0000
0000
1000
0000
0010
0000
,
0001
0000
0010
0100
0000
0000
0100
0000
0001
0000
1000
0000
0001
0000
0000
0000
,
1000
0000
0001
0010
0000
0000
0100
0000
0100
1000
0000
0000
0001
0000
1000
0000
,
0001
0000
0100
0010
0000
0000
0010
0000
1000
0000
0000
0000
1001
0000
0000
0000
,
0001
0000
1000
0010
0000
0000
0100
0000
0100
0001
0000
0000
1000
0000
0100
0000
,
0001
0000
0000
0001
0000
0000
0001
0000
0000
0000
0100
0000
1000
0000
1000
0000
,
0001
0000
0101
0000
0100
1000
0100
0001
,
1000
0000
0010
0000
1000
0000
0001
0000
0010
0000
0000
0000
0010
0100
0000
0000
,
1000
0000
1010
0000
0010
0001
0010
1000
,
0001
0000
0100
0000
0001
0000
1000
0000
0100
0000
0000
0000
0100
0010
0000
0000
,
0001
0000
0011
0000
0010
1000
0010
0001
,
0010
0000
1000
0000
0010
0000
0001
0000
0100
0000
0000
0000
0100
0010
0000
0000
,
2010
0000
3001
0000
0102
0000
1003
1100
,
0000
0110
0000
0011
0001
1000
1010
0000
,
0001
0100
0000
0001
0010
0000
0100
0000
1000
0000
0100
0000
0010
0000
0000
0000
,
1000
0000
0010
0000
0100
1000
0000
1000
0100
0000
0010
0000
0001
0000
0000
0000
,
1000
0010
0100
0010
1000
0001
0010
0001
,
1000
0100
0001
0100
1000
0001
1000
1000
,
0001
0010
0000
0001
0100
0000
0010
0000
1000
0000
0010
0000
0100
0000
0000
0000
,
1000
0000
0100
0000
0010
1000
0000
1000
0010
0000
0100
0000
0001
0000
0000
0000
,
1000
0100
0010
0100
1000
0001
0100
0100
,
0000
0001
0000
1000
0000
0001
0020
0000
0000
0000
0000
0000
0100
0000
0130
0000
,
1000
0100
0001
0000
1000
0010
0001
0000
,
1000
0010
0000
1000
0001
0000
0010
0100
0000
0000
0100
0000
1000
0001
0000
0000
,
0001
0100
1000
0000
0001
0010
1000
0000
,
0001
0010
0000
0001
1000
0000
1000
0000
0000
0000
0011
0000
1001
0000
0000
0000
,
0001
0010
1000
0000
0001
0100
1000
0000
,
0001
0100
0000
0001
1000
0000
0100
0010
0000
0000
0010
0000
0001
1000
0000
0000
,
1000
0010
0001
0000
1000
0100
0001
0000
,
1000
0100
0000
1000
0001
0000
0000
1000
0100
0000
1100
0000
1001
0000
0000
0000
,
1000
0010
1000
0100
0001
0100
0000
0100
,
0001
0100
1000
0001
0100
0001
0001
1000
,
0001
0010
1000
0010
0001
1000
0100
1000
,
0010
0100
0001
0000
0010
0100
1000
1000
,
0001
0010
0001
0100
1000
0100
0001
0100
,
1000
0100
0001
1000
0100
1000
0010
0100
,
0001
0001
0010
0100
1000
1000
0010
0100
,
1000
0000
0000
1000
0000
0000
1000
0000
0100
0000
0002
0000
1003
0000
0000
0000
,
0001
0000
1000
0000
0100
0000
0010
0000
0001
0100
0000
0010
0100
0000
0000
0000
,
0001
0010
0000
0001
1000
0000
0100
0000
0010
0100
0000
0000
0100
1000
0000
1000
,
0001
0100
0001
0010
0001
0100
0010
0000
,
1000
0000
0100
0000
0001
0000
0100
0000
1000
0100
0000
0000
0100
0010
0001
0000
,
1000
0000
0001
0000
0100
0000
0010
0000
1000
0100
0000
0010
0100
0000
0000
0000
,
1000
0010
0000
1000
0001
0000
0100
0000
0010
0100
0000
0000
0100
0001
0000
0001
,
0010
0000
0000
0011
0000
0000
0001
0000
0100
0000
0000
0101
0000
0000
0001
0000
,
0010
0000
0100
1000
0000
0010
0000
0100
0010
0000
1000
0000
1010
0000
0000
0000
,
0002
0000
0000
0000
0000
0000
0003
0020
,
0030
0020
0030
0000
0200
0000
0300
0000
,
2000
0000
0000
3020
,
2030
0000
3200
0000
,
2300
0000
0000
0000
0000
0000
3000
0020
,
0030
0020
0030
0000
0200
0000
0300
0000
,
0002
0000
0000
0023
,
0032
0000
0203
1000
,
0301
0010
0000
0000
0010
0100
0000
0000
0100
1000
0000
1000
0010
0000
0000
0000
,
0100
0001
0100
1000
0100
0001
1001
0000
,
1000
0010
0000
0000
0010
0100
0000
0000
0100
0001
0100
0000
1000
0000
0100
0000
,
0001
0000
1000
0010
0000
0000
0100
0000
0001
0010
0001
0000
1001
0000
0000
0000
,
1000
0010
0000
0000
0010
0100
0000
0000
0100
0001
0000
0001
0010
0000
0000
0000
,
0100
1000
0100
0001
0100
1000
1001
0000
,
0001
0010
0000
0000
0010
0100
0000
0000
0100
1000
0100
0000
0001
0000
0100
0000
,
1000
0000
0001
0010
0000
0000
0100
0000
1000
0000
0020
0000
0100
0000
0130
0000
,
0001
0010
0000
0000
0010
1000
0000
0000
0001
0000
0100
0000
1000
0000
0000
0000
,
0001
0000
0010
0100
0000
0010
0001
0000
0100
0010
0100
0000
1000
0000
0100
0000
,
0001
0010
0000
0000
0010
1000
0000
0000
0001
0000
0100
0000
1000
0000
0000
0000
,
1000
0000
0100
0000
0001
0000
0100
0000
1000
0001
1000
0000
1001
0000
0000
0000
,
0001
0100
0000
0000
0100
1000
0000
0000
0001
0000
0010
0000
1000
0000
0000
0000
,
0001
0000
0100
0010
0000
0100
0001
0000
0010
0100
0010
0000
1000
0000
0010
0000
,
0001
0100
0000
0000
0100
1000
0000
0000
0001
0000
0010
0000
1000
0000
0000
0000
,
0100
0000
0000
0100
0000
0000
0100
0000
0010
0001
1000
0000
0010
1000
0001
0000
,
0010
0000
0100
0000
1000
0000
0000
1000
0010
0000
0100
0000
0101
0000
0000
0000
,
0001
0000
1000
0000
1100
0000
0000
0000
0100
0000
0001
0000
0100
1000
0000
0000
,
0010
0000
0100
0001
0000
0000
0001
0000
0010
0000
0010
0000
0001
0100
0000
0001
,
1000
0000
0100
0000
0001
0000
0100
0000
1000
0000
0001
0000
1000
0000
0000
1001
,
0000
0001
0000
0100
0001
0000
0010
0000
0000
0010
0001
0000
1000
0010
0000
0000
,
0010
0100
0010
0000
0001
0000
0010
0000
1000
0001
1000
0000
0010
1000
0000
0001
,
0010
0000
0011
0001
1000
0000
1010
0010
,
1000
0000
0000
0110
0000
0001
0010
0000
1000
0000
0020
0000
0031
0000
0000
0000
;

//--------------- dance-single - Frondal ----------------
#NOTES:
     dance-single:
     Frondal:
     Hard:
     17:
     0,0,0,0,0:
0000
0000
0000
0000
,
0000
0000
0000
0000
,
0001
0000
0010
0100
0000
0010
0001
0000
0001
0100
0000
0010
0100
0000
0001
0000
,
1000
0000
0100
0010
0000
0100
1000
0000
1000
0001
0000
0001
1000
0001
1000
0000
,
0001
0000
0010
0100
0000
1000
0010
0000
0010
1000
0000
0100
0010
0000
0001
0000
,
1000
0000
0001
0100
0000
0001
0010
0000
0010
0100
0010
0000
0100
1000
0010
0000
,
1000
0000
0001
0100
0000
0010
1000
0000
1000
0100
0000
1000
0010
0000
0100
0000
,
0001
0000
1000
0100
0000
0010
0001
0000
0001
0100
0000
1000
0200
0000
0000
0000
,
0301
0000
0010
0100
0000
1000
0010
0000
0010
0100
0000
0001
0010
0000
0010
0100
,
1000
0000
0000
0001
0000
0000
1001
0000
0000
0000
1000
0010
0001
0010
1000
0000
,
0001
0000
0000
1000
0100
0000
0010
0000
0001
0100
0010
0000
0010
0100
0001
0000
,
0010
1000
0010
0001
1000
0100
1100
0000
,
1000
0000
0000
0001
0100
0000
0010
0000
1000
0100
0010
0000
0010
0100
1000
0000
,
0010
0001
0010
1000
0001
0100
0101
0000
,
0001
0000
0000
0010
0100
0000
0010
0000
0001
0100
1000
0000
1000
0100
0001
0000
,
1000
0010
0001
0000
0010
0000
0010
0000
1000
0000
0001
0000
0010
0000
0000
0000
,
0012
0000
0103
0000
2010
0000
3100
0001
,
0100
0000
1000
0000
0010
0100
0020
0000
0001
0000
0130
0000
0110
0000
0000
0000
,
0001
0100
0001
0000
1000
0000
0001
0000
1000
0100
1000
0000
0001
0000
0100
0000
,
1000
0000
0100
0000
0001
0000
1000
0000
0001
0100
0000
0001
1000
0000
0000
0000
,
0001
0010
0000
0010
0000
0000
0001
0000
1000
0010
1000
0000
1000
0100
0010
0001
,
1000
0000
0020
0100
0030
0020
1000
0030
0200
0010
0300
0200
1000
0300
1000
0000
,
0001
0010
0001
0000
1000
0000
0001
0000
1000
0010
1000
0000
0001
0000
0010
0000
,
1000
0000
0010
0000
0001
0000
1000
0000
0001
0010
0000
0001
1000
0000
0000
0000
,
0001
0100
0000
0100
0000
0000
0001
0000
0010
0000
0010
0000
0001
0000
1000
0100
,
1000
0000
0010
0100
0000
0200
1000
0000
0000
0000
0302
0000
0013
0100
1000
0000
,
1001
0000
0001
0010
0001
0000
0100
0000
0010
0000
1000
0001
1000
0000
0100
0000
,
0100
0010
0000
0100
1000
0000
0010
0100
0000
0010
1000
0000
0100
0010
0001
0000
,
1000
0000
1000
0010
1000
0000
0100
0000
0010
0000
0010
0000
1000
0000
0010
0000
,
0001
1000
0000
0001
0100
0000
0010
0000
1000
0000
2100
0000
3001
0000
0010
0000
,
0001
0000
0001
0100
0001
0000
0010
0000
1000
0000
0010
0000
0001
0000
1000
0000
,
0010
0100
0000
0010
0100
0000
0001
0000
0010
0000
0010
0001
0010
0001
1000
0000
,
0100
0000
1000
0010
1000
0000
0100
0000
0001
0000
0100
0000
1000
0000
0010
0000
,
1000
0100
0010
0001
0000
0001
0100
0001
0010
0000
0012
0000
1003
0000
0000
0000
,
0002
0000
0100
0000
0000
0000
1003
0000
0001
0010
0001
0000
0100
0000
0010
0000
,
2000
0000
0100
0000
0000
0000
3001
0000
0010
0100
0010
0000
0001
0100
0000
0001
,
2000
0000
0010
0000
0000
0000
3001
0000
1000
0100
1000
0000
0010
0000
0100
0000
,
0002
0000
0010
0000
0000
0000
1003
0000
0100
0010
0100
0000
1000
0000
1000
0001
,
0020
0000
1000
0000
0000
0000
0031
0000
1000
0010
1000
0000
0100
0010
0000
0001
,
0200
0000
1000
0000
0000
0000
0301
0000
1000
0100
1000
0000
0010
0100
0000
0001
,
1000
0000
0100
0000
0001
0000
0000
0000
1000
0000
0010
0000
0001
0000
1000
0010
,
1000
0000
0000
0001
0000
0000
1001
0000
0000
0000
0001
0100
0020
0000
0000
0000
,
1030
0100
0010
0100
0000
0000
0100
1000
0001
0100
0000
0010
1000
0000
0001
0010
,
0001
0100
0000
0010
1000
0000
0002
0010
0000
1003
0000
0001
0010
0001
0000
0000
,
1000
0000
0100
0000
1000
0000
0001
0010
0001
1000
0000
0100
1000
0000
0010
0000
,
0000
0010
0100
0010
1000
0100
0000
0010
0000
0210
0000
0000
0301
0100
1000
0000
,
0001
0100
0010
0100
0000
0000
0100
0001
1000
0100
0000
0010
0001
0000
1000
0010
,
1000
0100
0000
0010
0001
0000
2000
0010
0000
3001
0000
1000
0010
1000
0000
0000
,
1100
0000
0000
1010
0000
0000
0001
0000
0011
0000
0000
0101
0000
0000
1000
0000
,
0001
0010
0001
1000
0100
0010
0100
2000
0010
0000
0001
3000
1010
0000
0000
0000
,
1000
0002
0003
1000
0200
0000
0010
0310
,
0000
0001
0000
0200
0302
0003
0020
0000
,
0031
0100
0001
0100
0010
0010
2000
0000
,
3100
1000
0010
0100
0020
0030
2000
0000
,
3001
0020
0030
0001
0200
0000
0010
0310
,
0000
2000
3000
0001
0020
0000
0031
0001
,
2000
0000
0000
0000
3010
0000
0100
0000
0001
0000
0010
0000
0100
0000
0000
0100
,
2000
0000
0000
0000
0000
0001
3001
0000
,
1000
0100
0000
0100
1000
0010
1000
0000
0001
0010
0100
0010
0001
0000
0000
0000
,
0100
0000
0000
0010
1000
0100
1000
0000
0001
0000
0100
0020
0100
0000
1030
0000
,
0001
0100
0000
0100
0001
0010
0001
0000
1000
0010
0100
0010
1000
0000
0000
0000
,
0001
0000
0010
0100
0000
0010
0001
0000
1000
0010
0100
0001
1000
0000
0000
0000
,
0001
0010
0000
0010
0001
0100
0001
0000
1000
0100
0010
0100
1000
0000
0000
0000
,
0010
0000
0000
0100
0010
1000
0010
0000
0001
0000
0010
0200
0010
0000
0301
0000
,
1000
0010
0000
0010
1000
0100
1000
0000
0001
0100
0010
0100
0001
0000
0000
0000
,
1000
0000
0100
0010
0000
0100
1000
0000
0001
0100
1000
0100
0001
0010
0001
0000
,
1000
0100
0000
0010
0100
1000
0010
0000
0100
0001
1000
0001
0100
0000
0000
0000
,
0010
0000
0100
0001
0000
0001
0010
0000
0100
0000
0010
0001
1000
0100
1000
0000
,
0001
0100
0000
0100
0001
1000
0001
0000
0010
0100
0010
0100
0001
0000
0000
0100
,
0010
0000
0001
1000
0000
0001
0100
0000
0100
0001
0010
0100
1000
0000
2000
0000
,
3001
0100
0000
0010
0100
0001
0010
0000
0100
1000
0001
1000
0100
0000
0000
0000
,
0010
0000
0100
1000
0000
1000
0010
0000
0001
0000
0010
1000
0001
0100
0001
0000
,
1000
0100
0000
0100
1000
0010
1000
0000
0010
0100
0010
0100
1000
0000
0000
0100
,
0001
0000
0010
0001
0000
0001
1000
0000
0001
0010
1000
0000
1000
0010
0001
0000
,
1000
0000
0100
0010
0100
0010
0000
0010
0001
0000
0100
0000
0100
0001
0000
0001
,
1000
0000
0001
1000
0001
0000
0001
0000
0010
0100
0010
0000
0001
0100
0000
0010
,
1000
0000
1000
0010
0000
1000
0001
0000
0010
0100
0010
0000
0001
0100
0000
0010
,
1000
0000
0001
0000
0001
0000
0100
0000
0001
0010
0001
0000
1000
0100
0000
0001
,
0000
0100
1000
0010
1000
0000
0001
0000
0000
0010
0001
0000
1000
0010
0000
0100
,
0000
0100
0001
0100
0001
0000
0010
0000
0000
0100
1000
0000
0010
1000
0000
0001
,
0010
0000
0010
0000
0001
0000
0100
0000
0001
0000
1000
0000
0001
0010
0100
1000
,
0010
0000
0000
0110
0000
0100
1000
0000
0100
0000
0002
0000
0013
1000
0000
0001
;

//--------------- dance-double - D-Frondal ----------------
#NOTES:
     dance-double:
     D-Frondal:
     Easy:
     10:
     0,0,0,0,0:
00000000
00000000
00000000
00000000
,
00000000
00000000
00000000
00000000
,
00000001
00000000
00000010
00000000
00000100
00001000
00000100
00000000
,
00000010
00000001
00002000
00003000
,
00010000
00000000
01000000
00000000
00100000
10000000
00100000
00000000
,
01000000
00000000
00010000
00000000
00100000
00000000
00001000
00001000
,
10000000
00000000
00100000
00000000
01000000
00010000
01000000
00000000
,
00100000
10000000
00020000
00030000
,
00001000
00000000
00000100
00000000
00000010
00000001
00001000
00000000
,
00000010
00000000
00000000
00000010
00000000
00000000
00000010
00000000
00000000
00000000
00010000
00000000
00001000
00000000
00000000
00000000
,
00020000
00000000
00031000
00000000
00000100
00000010
00000001
00000010
,
00010000
00001000
00010000
00010000
00000000
00000000
00000000
00000000
,
00002000
00000000
00013000
00000000
01000000
00100000
10000000
00100000
,
00001000
00010000
00001000
00001000
00000000
00000000
00000000
00000000
,
00020000
00000000
00031000
00000000
01000000
10000000
01000000
00010000
,
00100000
00000010
00001000
00000100
00000000
00000000
00000000
00000000
,
00000110
00000000
00000000
00000000
00000011
00000000
00000000
00000001
,
00000000
00000100
00000000
00000001
00000010
00000100
00010000
00000000
,
00002000
00000000
02003000
00000000
,
03100000
10000000
01000000
00100000
,
00001000
00001000
00000000
00010000
00000000
00001000
00000000
01000000
,
00100000
00010000
00000000
00001000
01000000
00100000
00010000
00001000
,
00020000
00000000
00030200
00000000
,
00000310
00000001
00000100
00000010
,
00010000
00010000
00000000
00001000
00000000
00010000
00000000
00000100
,
00000010
00000000
00000000
00000010
00000000
00000000
00000010
00000000
00000000
00000000
00000100
00000000
00010000
00000000
00000000
00000000
,
00001000
00100000
00010000
00000000
10000000
01000000
00000000
01100000
,
00000000
00100000
00001000
00010000
00000000
00001000
01000000
00000000
,
00001000
00010000
00001000
00000000
00000010
00000000
00000100
00000000
,
00010000
00000000
00001000
00000000
00100000
00100000
00001000
00000000
,
00010000
00000010
00001000
00000000
00000001
00000100
00000000
00000110
,
00000000
00000010
00010000
00001000
00000000
00010000
00000100
00000000
,
00010000
00001000
00010000
00000000
00100000
00000000
01000000
00000000
,
00010000
00000000
00100000
00000000
00001000
00001000
00001000
00000000
,
00010000
01000000
10000000
10010000
,
00010000
01000000
10000000
01000000
,
00010000
10000000
00010000
00110000
,
00100000
00001000
00010000
00000000
,
00001000
00000100
00000001
00001001
,
00001000
00000100
00000001
00000100
,
00001000
00000001
00001000
00001010
,
00000010
00000000
00000000
00000010
00000000
00000000
00000010
00000000
00010000
00000000
00001000
00000000
00010000
00000000
00000000
00000000
,
00001000
01000000
00000000
00001000
00010000
00001000
00000000
00001000
,
01000000
00100000
00000000
01000000
00100000
00010000
00001000
00000000
,
00010000
01010000
01000000
11000000
,
10000000
00100000
00010000
00000000
00001000
00000000
00011000
00000000
,
00010000
00000100
00000000
00010000
00001000
00010000
00000000
00010000
,
00000100
00000010
00000000
00000100
00000010
00001000
00010000
00000000
,
00000010
00000000
00000000
00000010
00000000
00000000
00000020
00000000
00000130
00000000
00000000
00001001
00000000
00000000
00000001
00000000
,
00000010
00000100
00002000
00000000
00103000
00010000
00011000
00000000
,
00000000
00000000
00000000
00000000
,
00000000
00000000
00000000
00000000
,
00000000
00000000
00000000
00000000
,
00000000
00000000
00000000
00000000
,
00000000
00000000
00000000
00000000
,
00000000
00000000
00000000
00000000
,
00002000
00000000
00000000
00000000
,
00020000
00000000
00000000
00000000
00000000
00003000
00030000
00000000
,
00001000
00100000
00010000
00000000
00010000
01000000
00100000
00000000
,
10000000
01000000
00100000
01000000
,
10000000
00100000
01000000
00000000
01000000
00001000
00010000
00000000
,
00001000
00010000
00001000
00000000
00011000
00000000
00000000
00000000
,
00010000
00000100
00001000
00000000
00001000
00000010
00000100
00000000
,
00000001
00000010
00001000
00000010
,
00000001
00000100
00000010
00000000
00000010
00010000
00001000
00000000
,
00010000
00001000
00010000
00000000
00011000
00000000
00011000
00000000
,
00001000
00100000
01000000
00000000
10000000
01000000
00010000
00000000
,
01000000
10000000
00100000
10000000
,
01000000
00100000
00010000
00000000
01000000
00100000
00001000
00000000
,
00010000
01000000
00001000
00011000
,
00010000
00000010
00000100
00000000
00000001
00000100
00001000
00000000
,
00000100
00000001
00000010
00000001
,
00000100
00001000
00010000
00000000
00001000
00000100
00000001
00000000
,
00000010
00000000
00000000
00000010
00000000
00000000
00000010
00000000
00000100
00000000
00010000
00000000
00010000
00000000
00010000
00000000
,
00001000
00100000
01000000
10000000
,
00100000
00000000
00100000
00000000
01000000
00001000
00000000
00000000
,
00010000
01000000
00100000
00010000
,
01000000
00000000
00100000
00000000
00010000
00100000
10000000
00000000
,
00000000
01000000
00100000
00010000
,
00001000
00000000
00000100
00000000
00000010
00000001
00000000
00000100
,
00000001
00000000
00000010
00000100
00010000
00000000
00100000
00010000
,
00000010
00000000
00000000
00000010
00000000
00000000
00000010
00000000
00000100
00000000
00001000
00000000
00011000
00000000
00000000
00000000
;

//--------------- dance-double - D-Frondal ----------------
#NOTES:
     dance-double:
     D-Frondal:
     Medium:
     14:
     0,0,0,0,0:
00000000
00000000
00000000
00000000
,
00000000
00000000
00000000
00000000
00000000
00000000
00000000
00000000
00000000
00010000
00000000
00020000
00000000
00030000
00000000
00000000
,
00001000
00000000
00001000
00010000
00000000
00000000
00001000
00000000
00100000
00000000
00010000
00000000
10000000
00000000
00100000
00000000
,
10000000
00000000
10000000
00010000
00000000
00000000
01000000
00000000
00100000
00000000
00010000
00000000
00001000
00000000
00000000
00000000
,
00010000
00000000
00010000
00001000
00000000
00000000
00010000
00000000
00000010
00000000
00001000
00000000
00000001
00000000
00000010
00000000
,
00000001
00000000
00000001
00001000
00000000
00000000
00000100
00000000
00000010
00000000
00001000
00000000
00010000
00000000
00010000
00000000
,
00001000
00000000
00001000
01000000
00000000
00000000
00100000
00000000
10000000
00000000
01000000
00000000
00010000
00000000
01000000
00000000
,
10000000
00000000
10000000
00100000
00000000
00000000
01000000
00000000
00100000
00000000
00010000
00000000
00011000
00000000
00000000
00000000
,
00001000
00000000
00001000
00010000
00000000
00000000
00000100
00000000
00000010
00000000
00000001
00000000
00000100
00000000
00000010
00000000
,
00000001
00000000
00000000
00000001
00000000
00000000
00000001
00000000
00000000
00000000
00000020
00000000
00000130
00000001
00010000
00000000
,
00021000
00000000
00130000
00000000
10000000
01000000
00010000
01000000
,
10000000
00010000
10000000
00010000
01000000
00000000
00001000
00000000
,
00012000
00000000
00003010
00000000
00000001
00000100
00001000
00000100
,
00000001
00000000
00001000
00000000
00000001
00000000
00001000
00000000
00000100
00000010
00000000
00000000
00000100
00000000
00010000
00000000
,
00021000
00000000
00130000
00000000
00010000
00100000
10000000
00010000
,
10000000
01000000
00010000
01000000
10000000
00010000
01000000
00000000
,
01001000
00000000
00001000
00000000
00011000
00010000
00000100
00000010
,
00000001
00000010
00001000
00000010
00000001
00001000
00001001
00000000
,
00000001
00000100
00000001
00000010
00000100
00001000
00000010
00000100
,
00001000
00010000
00001000
00100000
00010000
00001000
00010000
00100000
,
00000000
02000000
00000000
23000000
00000000
30000000
00100000
00000000
00000000
01000000
00010000
00000000
00200000
00000000
00000000
00000000
,
00310000
00000000
01000000
10000000
00000000
01000000
00010000
00000000
10000000
00100000
00000000
00000000
01000000
00000000
00010000
00000000
,
10000000
01000000
10000000
00100000
01000000
00010000
00100000
01000000
,
00010000
00001000
00010000
00000010
00001000
00010000
00001000
00000010
,
00000000
00000200
00000000
00000302
00000000
00000003
00000010
00000000
00000000
00000100
00001000
00000000
00000010
00000000
00000010
00000000
,
00000110
00000000
00000000
00010010
00000000
00000000
00011000
00000000
00000000
00000000
00020000
00000000
00130000
10000000
00100000
00000000
,
10000000
01000000
00000000
10000000
00010000
00000000
00100000
00000000
01000000
00000000
00000000
01000000
10000000
00000000
00100000
00000000
,
01000000
00001000
00000000
00010000
00001000
00000000
00100000
01000000
00000000
00000000
01000000
00000000
00010000
00000000
01000000
00000000
,
10000000
00000000
00100000
01000000
00000000
01000000
00010000
00000000
00100000
00000000
00010000
00000000
01000000
00000000
00100000
00000000
,
00010000
00100000
01000000
00001000
00010000
00010000
00000100
00000010
,
00000001
00000100
00000000
00000001
00001000
00000000
00000010
00000000
00000100
00000000
00000100
00000000
00000001
00000000
00000010
00000000
,
00000100
00010000
00000000
00001000
00010000
00000000
00000001
00000000
00000010
00000000
00001000
00000000
00000010
00000000
00000001
00000000
,
00001000
00000000
00000010
00000100
00000010
00000000
00010000
00000000
00001000
00000000
00000100
00000000
00000010
00000000
00010000
00000000
,
00002000
00000000
00000000
00000000
01003000
00000000
00000000
00010000
00001000
00000000
00100000
00000000
10100000
00000000
00000000
00000000
,
10000000
01000000
00100000
01000000
10000000
00010000
00000000
00100000
,
00010000
00001000
00010000
00100000
00001000
00010000
01000000
00010000
,
00001000
00000100
00000001
00000010
00000001
00000100
00000000
00000001
,
00000010
00010000
00000010
00000100
00001000
00000001
00000100
00010000
,
01000000
00010000
00100000
00010000
01000000
10000000
00000000
01000000
,
00010000
00100000
01000000
10000000
00100000
10000000
01000000
00010000
,
00001000
00000000
00000100
00001000
00010000
00000000
00001000
01000000
,
01100000
00000000
00000000
01001000
00000000
00000000
00011000
00000000
00010000
00000000
00000100
00000010
00000100
00000000
00000000
00000000
,
00010000
00001000
00100000
00001000
00010000
00100000
00010000
00001000
,
00010000
01000000
10000000
01000000
00010000
00001000
01001000
00000000
,
01000000
00100000
10000000
01000000
00010000
01000000
10000000
00000000
,
00100000
00000000
01000000
00000000
00010000
00000000
00000000
00100000
00000000
00110000
00000000
00000000
00100000
00010000
01000000
00000000
,
00001000
00010000
00000010
00010000
00001000
00000010
00001000
00010000
,
00001000
00000100
00000001
00000100
00001000
00010000
00000100
00001000
,
00001100
00000000
00000000
00010100
00000000
00000000
00000000
00000000
01010000
00000000
00000000
01001000
00000000
00000000
00001000
00000000
,
00010000
00000000
00100000
10000000
00000000
01000000
10000000
00000000
01000000
00000000
00010000
00000000
00012000
00000000
00000000
00000000
,
02003000
00000000
00000000
00000000
00000000
00000000
03100000
00200000
,
00300000
20000000
30000000
00200000
02300000
00000000
00000000
00000000
,
03002000
00000000
00023000
00000000
00032000
00000000
00013000
00020000
,
00032000
00203000
00302000
02003000
,
03000200
00000000
00000000
00000000
00000000
00000000
00000310
00000020
,
00000030
00000002
00000003
00000020
00000230
00000000
00000000
00000000
,
00020300
00000000
00032000
00000000
00023000
00000000
00031000
00002000
,
00023000
00030020
00000230
00000301
,
00000001
00000010
00000000
00000000
00000010
00000100
00000000
00000000
00000100
00010000
00000000
00001000
00010000
00000000
00000000
00000000
,
00100000
00000000
10000000
01000000
00000000
00000000
01000000
00000000
10000000
00000000
00100000
00000000
00010000
00000000
00100000
00000000
,
10000000
01000000
00000000
00000000
01000000
00100000
00000000
00000000
00100000
00010000
00100000
00001000
00010000
00000000
00000000
00000000
,
00000010
00001000
00010000
00000100
00000010
00010000
00001000
00000000
,
10000000
00100000
00000000
00000000
00100000
01000000
00000000
00000000
01000000
00001000
00000000
00010000
00001000
00000000
00000000
00000000
,
00000010
00000000
00000001
00000100
00000000
00000000
00000100
00000000
00000001
00000000
00000010
00000000
00001000
00000000
00000010
00000000
,
00000001
00000100
00000000
00000000
00000100
00000010
00000000
00000000
00000010
00001000
00000010
00010000
00001000
00000000
00000000
00000000
,
00100000
00010000
00001000
01000000
00100000
00001000
00010000
00010000
,
00001000
00000100
00000000
00000000
00010000
01000000
00000000
00000000
00100000
10000000
00000000
00010000
10000000
00000000
00000000
00000000
,
01000000
00010000
01000000
10000000
00010000
01000000
02010000
00000000
,
03001000
00000010
00000000
00000000
00010000
00100000
00000000
00000000
01000000
10000000
00000000
00010000
10000000
00000000
00000000
00000000
,
01000000
00000000
00100000
00010000
00100000
00000000
01000000
00000000
00100000
00001000
00100000
00001000
01000000
00000000
00000200
00000000
,
00010300
01000000
00000000
00000000
00001000
00000100
00000000
00000000
00000010
00000001
00000000
00001000
00000001
00000000
00000000
00000000
,
00000100
00001000
00000100
00000001
00001000
00000100
00001200
00000000
,
00010300
00100000
00000000
00000000
00001000
00000010
00000000
00000000
00000100
00000001
00000000
00001000
00000001
00000000
00000000
00000000
,
00000010
00000000
00000000
00000010
00000000
00000000
00000010
00000000
00001000
00000000
00010000
00000000
00100000
00000000
00100000
00000000
,
10000000
01000000
00100000
01000000
10000000
00100000
00010000
00000000
,
00001000
00010000
00100000
01000000
00010000
00100000
01000000
00000000
,
00001000
00000100
00000010
00000001
00000100
00000010
00000001
00000010
,
00000100
00000000
00000001
00000000
00000010
00000000
00000010
00000000
00000000
00000100
00010000
00000000
00001000
00010000
00000000
00011000
,
00000000
00001000
01000000
00000000
00010000
00000000
00010000
00000000
00000000
10000000
01000000
00000000
00100000
01000000
00000000
10000000
,
00100000
00000000
00100000
00000000
01000000
00000000
00001000
00000000
00000000
00100000
00001000
00000000
00010000
00000100
00000000
00000010
,
00000001
00000100
00001100
00000000
00001000
01000000
00010000
00100000
,
10000000
00000000
00000000
10000000
00000000
00000000
10000000
00000000
00100000
00000000
00001000
00000000
00011000
00000000
00000000
00000000
;

//--------------- dance-double - D-Frondal ----------------
#NOTES:
     dance-double:
     D-Frondal:
     Hard:
     17:
     0,0,0,0,0:
00000000
00000000
00000000
00000000
,
00020000
00000000
00030000
00000000
00002000
00000000
00003000
00000000
00010000
00100000
00000000
10000000
00010000
00000000
00000000
00000000
,
10010000
00000000
10000000
01000000
00000000
00100000
01000000
00000000
10000000
00100000
00000000
10000000
00010000
00000000
00100000
00000000
,
00001000
00000000
00010000
00001000
00000000
00100000
00010000
00000000
01000000
00001000
01000000
00000000
00001000
00000000
00010000
00000000
,
00000001
00000000
00000010
00000100
00000000
00000010
00000001
00000000
00000100
00000010
00000000
00001000
00000001
00000000
00000010
00000000
,
00000100
00000000
00010000
00001000
00000000
00010000
00000100
00000000
00000010
00000100
00001000
00000000
00000100
00000000
00000100
00000000
,
00010000
00000000
01000000
00100000
00000000
00010000
00100000
00000000
01000000
10000000
00000000
00100000
10000000
00000000
01000000
00000000
,
00100000
00000000
00010000
01000000
00000000
00001000
00010000
00000000
00001000
00100000
00000000
00001000
00000020
00000000
00000000
00000000
,
00000031
00000000
00000100
00000010
00000000
00000100
00000001
00000000
00000010
00000100
00000000
00000010
00000001
00000000
00001000
00000100
,
00010000
00000000
00000000
00011000
00000000
00000000
00011000
00000000
00000000
00000000
00001000
00010000
00100000
00010000
00001000
00000000
,
01000000
00000000
01010000
00000000
00010000
00100000
10000000
00100000
,
00010000
00000000
01000000
00000000
00010000
00000000
00100000
00000000
00001000
00010000
00001000
00000000
00010000
00000100
00000010
00000000
,
00000100
00000000
00001100
00000000
00001000
00000100
00000001
00001000
,
00000001
00000000
00000100
00000000
00001000
00000000
00000010
00000000
00010000
00001000
00000000
00001000
00010000
00000000
00010000
00000000
,
00100000
00000000
10100000
00000000
10000000
00010000
01000000
10000000
,
01000000
00000000
00001000
00000000
00010000
00000000
01000000
00000000
00100000
00000000
00001000
00000000
00010000
00001000
00000010
00000000
,
00000012
00000000
00000103
00000000
00002010
00000000
00003100
00010000
,
00001000
00010000
00100000
01000000
01001000
00011000
00010100
00000000
,
00000100
00000010
00000000
00000001
00001000
00000000
00001000
00000000
00000010
00000100
00000010
00000000
00001000
00000000
00000001
00000010
,
00000001
00000100
00000000
00000010
00000000
00001000
00000100
00001000
00000000
00000001
00000000
00000010
00000100
00001000
00000000
00000100
,
00010000
00000000
00001000
00000000
00000100
00000000
00001000
00000000
00010000
00000000
00000010
00000000
00001000
00000000
00000100
00000010
,
00000100
00000000
00001000
00000001
00000000
00000100
00000010
00000000
00000001
00000010
00000000
00001000
00000010
00010000
00001000
00000000
,
01000000
00100000
00000000
10000000
00010000
00000000
00010000
00000000
00100000
01000000
00100000
00000000
00010000
00000000
10000000
00100000
,
10000000
01000000
00000000
00100000
00000000
01000000
10000000
00100000
00000000
01000000
00000000
00010000
10000000
00010000
00000000
00100000
,
00001000
00000000
00010000
00000000
01000000
00000000
00010000
00000000
00001000
00000000
00100000
00000000
00010000
00000000
00010000
01000000
,
00100000
00000000
00000000
00110000
00000000
00000000
00010010
00000000
00000000
00000000
00000010
00000100
00001000
00000100
00001000
00000000
,
00011000
00000000
00010000
00001000
00010000
00000000
01000000
00000000
10000000
00000000
00100000
01000000
00100000
00000000
10000000
00000000
,
01000000
00100000
00000000
01000000
10000000
00000000
00100000
00010000
00000000
00100000
00010000
00000000
00001000
00010000
00001000
00000000
,
00010000
00000000
00001000
00010000
00001000
00000000
00000100
00000000
00000001
00000000
00000010
00000000
00000001
00000000
00000100
00000000
,
00000001
00000010
00000000
00001000
00000010
00000100
00001000
00000000
00000100
00000000
00000100
00000000
01000000
00000000
00100000
00000000
,
10000000
00000000
01000000
00100000
01000000
00000000
10000000
00000000
00010000
00000000
00010000
00000000
01000000
00000000
00100000
00000000
,
00010000
00001000
00000000
00010000
00000100
00000000
00000010
00000000
00000100
00000000
00010000
00001000
00010000
00001000
00000010
00000000
,
00000001
00000000
00000100
00000010
00000100
00000000
00000001
00000000
00000010
00000000
00000010
00000000
00000100
00000000
00001000
00000000
,
00010000
00100000
00000000
00010000
00000000
01000000
00100000
00010000
00001000
00000000
00010000
00000000
00011000
00000000
00000000
00000000
,
00001000
00010000
00001000
01000000
00100000
00100000
00000000
10000000
,
01000000
00000000
00010000
00000000
01000000
00000000
10000000
00000000
00100000
00000000
01000000
00010000
01000000
00001000
00000000
00001000
,
00010000
00001000
00010000
00000100
00000010
00000010
00000000
00000001
,
00000100
00000000
00001000
00000000
00000100
00000000
00000001
00000000
00000010
00000100
00000000
00000000
00000010
00001000
00000000
00010000
,
00001000
01000000
00100000
01000000
00010000
00010000
00000000
00100000
,
00010000
00000000
00001000
00000000
00010000
00000000
00100000
00000000
01000000
10000000
00000000
00100000
01000000
00001000
00000000
00001000
,
00010000
00000000
00000100
00000000
00010000
00000000
00000010
00000000
00001000
00000000
00001000
00000000
00000100
00000000
00000010
00000001
,
00000100
00000000
00000000
00001100
00000000
00000000
01001000
00000000
01000000
00000000
00100000
00010000
00001000
00000000
00000000
00000000
,
00010000
01000000
00100000
00010000
00000000
10000000
00100000
10000000
01000000
00100000
00000000
00100000
00000000
00000000
00010000
01000000
,
00010000
00100000
00000000
10000000
00000000
00100000
00010000
00100000
00000000
01000000
00000000
10000000
00100000
00010000
00000000
00000000
,
00001000
00000000
01000000
00010000
01000000
00000000
00001000
00000000
00100000
00010000
00100000
00000000
00001000
00000000
00000010
00000001
,
00000010
00000000
00000100
00010000
00001000
00100000
00000000
10000000
00000000
00100000
00000000
01000000
00100000
00001000
00010000
00000000
,
00001000
00000100
00000010
00001000
00000000
00000001
00000010
00000001
00000100
00000010
00000000
00000010
00000000
00000000
00001000
00000100
,
00001000
00000010
00000000
00000001
00000000
00000010
00001000
00000010
00000000
00000100
00000000
00000001
00000010
00001000
00000000
00000000
,
00011000
00000000
00000000
00101000
00000000
00000000
01000000
00000000
00011000
00000000
00000000
00010010
00000000
00000000
00000100
00000000
,
00010000
00001000
00010000
00001000
01000000
00010000
00001000
00000010
00000100
00000000
00000001
00000000
00000021
00000000
00000000
00000000
,
00000230
00000000
00000000
00000000
00000000
00000000
00001300
00001000
,
00000100
00001000
00000100
00001000
00000100
00010000
00002000
00000000
,
00003000
00000000
00000000
00000000
00000000
00000000
00000000
00000000
00000000
00000000
00000000
00000000
01000000
00010000
01000000
00010000
,
00200000
00000000
01000000
01300000
00000000
00000000
20000000
00000000
,
30200000
00000000
00000000
00000000
00000000
00000000
01300000
01000000
,
00000000
00000000
00010000
00000000
00010000
00100000
00000000
00000000
01000000
00000000
00100000
00001000
00100000
00000000
00010000
00000000
,
00000020
00000000
00000000
00000000
00000032
00000000
00000000
00000000
00000103
00000000
00000000
00000010
00000001
00000000
00000000
00000010
,
00020000
00000000
01000000
00000000
00030100
00020000
00032000
00003000
,
00001000
01000000
00000000
01000000
00010000
00100000
00010000
00000000
10000000
01000000
00100000
00010000
01000000
00000000
00000000
00000000
,
00100000
00000000
00010000
00001000
00000000
00100000
00001000
00000000
00010000
00000000
01000000
10000000
01000000
00100000
00001000
00000000
,
00010000
00000100
00000000
00000100
00001000
00000010
00001000
00000000
00000001
00000010
00000100
00001000
00000001
00000000
00000010
00000000
,
00000100
00000000
00000100
00020000
00000000
00031000
00200000
00000000
00301000
00010000
00001000
00010000
00000010
00000000
00001000
00000000
,
00010000
01000000
00000000
01000000
00001000
00100000
00001000
00000000
10000000
01000000
00100000
00010000
01000000
00000000
00000000
00000000
,
00100000
00000000
00010000
00001000
00000000
00100000
00001000
00000000
00000020
00000000
00010030
00100000
00010000
00100000
01000000
00000000
,
00001000
00000100
00000000
00000100
00010000
00000010
00010000
00000000
00000001
00000010
00000100
00001000
00000001
00000000
00000000
00000000
,
00000100
00000000
00000010
00020000
00030000
00001000
00200000
00000000
01300000
00010000
00001000
00010000
01000000
10000000
00001000
00000000
,
00010000
00000010
00000000
00000010
00000100
00000001
00000100
00000000
00000010
00010000
00001000
00010000
00000100
00000000
00000000
00000000
,
00000010
00000000
00000001
00000100
00000000
00000010
00001000
00000000
00000100
00000000
00010000
00001000
00010000
00001000
01000000
00000000
,
00001000
00100000
00000000
00100000
01000000
10000000
01000000
00000000
00100000
00001000
00010000
00001000
01000000
00000000
00000000
00000000
,
00100000
00000000
10000000
01000000
00000000
00100000
00010000
00000000
01000000
00100000
01000000
00100000
00010000
00000000
00000200
00000000
,
00001300
00000010
00000000
00000010
00000100
00000001
00000100
00000000
00000010
00001000
00000100
00010000
00001000
00000000
00000200
00000000
,
00000310
00001000
00000000
00000001
00000010
00000100
00001000
00000000
02000000
00000000
03010000
00001000
00010000
00001000
00100000
00000000
,
00001000
01000000
00000000
01000000
00100000
10000000
00100000
00000000
01000000
00001000
00010000
00001000
00100000
00000000
00000000
00000000
,
01000000
00000000
00000000
01010000
00000000
00000000
00010100
00000000
00000100
00010000
00001000
00000000
01000000
00100000
00010000
00000000
,
00001000
00000000
00010000
00000100
00010000
00001000
00000000
00001000
00000010
00000000
00000100
00000000
00001000
00000010
00000000
00000010
,
00000100
00000000
00001000
00010000
00001000
00000000
00000100
00000000
00000001
00001000
00000001
00000000
00000010
00000100
00000000
00001000
,
00000010
00000000
00000100
00001000
00000000
00010000
00001000
00000000
00100000
00010000
00100000
00000000
01000000
10000000
00000000
00100000
,
01000000
00000000
10000000
00000000
01000000
00000000
01000000
00000000
00010000
10000000
00010000
00000000
00100000
01000000
00000000
00010000
,
00000000
00000100
00010000
00001000
01000000
00000000
00100000
00000000
00000000
00010000
00100000
00000000
01000000
00001000
00000000
00010000
,
00000000
00000010
00000100
00000010
00001000
00000000
00000001
00000000
00000010
00000100
00000010
00000000
00000001
00000100
00000000
00000001
,
00001000
00000000
00000100
00000000
00000001
00000000
00000100
00000000
00001000
00000000
00000010
00000000
00010000
00001000
00000000
01000000
,
00100000
00000000
00000000
00101000
00000000
00001000
00000010
00000000
00010000
00000000
00002000
00000000
10003000
01000000
00000000
00010000
;
