#TITLE:i like you;
#SUBTITLE:[game edit];
#ARTIST:dj kaya*;
#TITLETRANSLIT:;
#SUBTITLETRANSLIT:;
#ARTISTTRANSLIT:;
#GENRE:;
#CREDIT:kaya;
#BANNER:ilybn.png;
#BACKGROUND:ilybg.png;
#LYRICSPATH:;
#CDTITLE:;
#MUSIC:ily.mp3;
#OFFSET:1.544000;
#SAMPLESTART:27.256001;
#SAMPLELENGTH:25.600000;
#LASTBEATHINT:1.245000;
#SELECTABLE:YES;
#DISPLAYBPM:150.000000;
#BPMS:0.000000=150.000000
,34.000000=300.000000
,36.000000=150.000000
,71.000000=300.000000
,72.000000=150.000000
,102.000000=300.000000
,104.500000=150.000000
,128.750000=300.000000
,129.500000=150.000000
,130.250000=300.000000
,131.000000=150.000000
,131.750000=300.000000
,132.500000=150.000000
,133.250000=300.000000
,134.000000=150.000000
,230.000000=300.000000
,231.500000=150.000000
,244.000000=300.000000
,248.000000=150.000000
;
#STOPS:34.000000=0.100000,
34.500000=0.100000,
35.000000=0.100000,
35.500000=0.100000,
71.000000=0.200000,
102.000000=0.150000,
102.750000=0.150000,
103.500000=0.200000,
128.750000=0.150000,
130.250000=0.150000,
131.750000=0.150000,
133.250000=0.150000,
230.000000=0.150000,
230.750000=0.150000,
244.000000=0.050000,
244.250000=0.050000,
244.500000=0.050000,
244.750000=0.050000,
245.000000=0.050000,
245.250000=0.050000,
245.500000=0.050000,
245.750000=0.050000,
246.000000=0.050000,
246.250000=0.050000,
246.500000=0.050000,
246.750000=0.050000,
247.000000=0.050000,
247.250000=0.050000,
247.500000=0.050000,
247.750000=0.050000
;
#BGCHANGES:0.000=ilybg.png=1.000=0=0=1=====,
99999=-nosongbg-=1.000=0=0=0 // don't automatically add -songbackground-
;
#KEYSOUNDS:;
#ATTACKS:;

//---------------dance-single - kaya----------------
#NOTES:
     dance-single:
     kaya:
     Beginner:
     4:
     0.160724,0.298617,0.175335,0.124195,0.000000,154.000000,130.000000,24.000000,17.000000,0.000000,0.000000,0.160724,0.298617,0.175335,0.124195,0.000000,154.000000,130.000000,24.000000,17.000000,0.000000,0.000000:
0000
0000
0000
0000
,
0000
0000
0000
0000
,
0000
0000
0000
0000
,
0000
0000
0000
0000
,
0000
0000
0000
0000
,
0001
0000
0000
0000
,
0000
0000
0000
0000
,
1000
0000
0000
0000
,
0000
0000
0000
0000
,
1001
0000
0000
0000
,
0100
0000
0000
0000
,
1001
0000
0000
0000
,
0010
0000
0000
0000
,
1001
0000
0000
0000
,
0100
0000
0000
0000
,
0002
0000
0000
0000
,
0000
0000
0003
0000
,
0020
0000
0030
0110
,
1000
1000
1000
0000
,
0001
0001
0001
0000
,
0010
0010
0010
0000
,
0100
0100
0100
0000
,
1000
1000
1000
0000
,
0001
0001
0001
0000
,
0100
0010
0100
0000
,
0001
1000
0001
0000
,
0000
0000
0000
0000
,
1000
0100
0010
0000
,
0001
0001
0001
0000
,
0010
0100
1000
0000
,
0010
0010
0010
0000
,
0100
0001
1000
0000
,
2002
0000
0000
0000
,
0000
0000
3003
0000
,
0002
0000
0000
0000
,
0003
0000
0000
0000
,
0020
0000
0000
0000
,
0030
0000
0000
0000
,
0200
0000
0000
0000
,
0300
0000
0000
0000
,
2000
0000
0000
0000
,
3000
0000
0000
0000
,
0020
0000
0000
0000
,
1000
0000
0000
0000
,
0230
0000
0000
0000
,
0001
0000
0000
0000
,
0302
0000
0000
0000
,
1000
0000
0000
0000
,
0023
0000
0000
0000
,
0100
0000
0000
0000
,
0031
0000
0001
0000
,
0001
0000
1001
0000
,
1000
0000
1000
0000
,
1000
0000
1001
0000
,
0010
0000
0010
0000
,
0010
0000
0110
0000
,
0100
0000
0100
0000
,
0100
0000
0220
0330
,
0001
0000
1001
0000
,
0001
0000
1001
0000
,
1000
0000
1001
0000
,
2000
0000
0000
0000
,
3010
0000
0010
0000
,
0100
0000
0100
0000
,
0220
0000
0000
0000
0000
0000
0000
0330
,
0010
0010
0010
0010
,
1000
0000
0100
0000
,
0001
0000
0100
0000
,
1000
0000
0010
0000
,
0001
0000
0010
0000
,
1000
0000
0100
0000
,
0001
0000
0100
0000
,
1000
0000
0010
0000
,
0001
0000
0010
0000
,
1000
0000
1001
0000
,
0110
0000
1001
0000
,
0110
0000
1001
0000
,
0110
0000
1001
0000
,
0110
0000
1001
0000
,
0110
0000
1001
0000
,
1000
1000
0100
0000
,
0001
0001
0010
0010
;

//---------------dance-single - kaya----------------
#NOTES:
     dance-single:
     kaya:
     Easy:
     8:
     0.259871,0.418064,0.211863,0.109584,0.000000,249.000000,220.000000,29.000000,15.000000,0.000000,0.000000,0.259871,0.418064,0.211863,0.109584,0.000000,249.000000,220.000000,29.000000,15.000000,0.000000,0.000000:
0000
0000
0000
0000
,
0000
0000
0000
0000
,
0000
0000
0000
0000
,
0000
0000
0000
0000
,
0000
0000
0000
0000
,
0002
0000
0000
0000
,
0003
0000
0000
0000
,
0020
0000
0000
0000
,
0030
0000
0000
0000
,
1001
0000
0000
0000
,
1000
0000
0000
0001
,
1000
0000
0100
0010
,
0001
0010
0100
1000
,
0010
0000
0100
0001
,
1000
0010
0100
0001
,
1000
0000
0000
1000
0000
0000
1000
0000
,
0000
1000
0000
0000
0010
0000
0100
0000
,
0001
0001
0002
0003
,
0010
0000
0000
0010
0000
0000
0010
0000
,
0100
0000
0000
1000
0000
0000
0001
0000
,
0100
0000
0000
0100
0000
0000
0100
0000
,
0010
0000
0000
0110
0000
0000
0000
0000
,
1000
0000
0000
1000
0000
0000
0100
0000
,
0001
0000
0000
0001
0000
0000
0100
0000
,
0010
0000
0000
0001
0000
0000
1000
0000
,
0010
0000
0200
0000
,
0000
0300
0000
0000
0000
0000
0010
0000
,
1000
0000
0000
1001
0000
0000
0001
0000
,
1000
0000
0000
0100
0000
0000
0010
0000
,
0001
0000
0000
0011
0000
0000
0010
0000
,
0100
0000
0000
0001
0000
0000
0100
0000
,
1000
0000
0000
1010
0000
0000
0010
0000
,
0200
0000
0000
0000
,
0000
0000
0000
0000
0310
0100
0010
0100
,
0002
0000
0000
0000
,
0013
0000
0020
0000
0000
0030
0000
0000
,
0200
0000
0000
0000
,
1300
0000
2000
0000
0000
3000
0000
0000
,
0020
0000
0000
0000
,
0130
0000
0002
0000
0000
0003
0000
0000
,
2000
0000
0000
0000
,
3100
0000
0020
0000
0000
0030
0000
0000
,
0000
0001
1000
0000
0000
1000
0000
0000
,
0010
0000
0010
0000
0000
0010
0000
0000
,
1000
0000
0100
0000
0000
0010
0000
0000
,
0001
0000
0001
0000
0000
0001
0000
0000
,
0010
0000
0100
0000
0000
1000
0000
0000
,
0010
0000
0100
0000
0000
0001
0000
0000
,
1000
0001
1000
0001
,
0010
0000
0010
0000
0000
0100
0100
0000
,
1001
0000
1100
0000
,
0001
1000
0100
0000
,
1001
0000
0101
0000
,
1000
0001
0100
0000
,
1001
0000
1010
0000
,
0001
1000
0010
0000
,
1001
0000
0011
0000
,
1000
0000
0000
0000
0020
0000
0000
0030
,
0100
0100
0001
0000
,
0011
0000
0110
0000
,
0100
0100
1000
0000
,
0020
0000
0000
0000
,
0130
1000
0100
0001
,
0100
1000
0100
0001
,
0010
0010
0010
0010
,
1001
0000
1001
0000
1001
0000
0001
0010
,
0100
1000
0001
0100
,
0010
0001
1000
0100
,
0001
0010
0100
1000
,
0001
0100
0010
0100
,
0001
0010
0100
1000
,
0100
0000
0001
0000
0000
1000
0010
0000
,
0001
1000
0010
0100
,
1000
0000
1000
0000
0100
0100
0100
0000
,
0001
0001
0001
0000
0011
0000
0010
0000
,
0011
0001
0011
0010
,
1100
0100
1100
1000
,
1100
0100
1100
1000
,
1010
0010
1010
1000
,
1010
0010
1010
1000
,
0001
0100
1000
0100
,
0001
0010
1000
0010
;

//---------------dance-single - kaya----------------
#NOTES:
     dance-single:
     kaya:
     Medium:
     12:
     0.379892,0.508425,0.292225,0.438337,0.084015,364.000000,324.000000,40.000000,60.000000,0.000000,0.000000,0.379892,0.508425,0.292225,0.438337,0.084015,364.000000,324.000000,40.000000,60.000000,0.000000,0.000000:
0000
0000
0000
0000
,
0000
0000
0000
0000
,
0000
0000
0000
0000
,
0000
0000
0000
0000
,
0000
0000
0000
0000
,
0000
0000
0000
0000
,
0000
0000
0000
0000
,
0000
0000
0000
0000
,
0000
0000
0000
0000
,
0002
0000
0000
0000
,
0023
0000
0000
0000
0000
0000
0130
1000
,
0002
0000
0203
0320
,
2030
0000
3002
0000
1003
0010
0100
0001
,
0020
0000
0230
2300
,
3002
2003
3200
0320
,
0031
1000
0000
1000
0010
0000
0010
0100
,
0000
0100
0001
0000
0011
0000
1100
0000
,
1000
0100
0010
0001
0100
0010
0110
0000
,
1001
0000
1000
0001
0000
0001
0100
0000
,
1000
0000
0100
0001
0000
0001
0010
0000
,
1001
0000
0001
1000
0000
1000
0100
0000
,
0001
0000
0100
1000
0000
1000
0010
0000
,
0110
0000
0010
0100
0000
0100
0001
0000
,
0010
0000
0001
0010
0000
0010
0100
0000
,
0110
0000
0010
0100
0000
0100
1000
0000
,
0010
0000
0000
0000
0010
0000
0000
0000
0100
0000
0000
0100
0000
0000
0100
0000
,
0000
0000
0001
1000
0001
0000
0010
0000
,
0100
0000
0000
0100
0000
0000
0100
0000
0000
0000
1000
0000
1000
0000
0000
0000
,
0001
0000
0100
0000
0001
1000
0010
0000
,
0100
0000
0000
0100
0000
0000
0100
0000
0000
0000
0010
0000
0010
0000
0000
0000
,
1000
0000
0001
0000
0010
0001
0010
0000
,
0100
0000
0000
0100
0000
0000
0100
0000
0000
0000
1000
0000
1000
0000
0000
0000
,
1010
0000
0000
0101
0000
0000
0011
0000
,
0000
1100
0000
0000
2002
0000
0000
3003
,
0022
0000
0000
0000
0000
0000
0000
0033
,
1000
0001
0010
0000
0000
0011
0000
0000
,
2200
0000
0000
0000
0000
0000
0000
3300
,
0001
1000
0100
0000
0000
0011
0000
0000
,
2020
0000
0000
0000
0000
0000
0000
3030
,
1000
0001
0100
0000
0000
1010
0000
0000
,
0202
0000
0000
0000
0000
0000
0000
0303
,
0001
0010
0100
0000
0000
0110
0000
0000
,
0100
1000
0001
0000
0100
0220
0330
0000
,
0001
1000
0100
0000
0010
0001
0000
0000
,
0010
0001
0100
0000
0001
0202
0303
0000
,
0001
0010
0100
0000
1000
0001
0000
0000
,
1000
0100
0202
0303
0000
2200
3300
0000
,
0001
0100
2200
3300
0000
0202
0303
0000
,
1000
0001
0100
0010
0000
1000
0002
0000
,
0013
0000
0000
0010
0100
0000
0000
0000
1000
0000
0001
0000
1000
0000
0000
0000
,
0001
0020
0000
0000
0230
0000
0000
2300
,
0000
0000
3020
0000
0000
0230
0000
0000
,
0302
0000
0000
0000
0000
1003
0100
0010
,
0001
0010
0100
1000
0000
0001
0100
0010
,
2000
0000
0000
3002
0000
0000
0203
0000
,
0000
0320
0000
0000
2030
0000
0000
3002
,
0000
0000
0003
0000
0000
1000
0001
0100
,
0010
0000
1000
0001
1000
0000
0100
0000
0001
0000
0000
0001
0000
0000
0000
0000
,
0100
1000
0001
0000
0020
0000
0000
2030
,
0000
0000
3002
0000
0000
0203
0000
0000
,
2300
0000
0000
0000
0000
3010
0100
0001
,
1000
0100
0010
0001
1000
0100
0010
0001
,
2000
0100
3002
0100
,
2003
0010
3002
0010
,
1003
0100
1000
0100
0010
0001
0010
0001
,
0100
0000
0100
0000
0100
0000
0100
0000
0100
0000
0000
0000
0001
1000
0001
0000
,
0010
0000
0100
0000
0001
0100
1000
0000
,
0010
0000
1000
0000
0001
1000
0010
0000
,
0100
0000
0001
0000
1000
0010
0100
0000
,
1000
0100
0002
0000
,
0013
0000
0100
0000
1000
0001
0010
0000
,
0100
0000
1000
0000
0001
0001
0001
0000
,
0100
0000
0010
0000
1000
0010
0100
0000
,
1000
0100
0001
0000
1000
0100
0010
0000
,
1000
0000
0010
0000
0002
0000
0003
0000
1001
0000
0000
0100
0000
0000
0000
0000
,
1010
0000
0000
0100
0000
0000
0000
0000
0011
0000
0000
0100
0000
0000
0000
0000
,
1001
0000
0000
0100
0000
0000
0000
0000
1001
0000
0000
0010
0000
0000
0000
0000
,
0011
0000
0000
0100
0000
0000
0000
0000
1010
0000
0000
0100
0000
0000
0100
0000
,
1001
0000
0000
0010
0000
0000
0000
0000
0011
0000
0000
0100
0000
0000
0000
0000
,
1010
0000
0000
0001
0000
0000
0000
0000
1100
0000
0000
0001
0000
0000
0000
0000
,
0010
0000
0000
0001
0000
0000
0100
0000
0010
0000
0000
1000
0000
0000
0100
0000
,
0010
0000
0000
0010
0000
0000
0010
0000
0011
0000
0000
0011
0000
0000
0011
0000
;

//---------------dance-single - kaya----------------
#NOTES:
     dance-single:
     kaya:
     Hard:
     14:
     0.635589,0.807499,0.547921,0.211863,0.489476,609.000000,534.000000,75.000000,29.000000,0.000000,0.000000,0.635589,0.807499,0.547921,0.211863,0.489476,609.000000,534.000000,75.000000,29.000000,0.000000,0.000000:
0000
0000
0000
0000
,
0000
0000
0000
0000
,
0000
0000
0000
0000
,
0000
0000
0000
0000
,
0000
0000
0000
0000
,
0002
0000
0000
0000
,
0003
0000
0000
0000
,
2000
0000
0000
0000
,
3000
0000
0000
0000
0010
0010
0010
0010
,
1001
0000
0000
0000
1000
0000
0100
0010
0100
0000
0001
0000
1000
0000
0010
0000
,
0001
0000
0000
0000
0001
0000
0100
0010
0100
0000
1000
0000
0001
0000
0010
0000
,
1000
0000
0000
0000
0010
0000
1000
0100
1000
0000
0100
0000
0001
0000
1000
0000
,
0010
0000
0100
0000
0010
0000
0001
1000
0001
0000
0100
0010
0100
0000
0010
0000
,
1000
0000
0000
0000
0002
0000
0013
0100
0010
0000
0100
0000
1000
0000
0001
0000
,
1000
0000
0000
0000
1000
0000
0010
0100
0010
0000
0100
0000
0001
0000
0010
0000
,
1100
0000
0000
0101
0000
0000
0011
0000
,
0000
0000
1010
0000
0000
0000
0000
0000
0010
0000
1000
0000
0001
0100
0001
0100
,
0010
0000
1000
0000
0100
0000
0010
0000
0001
1000
0001
1000
0002
0003
0000
0000
,
0100
0000
0000
0010
1000
0000
0100
0000
0001
0000
1000
0000
0010
0000
0001
0000
,
0100
0000
0000
0010
1000
0000
0001
0000
0000
0000
1000
0100
0000
0000
0100
0000
,
0010
0000
0000
0001
1000
0000
0010
0000
0001
0000
1000
0000
0100
0000
0001
0000
,
0010
0000
0000
0001
1000
0000
0010
0000
0000
0000
1000
0000
0100
1000
0100
0000
,
0010
0000
0000
0100
1000
0000
0100
0000
0001
0000
1000
0000
0010
0000
0001
0000
,
0010
0000
0000
0100
1000
0000
0001
0000
0000
0000
0100
0010
0000
0000
1000
0000
,
0001
0000
0000
0100
0010
0000
0001
0000
0010
0100
0000
0001
0000
0000
0001
0000
,
0010
0000
0000
0010
0000
0000
0100
1000
0001
0000
0000
1001
0000
0000
1001
0000
,
0000
0000
1000
0001
1000
0000
0000
0010
0000
0000
0100
0000
0001
0000
0010
0000
,
0011
0000
0000
0011
0000
0000
0011
0000
0000
0000
0001
0010
0100
0000
1000
0000
,
0001
0000
0000
1000
0100
0000
1000
0000
0010
0000
1000
0000
0001
0000
0010
0000
,
1100
0000
0000
1100
0000
0000
1100
0000
0000
0000
1000
0000
0001
1000
0001
0000
,
0100
0000
0000
0100
0010
0000
1000
0000
0001
0000
0010
0000
0001
0000
0100
0000
,
1010
0000
0000
1010
0000
0000
1010
0000
0000
0000
0001
0010
0001
0000
1000
0000
,
2000
0000
0000
0010
0000
0000
3002
0000
0000
0100
0000
0000
2003
0000
0000
0010
,
0000
0000
3002
0000
0000
0100
0000
0000
1003
0000
0100
0000
0010
0000
0001
0000
,
0101
0000
0000
0000
1010
0000
0000
1000
0010
1000
0010
0000
0000
0000
0000
0000
,
1100
0000
0000
0000
0011
0000
0000
0010
0001
0010
0001
0000
0000
0000
0000
0000
,
0011
0000
0000
0000
0101
0000
0000
0100
0001
0100
0001
0000
0000
0000
0000
0000
,
1010
0000
0000
0000
1100
0000
0000
1000
0100
1000
0100
0000
0000
0000
0000
0000
,
1010
0000
0000
0000
1001
0000
0000
1000
0010
1000
0001
0000
0000
0000
0010
0000
,
0001
0000
0000
0000
1001
0000
0000
0001
0010
0001
1000
0000
0000
0000
0100
0000
,
1000
0000
0000
0000
1001
0000
0000
1000
0100
0010
0001
0000
0000
0000
0100
0000
,
0001
0000
0000
0000
1001
0000
0000
0001
1000
0010
0100
0000
0000
0000
0000
0000
,
0000
0000
0001
0000
1001
0000
0001
1000
0001
1000
0010
0000
0000
0000
0100
0000
,
0001
0000
0000
0000
0010
0000
0100
1000
0100
1000
0001
0000
0000
0000
1000
0000
,
0010
0000
0000
0000
0100
0000
0001
0010
0100
0010
0100
0000
0000
0000
1000
0000
,
0001
0000
0000
0000
1000
0000
0010
1000
0010
1000
0001
0000
0000
0000
0010
0000
,
0110
0000
0000
0000
1000
0000
0001
0100
0001
0000
1000
0000
0001
0100
0001
0000
,
0110
0000
0000
0000
0001
0000
1000
0100
1000
0000
0001
0000
1000
0100
1000
0000
,
0010
0000
1000
0001
1000
0000
0010
0000
1000
0000
0100
0000
0022
0000
0033
0000
,
1000
0000
0000
0001
0010
0000
0000
1000
0010
0000
0100
0000
0100
0000
0000
1000
,
0001
0000
0000
0000
1001
0000
0000
0000
0021
0000
0000
1000
0000
0000
1030
0000
,
0000
0010
0100
0010
0100
0000
0000
0000
1000
0000
0000
0001
0000
0000
1000
0100
,
1000
0000
0000
0000
1001
0000
0000
0000
1200
0000
0000
0010
0000
0000
0301
0000
,
0000
0100
0010
0100
0010
0000
0000
0000
0100
0000
0000
1000
0000
0000
0001
0010
,
0001
0000
0000
0000
1001
0000
0000
0000
0021
0000
0000
0100
0000
0000
1030
0000
,
0000
0010
0100
0010
0100
0000
0000
0000
1000
0000
0000
0001
0000
0000
1000
0010
,
1000
0000
0000
0000
1001
0000
0000
0000
1020
0000
0000
0100
0000
0000
0031
0000
,
0010
1000
0001
1000
0010
0000
0000
0000
1100
0000
0000
0101
0000
0000
0001
0000
,
1000
0100
0010
0000
1002
0000
0003
0200
,
0000
0000
0000
0000
0320
0000
0000
0000
0001
0000
2030
0000
0000
0000
3001
0010
,
0002
0000
1000
0000
1003
0001
0100
0010
,
2000
3002
0023
0230
,
1300
0001
1000
0000
0001
0000
1000
0000
0001
0010
0001
0000
1000
0000
0001
0000
,
1000
0010
0100
0000
0001
0000
1000
0000
0001
0010
0100
0000
1000
0000
0001
0000
,
0100
0010
0100
0000
0010
0100
0010
0000
1000
0001
1000
0000
0001
1000
0001
0000
,
1001
0000
1001
0000
1001
0000
1001
0000
1001
0000
0000
0000
0001
0010
0100
1000
,
0001
0000
0000
1000
0001
0000
0100
0000
0001
0000
0000
0000
1001
0000
0000
0000
,
1000
0000
0000
0010
1000
0000
0001
0000
1000
0000
0100
0000
1100
0000
0000
0000
,
0011
0000
0000
1000
0001
0000
0010
0000
0001
0000
0000
0000
0101
0000
0000
0000
,
1010
0000
0000
0001
1000
0000
0010
0000
2000
0000
3200
0000
2300
0000
3002
0000
,
0013
0000
0000
0100
0010
0000
0001
0000
0011
0000
0000
0000
0110
0000
0000
0000
,
0100
0000
0000
0001
0100
0000
1000
0000
0200
0000
0320
0000
0130
0000
1000
0000
,
0010
0000
0000
1000
0010
0000
0100
0000
0010
0000
0000
0000
0110
0000
0000
0000
,
0101
0000
0000
0001
0100
0001
0000
1000
0010
0000
1000
0000
0010
0000
0100
0000
,
0001
1000
0001
1000
0001
1000
0001
0000
1001
0000
0000
0001
0000
0000
1000
0000
,
1100
0000
0000
1000
0000
0000
0001
0000
0101
0000
0000
0100
0000
0000
0010
0000
,
1010
0000
0000
1000
0000
0000
0001
0000
0011
0000
0000
0010
0000
0100
0000
0000
,
0110
0000
0000
0100
0000
0000
1000
0000
1001
0000
0000
0001
0000
0000
1000
0000
,
1010
0000
0000
0010
0000
0000
0100
0000
0101
0000
0000
0001
0000
0010
0000
0000
,
0011
0000
0000
0010
0000
0000
0100
0000
1100
0000
0000
0100
0000
0000
0010
0000
,
0001
0000
1000
0001
0000
1000
0001
0000
0100
0000
0010
0100
0000
0010
0100
0000
,
0110
0000
0000
0110
0000
0000
0110
0000
1001
0000
0000
1001
0000
0000
1001
0000
;

//---------------dance-single - kaya----------------
#NOTES:
     dance-single:
     kaya:
     Challenge:
     16:
     0.706557,0.957766,0.314141,0.664811,0.748826,677.000000,634.000000,43.000000,91.000000,0.000000,0.000000,0.706557,0.957766,0.314141,0.664811,0.748826,677.000000,634.000000,43.000000,91.000000,0.000000,0.000000:
// measure 0
0000
0000
0000
0000
,  // measure 1
0000
0000
0000
0000
,  // measure 2
0000
0000
0000
0000
,  // measure 3
0000
0000
0000
0000
,  // measure 4
0000
0000
0000
0000
,  // measure 5
0002
0000
0000
0000
,  // measure 6
0003
0000
0000
0000
,  // measure 7
2000
0000
0000
0000
,  // measure 8
3000
0000
0000
0000
0010
0010
0010
0010
,  // measure 9
2002
0000
3003
0000
0001
0000
1000
0001
0010
0000
0100
0000
0010
0100
1000
0000
,  // measure 10
2200
0000
3300
0000
1000
0000
0010
0100
0010
0000
0100
0000
0001
1000
0001
0000
,  // measure 11
0202
0000
0303
0000
0001
0000
1000
0001
1000
0000
0010
0000
0100
0001
0010
0000
,  // measure 12
0022
0000
0033
0000
1000
0000
0010
1000
0001
0000
0010
0000
0001
0010
0100
0000
,  // measure 13
0220
0000
0330
0000
1000
0000
0001
0100
0010
0000
0100
0000
0010
1000
0001
0000
,  // measure 14
2020
0000
3030
0000
0010
0000
0100
0001
0100
0000
0010
0000
1000
0001
1000
0001
,  // measure 15
0010
0100
1000
0001
1000
0000
0010
0100
0001
1000
0001
0000
0010
0100
1000
0001
,  // measure 16
1000
0000
0010
0100
0001
1000
0001
0000
1000
0010
0100
0000
0001
0100
0010
0100
,  // measure 17
0001
0010
0100
0010
0001
0010
0100
1000
0001
0100
0010
1000
0002
0003
0000
0000
,  // measure 18
1010
0000
0000
0010
0100
0000
1000
0000
0100
0010
0100
0000
0002
0000
0013
0000
,  // measure 19
1010
0000
0000
0010
0001
0000
0011
0000
0000
0000
0001
0100
0010
0000
1000
0000
,  // measure 20
1100
0000
0000
0100
0010
0000
1000
0000
0010
0100
0010
0000
0002
0000
0103
0000
,  // measure 21
1100
0000
0000
0100
0001
0000
0101
0000
0000
0000
0001
0000
1000
0001
0010
0000
,  // measure 22
0011
0000
0000
0010
0100
0000
0001
0000
0100
0010
0100
0000
2000
0000
3010
0000
,  // measure 23
0011
0000
0000
0010
1000
0000
1010
0000
0000
0000
2000
3002
0003
1000
0010
0000
,  // measure 24
0101
0000
0000
0200
0300
0010
1000
0001
0100
0010
0000
0200
0300
0000
0001
1000
,  // measure 25
0020
0000
0030
0020
0000
0030
0001
0010
1000
0000
0000
2002
3003
0000
2002
3003
,  // measure 26
0000
0000
1000
0100
0010
0000
0001
0010
0000
0001
0010
0000
0100
0000
0001
0000
,  // measure 27
1000
0000
0010
0001
0000
0010
0001
0000
1000
0001
0100
0010
0100
0001
1000
0000
,  // measure 28
0001
0000
1000
0010
0000
1000
0010
0000
0100
0001
0100
0000
1000
0000
0001
0000
,  // measure 29
0010
0000
1000
0010
0000
1000
0010
0000
0100
0001
1000
0100
1000
0001
0010
0000
,  // measure 30
0100
0000
0010
0001
0000
0010
0001
0000
0100
0010
0100
0000
1000
0000
0001
0000
,  // measure 31
0010
0000
1000
0010
0000
1000
0010
0000
0100
0001
1000
0100
0010
0100
1000
0000
,  // measure 32
0001
0010
0100
1000
0000
0000
0001
0010
0100
1000
0000
0000
0001
0100
0010
1000
,  // measure 33
0000
0000
0001
0100
0010
1000
0000
0000
0001
0010
0001
0010
0100
1000
0100
1000
,  // measure 34
0002
0000
1000
0000
0000
1000
0000
0003
,  // measure 35
0002
0000
0100
0000
0000
0100
0000
0000
,  // measure 36
2003
0000
0001
0000
0000
0001
0000
3000
,  // measure 37
2000
0000
0100
0000
0000
0100
0000
0000
,  // measure 38
3020
0000
0100
0000
0000
0100
0000
0030
,  // measure 39
0020
0000
0001
0000
0000
1000
0000
0000
,  // measure 40
0230
0000
0010
0000
0000
0010
0000
0300
,  // measure 41
0200
0000
1000
0000
0000
0001
0000
0300
,  // measure 42
0000
0002
0010
0000
0000
0010
0000
0003
,  // measure 43
0002
0000
1000
0000
0000
1000
0000
0000
,  // measure 44
2003
0000
0010
0000
0000
0010
0000
3000
,  // measure 45
2000
0000
0001
0000
0000
0001
0000
0000
,  // measure 46
3200
0000
0001
0000
0000
1000
0000
0000
,  // measure 47
0320
0000
1000
0000
0000
0001
0000
0000
,  // measure 48
0031
0000
0100
0010
0100
0000
1000
0000
0100
0010
0100
0000
2002
0000
3003
0000
,  // measure 49
1000
0000
0000
0001
0010
0000
0000
0100
1000
0000
0001
0000
0001
0000
0100
0010
,  // measure 50
2000
0000
3001
0000
2000
0000
3001
0000
1100
0000
0000
0100
0010
0100
0002
0000
,  // measure 51
0003
0100
0010
0100
2000
0000
3000
0000
1001
0000
0000
1000
0010
0000
0010
0100
,  // measure 52
0002
0000
1003
0000
0002
0000
1003
0000
0101
0000
0000
0100
0010
0100
2000
0000
,  // measure 53
3000
0100
0010
0100
0002
0000
0003
0000
1001
0000
0000
0001
0010
0000
0010
0001
,  // measure 54
2000
0000
3001
0000
2000
0000
3001
0000
1010
0000
0000
0010
0100
0010
0002
0000
,  // measure 55
0003
0010
0100
0010
2000
0000
3000
0000
1001
0000
0000
1000
0100
0000
0100
0010
,  // measure 56
0002
0000
1003
0000
0002
0000
1003
0000
0011
0000
0000
0010
0100
0010
2000
0000
,  // measure 57
3001
0100
0010
0100
1000
0000
0200
0000
0001
0000
0000
0001
0000
0000
1300
0000
,  // measure 58
0020
0000
0130
0000
0020
0000
0130
0000
1001
0000
0000
0001
1000
0010
0200
0000
,  // measure 59
0300
1000
0001
0010
0200
0000
0300
0001
1000
0000
0100
0010
0001
0000
1000
0001
,  // measure 60
0200
0000
0310
0000
0200
0000
0310
0000
1001
0000
1000
0000
0100
0010
0001
0000
,  // measure 61
0001
0010
0100
1000
0001
0010
0100
1000
0001
0100
0010
1000
0001
0100
0010
1000
,  // measure 62
0001
0010
0001
0010
0100
1000
0100
0000
1000
0010
1000
0010
0100
0001
0100
0000
,  // measure 63
0001
1000
0001
1000
0100
0010
0100
0000
1000
0001
1000
0001
0100
0010
0100
0000
,  // measure 64
0001
0010
0001
0010
0100
0010
0100
0010
0100
1000
0100
1000
0010
1000
0010
0100
,  // measure 65
0001
0000
1001
0000
1001
0000
1001
0000
1001
0000
1001
0000
0001
0010
0100
1000
,  // measure 66
0001
0000
0000
0100
0001
0000
1000
0000
0001
0100
0010
0000
0021
0000
0000
0000
,  // measure 67
1030
0000
0000
0010
1000
0000
0001
0000
1000
0100
0010
0000
1020
0000
0000
0000
,  // measure 68
0031
0000
0000
1000
0001
0000
0010
0000
0001
0010
0100
0000
0201
0000
0000
0000
,  // measure 69
1300
0000
0000
0001
1000
0000
0010
0100
2000
0000
3200
0000
0320
0000
0230
0000
,  // measure 70
0301
0000
0000
0010
0001
0000
1000
0000
0001
1000
0010
0000
0021
0000
0000
0000
,  // measure 71
1030
0000
0000
0001
1000
0000
0010
0000
1000
0100
0010
0100
2000
0000
0010
0000
,  // measure 72
3001
0000
0000
1000
0001
0000
0100
0000
0001
1000
0100
0000
0201
0000
0000
0000
,  // measure 73
1300
0000
0001
0010
0100
0010
0000
0010
0002
0000
0023
0000
0230
0000
2300
0000
,  // measure 74
3001
0100
0001
0100
0010
1000
0010
1000
0200
0000
0000
0001
0300
0100
1000
0000
,  // measure 75
0020
0000
0000
0031
0010
0000
1000
0000
0021
0000
0000
1030
0010
0000
0001
0000
,  // measure 76
0200
0000
0000
1300
0000
0100
0001
0000
1200
0000
0000
0301
0000
0100
1000
0000
,  // measure 77
0020
0000
0000
0031
0000
0010
1000
0000
0021
0000
1030
0010
0000
0010
0001
0000
,  // measure 78
0200
0000
0000
1300
0000
0100
0001
0000
1200
0000
0000
0301
0000
0100
1000
0000
,  // measure 79
0020
0000
0000
0031
0010
0000
1000
0000
0021
0000
0000
1030
0010
0000
0001
0000
,  // measure 80
1000
0001
1000
0100
0000
0100
0010
0000
0100
1000
0001
0100
0000
0100
0010
0000
,  // measure 81
0001
0000
0010
1000
0000
0010
1000
0000
0001
0000
1000
0100
0000
1000
0100
0010
;

//---------------dance-single - ----------------
#NOTES:
     dance-single:
     :
     Edit:
     1:
     0.000000,0.000000,0.000000,0.000000,0.000000,0.000000,0.000000,0.000000,0.000000,1.000000,0.000000,0.000000,0.000000,0.000000,0.000000,0.000000,0.000000,0.000000,0.000000,0.000000,1.000000,0.000000:
M000
0000
0000
0000
;
