#VERSION:0.83;
#TITLE:how to make otoge music;
#SUBTITLE:;
#ARTIST:litmus* respect to 'k';
#TITLETRANSLIT:;
#SUBTITLETRANSLIT:;
#ARTISTTRANSLIT:;
#GENRE:;
#CREDIT:;
#MUSIC:how to make otoge music.ogg;
#BANNER:how to make otoge music.png;
#BACKGROUND:how to make otoge music-bg.png;
#CDTITLE:;
#SAMPLESTART:1.200;
#SAMPLELENGTH:15.000;
#SELECTABLE:YES;
#OFFSET:0.720;
#BPMS:0.000=125.000
,36.000=83.000
,40.000=125.000
,66.000=134.275
,68.000=100.000
,100.000=128.000
,101.000=129.000
,102.000=128.000
,103.000=127.000
,104.000=127.500
,105.000=128.000
,140.000=150.000
,236.000=125.000
,288.000=128.000
;
#STOPS:39.000=0.181;
#WARPS:64.667=1.375;
#TIMESIGNATURES:0.000=4=4,
100.000=5=4,
105.000=4=4,
137.000=3=4,
140.000=4=4
;
#BGCHANGES:;
#FGCHANGES:;

//--------------- dance-single - chronon ----------------
#NOTEDATA:;
#STEPSTYPE:dance-single;
#DESCRIPTION:chronon;
#DIFFICULTY:Beginner;
#METER:4;
#RADARVALUES:0,0,0,0,0;
#NOTES:
0000
0000
0000
0000
,
0000
0000
0000
0000
,
0000
0000
0000
0000
,
0000
0000
0000
0000
,
0000
0000
0000
0000
,
1000
0000
0010
0000
,
0000
0000
0100
0000
,
0001
0000
1000
0000
,
0000
0000
0100
0000
,
1000
0000
0000
0001
,
0000
0000
1000
0000
,
0000
0000
0010
0000
,
1000
0000
0100
0000
,
0000
0000
0010
0000
,
0001
0000
0100
0000
,
0000
0000
0010
0000
,
2000
0000
0000
0000
0000
0000
0000
0000
0000
0000
0000
0000
0000
0000
0000
0000
0000
0000
0000
0000
0000
0000
0000
0000
0000
0000
0000
0000
0000
0000
0000
3000
0000
0000
0000
0000
0000
0000
0000
0000
0000
0000
0000
0000
0000
0000
0000
0000
0001
0000
0000
0100
0000
0000
1000
0000
0000
0100
0000
0000
0001
0000
0000
0100
0000
0000
1000
0000
0000
0100
0000
0000
0001
0000
0000
0100
0000
0000
1000
0000
0000
0100
0000
0000
0001
0000
0000
0100
0000
0000
1000
0000
0000
0100
0000
0000
0001
0000
0000
0000
0000
0000
0000
0000
0000
0000
0000
0000
0000
0000
0000
0000
0000
0000
0000
0000
0000
0000
0000
0000
0000
0000
0000
0000
0000
0000
0000
0000
0000
0000
0000
0000
0000
0000
0000
0000
0000
0000
0000
0000
0000
0000
0000
0000
0000
0000
0000
0000
0000
0000
0000
0000
0000
0000
0000
0000
0000
0000
0000
0000
0000
0000
0000
0000
0000
0000
0000
0000
0000
0000
0000
0000
0000
0000
0000
0000
0000
0000
0000
0000
0000
0000
0000
0000
0000
0000
0000
0000
0000
0000
0000
0000
,
0001
0100
0100
0000
,
0001
1000
1000
0000
,
0002
0000
0003
0000
,
0001
1000
0001
0000
,
1000
0100
0100
0000
,
1000
0001
0001
0000
,
1000
0010
0010
0000
,
1000
0001
1000
0000
,
0002
0000
0000
0000
,
0003
1000
0000
0100
,
0000
0010
0000
0010
,
0000
0001
0000
0200
,
0000
0000
0300
0000
,
0000
0001
0000
0100
,
0000
0010
0000
0010
,
0000
2000
0000
3000
,
0000
0001
0000
1000
,
0000
0000
0000
0000
,
0000
0000
0000
0000
,
0000
0000
0000
0000
,
0000
0000
0000
0000
,
0001
0001
0001
0000
,
1000
1000
1000
0000
,
0001
0000
1000
0000
,
0002
0000
0000
0003
,
1000
0000
0100
0000
,
1000
0000
0001
0000
,
1000
0000
0010
0000
,
1000
0000
0001
0000
,
0001
0100
0001
0000
,
0001
0100
0001
0000
,
0001
0100
0001
0000
,
0100
0000
0010
0000
,
1000
0000
0001
0000
,
1000
0000
0100
0000
,
1000
0000
0001
0000
,
1000
0000
0010
0000
,
1000
0010
1000
0000
,
1000
0010
1000
0000
,
0002
0000
0003
2000
,
0000
3000
0000
0000
,
0000
0000
0000
0000
,
0001
0000
0100
0000
,
0000
0000
0010
0000
,
1000
0000
0100
0000
,
0000
0000
0000
0000
0020
0030
0000
0000
,
0001
0000
0010
0000
,
0000
0000
0100
0000
,
2000
0000
0000
3000
,
0000
0000
0001
0000
,
1000
0000
0010
0000
,
0100
0000
0100
0000
,
0001
0000
0100
0000
,
0010
0000
0010
0000
,
1000
0000
0001
0000
,
1000
0000
1000
0000
,
0001
0000
0000
0000
,
0001
0000
0001
0000
,
1000
0000
0000
0000
,
0010
0000
0010
0000
,
1000
0000
0000
0000
,
0100
0000
0100
0000
,
1000
0000
0000
0000
;

//--------------- dance-single - chronon ----------------
#NOTEDATA:;
#STEPSTYPE:dance-single;
#DESCRIPTION:chronon;
#DIFFICULTY:Easy;
#METER:8;
#RADARVALUES:0,0,0,0,0;
#NOTES:
0000
0000
0000
0000
,
0000
0000
0000
0000
,
0000
0000
0000
0000
,
0000
0000
0000
0000
,
0000
0000
0000
0000
,
0001
0000
0010
0000
0001
0010
0000
0100
,
0000
0000
1000
0000
0020
0000
0030
0010
,
1000
0000
0010
0000
1000
0010
0000
0100
,
0000
0001
0010
0000
,
0001
0010
0001
0000
1000
0000
1001
0000
,
0001
0100
0010
1000
,
0001
0010
0100
0000
,
1000
0100
0010
0001
,
1000
0010
0100
0000
,
0001
1000
0100
1000
,
0001
0100
0001
0000
,
2000
0000
0000
0000
0000
0000
0000
0000
0000
0000
0000
0000
0000
0000
0000
0000
0000
0000
0000
0000
0000
0000
0000
0000
0000
0000
0000
0000
0000
0000
0000
3000
0000
0000
0000
0000
0000
0000
0000
0000
0000
0000
0000
0000
0000
0000
0000
0000
1000
0000
0000
0100
0000
0000
0001
0000
0000
0100
0000
0000
1000
0000
0000
0100
0000
0000
0001
0000
0000
0100
0000
0000
1000
0000
0000
0100
0000
0000
0001
0000
0000
0100
0000
0000
1000
0000
0000
0100
0000
0000
0001
0000
0000
0100
0000
0000
1000
0000
0000
0000
0000
0000
0000
0000
0000
0000
0000
0000
0000
0000
0000
0000
0000
0000
0000
0000
0000
0000
0000
0000
0000
0000
0000
0000
0000
0000
0000
0000
0000
0000
0000
0000
0000
0000
0000
0000
0000
0000
0000
0000
0000
0000
0000
0000
0000
0000
0000
0000
0000
0000
0000
0000
0000
0000
0000
0000
0000
0000
0000
0000
0000
0000
0000
0000
0000
0000
0000
0000
0000
0000
0000
0000
0000
0000
0000
0000
0000
0000
0000
0000
0000
0000
0000
0000
0000
0000
0000
0000
0000
0000
0000
0000
,
0001
0010
0100
0000
1000
0000
0001
0000
,
1000
0010
0100
0000
0001
0000
1000
0001
,
1000
0000
0000
0000
0000
0000
0000
0000
0000
0000
0000
0200
0000
0000
0000
0000
0000
0000
0000
0000
0000
0000
0000
0000
0000
0000
0000
0300
0000
0000
0000
0000
1000
0000
0000
0000
0000
0000
0000
0000
0000
0000
0000
0000
0000
0000
0000
0000
0001
0000
0000
0000
0000
0000
0000
0000
0000
0000
0000
0000
0000
0000
0000
0000
,
1000
0010
0100
0000
0001
0000
1000
0001
,
1000
0100
0010
0000
0001
0000
1000
0000
,
0001
0100
0010
0000
1000
0000
0001
0000
,
1000
0001
0100
0000
0001
0000
1000
0000
,
0001
1000
0100
0000
1000
0000
0001
0000
,
2000
0000
0000
0000
,
3000
0000
0001
0000
0010
0100
0010
0000
,
0100
2000
0000
3001
1000
0000
0010
0000
,
0100
0000
0001
0000
0100
0010
0200
0000
,
0000
0000
0310
1000
,
0100
0000
1000
0000
0100
0010
0001
0000
,
1000
0002
0000
0103
0001
0000
0100
0000
,
0010
0000
0000
0000
0000
0000
0000
0000
0000
0000
0000
0000
0000
0000
0000
0000
1000
0000
0000
0000
0000
0000
0000
0000
0001
0000
0000
0000
0000
0000
0000
0000
0000
0000
0000
0001
0000
0000
0000
0000
0000
0000
0000
0000
0000
0000
0000
0000
1000
0000
0000
0000
0000
0000
0000
0000
0000
0000
0000
0000
0000
0000
0000
0000
,
0100
0020
0000
0130
1000
0000
0001
0000
,
0000
1000
0000
0000
,
0000
0000
0000
0000
,
0000
0000
0000
0000
,
0000
0000
0000
0000
,
0001
0100
0010
0000
0001
0000
0010
0000
,
1000
0010
0100
0000
1000
0000
0100
0000
,
0001
1000
0001
0000
0001
1000
0001
0000
,
2000
3000
0200
0300
0020
0030
0200
0000
,
1300
0000
0000
0001
0000
0000
0100
0000
0001
0000
0000
1000
0000
0000
0100
0000
,
1000
0000
0000
0001
0000
0000
0100
0000
0001
0000
0000
0000
1000
0000
0000
0000
,
0001
0000
0000
1000
0000
0000
0010
0000
1000
0000
0000
0001
0000
0000
0010
0000
,
0001
1000
0100
0020
,
0031
0000
0000
1000
0000
0000
0001
0000
0100
0000
0000
0001
0000
0000
0100
0000
,
0001
0000
0000
1000
0000
0000
0001
0000
0010
0000
0000
0001
0000
0000
0010
0000
,
0001
0000
0000
1000
0000
0000
0001
0000
0100
0000
0000
0000
0010
0000
0000
0000
,
1000
0010
0100
0000
1000
0000
0100
0000
,
0010
0000
1000
0001
0010
0000
0100
0000
,
0000
0000
0100
1000
0001
0000
0000
0000
,
0100
0000
0001
1000
0010
0000
0100
0000
,
0000
0100
0000
0001
1000
0000
0200
0000
,
1300
0100
0010
0000
1000
0100
0010
0000
,
1000
0100
0010
0000
0001
0000
1000
0000
,
0001
0000
0000
0001
0000
0000
0001
0000
0000
0000
0000
0000
1000
0000
0000
1000
,
0000
1000
0000
0100
0010
0000
0200
0000
,
0300
0000
0000
0000
,
1000
0000
0100
0000
1000
0100
0000
0010
,
0000
0001
0100
0000
,
0001
0000
0100
0000
0001
0100
0000
0010
,
0000
0000
0000
0000
0000
0000
0000
0000
1000
0000
0000
0000
0000
0000
0000
0000
0100
0000
0000
0000
0020
0030
0000
0000
0000
0000
0000
0000
0000
0000
0000
0000
,
0001
0000
0010
0000
0001
0010
0000
0100
,
0000
1000
0010
0000
,
2000
0000
0000
0000
0000
0000
0000
0000
0000
0000
0000
0000
0000
0000
0000
0000
0000
0000
0000
0000
0000
0000
0000
0000
0000
0000
0000
0000
0000
3000
0000
0000
0000
0000
0000
0000
0000
0000
0000
0000
0000
0000
0010
0000
0000
0000
0000
0000
,
0000
1000
0100
0000
,
1000
0100
1000
0000
0001
0000
1000
0001
,
0000
0001
0100
0000
0010
0000
0100
0000
,
0001
0000
0100
0000
0001
0000
0000
0000
1000
0000
0000
0100
0000
0000
1000
0000
,
0100
0010
0001
0100
,
0001
0010
0001
0000
1000
0000
0000
0000
,
0002
0003
0100
0000
0010
0000
1000
0000
,
0001
0010
0100
0100
,
1000
0010
0100
0001
,
1000
0100
0010
0100
,
2000
3100
0010
0001
,
1000
0010
0100
0100
,
0001
0100
0010
1000
,
0001
0010
0100
0200
,
0300
0000
0000
0000
;

//--------------- dance-single - chronon ----------------
#NOTEDATA:;
#STEPSTYPE:dance-single;
#DESCRIPTION:chronon;
#DIFFICULTY:Medium;
#METER:12;
#RADARVALUES:0,0,0,0,0;
#NOTES:
0000
0000
0000
0000
,
0000
0000
0000
0000
,
0000
0000
0000
0000
,
0000
0000
0000
0000
,
0000
0000
0000
0000
,
1000
0010
0010
0010
1000
0010
0000
0100
,
0000
0001
1000
0001
0010
0000
0000
0201
,
0301
0100
0100
0100
0001
0100
0000
0010
,
0000
1000
0001
1000
0100
0000
0000
0000
,
1000
0000
0100
0000
0010
0002
0000
0103
0000
0100
0010
0000
1001
0000
0000
0000
,
0001
0100
0010
0100
0001
0000
1000
0100
,
0000
0010
0000
0100
1001
0000
0000
0000
,
1000
0010
0100
0010
1000
0000
0001
0010
,
0000
0100
0000
0010
1001
0000
0000
0000
,
0001
0100
0010
1000
0001
0000
0010
0100
,
0000
0100
0000
0100
1001
0000
0000
0000
,
1000
0000
0000
0000
0000
0000
0000
0000
0000
0000
0000
0000
0001
0000
0000
0000
0000
0000
0000
0000
0000
0000
0000
0000
0000
0000
0000
0000
0000
0000
0000
0100
0000
0000
0000
0000
0000
0000
0000
0000
0000
0000
0000
0000
0000
0000
0000
0000
0001
0000
0000
0100
0000
0000
1000
0000
0000
0100
0000
0000
0001
0000
0000
0100
0000
0000
1000
0000
0000
0100
0000
0000
0001
0000
0000
0100
0000
0000
1000
0000
0000
0100
0000
0000
0001
0000
0000
0100
0000
0000
1000
0000
0000
0100
0000
0000
0001
0000
0000
0000
0000
0000
0000
0000
0000
0000
0000
0000
0000
0000
0000
0000
0000
0000
0000
0000
0000
0000
0000
0000
0000
0000
0000
0000
0000
0000
0000
0000
0000
0000
0000
0000
0000
0000
0000
0000
0000
0000
0000
0000
0000
0000
0000
0000
0000
0000
0000
0000
0000
0000
0000
0000
0000
0000
0000
0000
0000
0000
0000
0000
0000
0000
0000
0000
0000
0000
0000
0000
0000
0000
0000
0000
0000
0000
0000
0000
0000
0000
0000
0000
0000
0000
0000
0000
0000
0000
0000
0000
0000
0000
0000
0000
,
0001
0100
0010
1000
0000
1000
0100
0000
,
1000
0100
0010
0001
0000
0001
1000
0010
,
1000
0000
0000
0000
0000
0000
0000
0000
0000
0000
0000
0000
0000
0000
0000
0000
0000
0000
0000
0000
0000
0000
0000
0000
0000
0000
0000
0000
0000
0000
0000
0000
0000
0010
0000
0000
0000
0000
0000
0000
0000
0000
0000
0000
0000
0000
0000
0000
0000
0000
0000
0000
0000
0100
0000
0000
0000
0000
0000
0000
0000
0000
0000
0000
0000
0000
0000
0010
0000
0000
0000
0000
0000
0000
0000
0000
0000
0000
0000
0000
0000
0100
0000
0000
0000
0000
0000
0000
0000
0000
0000
0000
0000
0000
0000
0000
0000
0000
0000
0000
0000
0000
0000
0000
0000
0000
0000
0000
0000
0000
0000
0000
0000
0000
0000
0000
0000
0000
0000
0000
0001
0000
0000
0000
0000
0000
0000
0000
0000
0000
0000
0000
0000
0000
0000
0000
0000
0000
0000
0000
0000
0000
0000
0000
1000
0000
0000
0000
0000
0000
0000
0000
0000
0000
0000
0000
0000
0000
0000
0000
0000
0000
0000
0000
0000
0000
0000
0000
0000
0000
0000
0000
0000
0000
0000
0000
0000
0000
0000
0000
0000
0000
0000
0000
0000
0000
0000
0000
0000
0000
0000
0000
,
0001
0010
0100
1000
0000
1000
0001
0100
,
0010
1000
0001
0010
0000
0010
0100
0000
,
0010
0001
1000
0010
0000
0010
0100
0001
,
0100
0001
1000
0100
0000
0100
0010
0000
,
0100
1000
0001
0100
0000
0100
0010
0000
,
4000
0000
0000
0000
,
3000
0000
0002
0000
1003
0100
0010
0100
,
1000
0020
0000
1030
0010
0100
0001
0000
,
0100
0000
0000
0000
0000
0000
0000
0000
0000
0000
0000
0000
0000
0000
0000
0000
0000
0000
0000
0000
0000
0000
0000
0000
0001
0000
0000
0000
0000
0000
0000
0000
0000
0000
0000
0000
0000
0000
0000
0000
0000
0000
0000
0000
0000
0000
0000
0000
2000
0000
0000
0000
0000
0000
0000
0000
0000
0000
0000
0000
0000
0000
0000
0000
0000
0000
0000
0000
0000
0000
0000
0000
0000
0000
0000
0000
0000
0000
0000
0000
0000
0000
0000
0000
0000
0000
0000
0000
0000
0000
0000
0000
0000
0000
0000
0000
3001
0000
0000
0000
0000
0000
0000
0000
0000
0000
0000
0000
0000
0000
0000
0000
0000
0000
0000
0000
0000
0000
0000
0000
0010
0000
0000
0000
0000
0000
0000
0000
0000
0000
0000
0000
0000
0000
0000
0000
0000
0000
0000
0000
0000
0000
0000
0000
0100
0000
0000
0000
0000
0000
0000
0000
0000
0000
0000
0000
0000
0000
0010
0000
0000
0000
0000
0000
0000
0000
0000
0000
0000
0000
0000
0000
0000
0000
0000
0000
0000
0000
0000
0001
0000
0000
0000
0000
0000
0000
0000
0000
0000
0000
0000
0000
,
0000
0000
0000
0000
0000
0000
0000
1000
0000
0000
0000
0000
0000
0000
0000
0000
0000
0000
0000
0000
0000
0000
0000
0000
0000
0000
0000
0000
0001
0000
0000
0000
0000
0000
0000
0000
0000
0000
0000
0000
0000
0000
0000
0000
0000
0000
0000
0000
0100
0000
0000
0000
0000
0000
0000
0000
0000
0000
0000
0000
0000
0000
0000
0000
0000
0000
0000
0000
0000
0001
0000
0000
0000
0000
0000
0000
0000
0000
0000
0000
0000
0000
0000
0000
0000
0000
0000
0000
0000
0000
0000
0000
0000
0000
0000
0000
0100
0000
0000
0000
0000
0000
0000
0000
0000
0000
0000
0000
0000
0000
0000
0000
0000
0000
0000
0000
0000
0000
0000
0000
0010
0000
0000
0000
0000
0000
0000
0000
0000
0000
0000
0000
0000
0000
0000
0000
0000
0000
0000
0000
0000
0000
0000
0000
1000
0000
0000
0000
0000
0000
0000
0000
0000
0000
0000
0000
0000
0000
0000
0000
0000
0000
0000
0000
0000
0000
0000
0000
0000
0000
0000
0000
0000
0000
0000
0000
0000
0000
0000
0000
0000
0000
0000
0000
0000
0000
0000
0000
0000
0000
0000
0000
,
0010
1000
0200
0000
0310
0100
1000
0100
,
0010
2000
0000
3010
0100
1000
0010
0000
,
1000
0000
0000
0000
0000
0000
0000
0000
0010
0000
0000
0000
0000
0000
0000
0000
0200
0000
0000
0000
0000
0000
0000
0000
1000
0000
0000
0000
0000
0000
0000
0000
0000
0000
0000
0301
0000
0000
0000
0000
0000
0000
0000
0000
0000
0000
0000
0000
1000
0000
0000
0000
0000
0000
0000
0000
0010
0000
0000
0000
0000
0000
0000
0000
,
1000
0200
0000
1300
0100
0010
0001
0000
,
0000
0000
0000
0000
1000
0001
0000
0000
0000
0000
0000
0000
0000
0000
0000
0000
,
0000
0000
0000
0000
,
0000
0000
0000
0000
,
0000
0000
0000
0000
,
1000
0010
0001
0010
0100
0001
1000
0000
,
0001
0010
1000
0010
0100
1000
0001
0000
,
1000
0010
0001
0000
1000
0100
0001
0000
,
2000
3000
0200
0300
0020
0130
2000
0000
,
3200
0000
0000
0010
0000
0000
0001
0000
0320
0000
0000
0100
0000
0000
1000
0000
,
0230
0000
0000
0010
0000
0000
0301
0000
0100
0000
1000
0000
0010
0000
0100
0000
,
0020
0000
0000
0100
0000
0000
0001
0000
0230
0000
0000
0010
0000
0000
1300
0000
,
0100
0001
0010
0100
0010
0001
2000
0000
,
3001
0000
1000
0001
0000
0100
0001
0000
1000
0000
0001
1000
0000
0100
1000
0000
,
0001
0000
1000
0001
0000
0010
0001
0000
1000
0000
0001
1000
0000
0010
1000
0000
,
0001
0000
1000
0001
0000
0100
0001
0000
0100
0000
0001
0000
1000
0000
0000
0000
,
0001
0100
1000
0100
0010
1000
0001
0000
,
1000
0000
0001
0100
0000
0010
0100
0000
0110
0000
0000
0000
0010
0000
1000
0000
,
0001
0000
1000
0100
0000
0010
0100
0000
0001
0000
0100
0000
1000
0000
0000
0000
,
0001
0000
1000
0010
0000
0100
0010
0000
0110
0000
0000
0000
0100
0000
0001
0000
,
1000
0000
0001
1000
0001
0000
0010
0000
0100
0000
0100
0000
1000
0000
0000
0000
,
0100
2000
0010
3001
0100
0002
0010
1003
,
0100
2000
0010
3001
0100
0001
1000
0000
,
0001
0000
0000
1000
0000
0000
0100
0000
1200
0000
0000
0000
1300
0000
0000
0001
,
0000
0100
0001
1000
0001
0010
0200
0000
,
0300
0000
0000
0000
,
1000
0010
0010
0010
1000
0010
0000
0100
,
0000
0001
1000
0001
0010
0000
0000
0000
,
0001
0100
0100
0100
0001
0100
0000
0010
,
0000
0000
0000
0000
1000
0000
0000
0000
0001
0000
0000
0000
1000
0000
0000
0000
0100
0000
0000
0000
2020
3030
0000
0000
0000
0000
0000
0000
0000
0000
0000
0000
,
1000
0100
0100
0100
1000
0100
0000
0010
,
0000
0001
1000
0001
0100
0000
0000
0000
,
0001
0000
0000
0000
0000
0000
0000
0000
0000
0000
0000
0000
0000
0000
0000
0000
0000
0000
0000
0000
0000
0000
0000
0000
0000
0000
0000
0000
0000
0000
0000
0000
0000
0000
0000
0000
0000
0000
0000
0000
0000
0000
0000
0000
0100
0000
0000
0000
0000
0000
0000
0000
0000
0000
0000
0000
0000
0000
0000
0000
0000
0000
0000
0000
0000
0000
0000
0000
0000
0000
0000
0000
0000
0000
0000
1000
0000
0000
0000
0000
0000
0000
0000
0000
0000
0000
0000
0000
0000
0000
0000
0000
0000
0000
0100
0000
0000
0000
0000
0000
0000
0000
0000
0000
0000
0000
0000
0000
0000
0000
0000
0000
0000
0000
0000
0000
0001
0000
0000
0000
0000
0000
0000
0000
0000
0000
0000
0000
0000
0000
0000
0000
0000
0000
0000
0000
0000
0000
0000
0000
0000
0000
0000
0000
0000
0000
0000
0000
0000
0000
0000
0000
0000
0000
0000
0000
0000
0000
0000
0000
0000
0000
0000
0000
0000
0000
0000
0000
0100
0000
0000
0000
0000
0000
0000
0000
0000
0000
0000
0000
0000
0000
0000
0000
0000
0000
0000
0000
0000
0000
0000
0000
,
0000
0001
1000
0001
0010
0000
0000
0000
,
0001
0010
0100
1000
0010
1000
0001
0100
,
0000
0000
0100
0000
0010
0000
1000
0001
0010
0000
0000
0000
0001
0000
0010
0001
,
1000
0000
0100
0000
0010
0000
0001
0000
0100
0000
0002
0100
0000
2003
0100
0000
,
3001
0000
0000
0000
1000
0000
0000
0000
0001
0000
0000
0000
0100
0000
0000
0000
0010
0000
0000
0000
0000
0000
0000
0000
0400
0300
0000
0000
0400
0300
0000
0000
,
0010
1000
0001
1000
0100
0000
0000
0000
,
2000
0000
0000
3100
0000
0010
0000
0000
0000
0100
0000
0000
1000
0000
0000
0001
0000
0000
1000
0000
0000
0010
0000
0000
,
1000
0000
0000
0010
0000
0100
0000
0000
0000
0010
0000
0000
0100
0000
0000
0001
0000
0000
1000
0000
0000
0000
0000
0000
,
0001
0000
0000
0010
0000
0100
0000
0000
0000
0010
0000
0000
0001
0000
0000
1000
0000
0000
0001
0000
0000
0100
0000
0000
,
0001
0000
0000
0100
0000
0010
0000
0000
0000
0100
0000
0000
0010
0000
0000
0100
0000
0000
1000
0000
0000
0100
0000
0000
,
0002
0000
0000
0103
0000
0010
0000
0000
0000
0100
0000
0000
0001
0000
0000
1000
0000
0000
0001
0000
0000
0010
0000
0000
,
0001
0000
0000
0010
0000
0100
0000
0000
0000
0010
0000
0000
0100
0000
0000
1000
0000
0000
0001
0000
0000
0000
0000
0000
,
1000
0000
0000
0010
0000
0100
0000
0000
0000
0010
0000
0000
1000
0000
0000
0001
0000
0000
1000
0000
0000
0100
0000
0000
,
1000
0000
0000
0100
0000
0010
0000
0000
0000
0100
0000
0000
0010
0000
0000
0100
0000
0000
0001
0000
0000
0200
0000
0000
,
0300
0000
0000
0000
;

//--------------- dance-single - chronon ----------------
#NOTEDATA:;
#STEPSTYPE:dance-single;
#DESCRIPTION:chronon;
#DIFFICULTY:Hard;
#METER:15;
#RADARVALUES:0,0,0,0,0;
#NOTES:
0000
0000
0000
0000
,
0000
0000
0000
0000
,
0000
0000
0000
0000
,
0000
0000
0000
0000
,
0000
0000
0000
0000
,
0001
0010
0010
0010
0001
0010
0000
0100
,
0000
0010
0001
0100
1000
0000
0000
0102
,
1003
0100
0100
0100
1000
0100
0000
0010
,
0000
0100
1000
0001
0100
0000
0000
0000
,
0102
0000
1003
0000
1100
1000
0001
0100
0000
0100
0010
0000
1001
0000
0000
0000
,
0001
0000
0010
0100
1000
0000
0001
0000
0101
0000
0100
0001
1000
0000
0001
1000
,
0001
0010
0000
0100
1001
0000
0000
0000
,
1000
0000
0010
0100
0001
0000
1000
0000
1100
0000
0100
1000
0001
0000
1000
0001
,
1000
0010
0000
0100
1001
0000
0000
0000
,
0001
0000
0010
0001
1000
0000
0010
0000
0110
0000
0100
0010
1000
0000
0100
1000
,
0100
0010
0000
0100
1001
0000
0000
0000
,
1000
0000
0000
0000
0000
0000
0000
0000
0000
0000
0000
0000
0001
0000
0000
0000
0000
0000
0000
0000
0000
0000
0000
0000
0000
0000
0000
0000
0000
0000
0000
1001
0000
0000
0000
0000
0000
0000
0000
0000
0000
0000
0000
0000
0000
0000
0000
0000
1000
0000
0000
0100
0000
0000
0001
0000
0000
0100
0000
0000
1000
0000
0000
0100
0000
0000
0001
0000
0000
0100
0000
0000
1000
0000
0000
0100
0000
0000
0001
0000
0000
0100
0000
0000
1000
0000
0000
0100
0000
0000
0001
0000
0000
0100
0000
0000
1000
0000
0000
0000
0000
0000
0000
0000
0000
0000
0000
0000
0000
0000
0000
0000
0000
0000
0000
0000
0000
0000
0000
0000
0000
0000
0000
0000
0000
0000
0000
0000
0000
0000
0000
0000
0000
0000
0000
0000
0000
0000
0000
0000
0000
0000
0000
0000
0000
0000
0000
0000
0000
0000
0000
0000
0000
0000
0000
0000
0000
0000
0000
0000
0000
0000
0000
0000
0000
0000
0000
0000
0000
0000
0000
0000
0000
0000
0000
0000
0000
0000
0000
0000
0000
0000
0000
0000
0000
0000
0000
0000
0000
0000
0000
0000
,
0001
0000
0000
0000
0000
0000
0000
0000
0100
0000
0000
0000
0000
0000
0000
0000
0010
0000
0000
0000
0000
0000
0000
0000
0100
0000
0000
0000
0000
0001
0000
0000
0000
0000
0000
0000
0000
0001
0000
0000
1000
0000
0000
0000
0000
0000
0000
0000
0100
0000
0000
0000
0000
0000
0000
0000
0100
0000
0000
0000
0000
0000
0000
0000
,
1000
0000
0000
0000
0000
0000
0000
0000
0100
0000
0000
0000
0000
0010
0000
0000
0100
0000
0000
0000
0000
0000
0000
0000
0010
0000
0000
0000
0000
0001
0000
0000
0000
0000
0000
0000
0000
0001
0000
0000
1000
0000
0000
0000
0000
0000
0000
0000
0010
0000
0000
0000
0000
0000
0000
0000
0100
0000
0000
0000
0000
0001
0000
0000
,
1000
0000
0000
0000
0000
0000
0000
0000
0000
0000
0000
0000
0000
0000
0000
0000
0000
0000
0000
0000
0000
0000
0000
0000
0000
0000
0000
0000
0000
0000
0000
0000
0000
0100
0000
0000
0000
0000
0000
0000
0000
0000
0000
0000
0000
0000
0000
0000
0000
0000
0000
0000
0000
0100
0000
0000
0000
0000
0000
0000
0000
0000
0000
0000
0000
0000
0000
0100
0000
0000
0000
0000
0000
0000
0000
0000
0000
0000
0000
0000
0000
0100
0000
0000
0000
0000
0000
0000
0000
0000
0000
0000
0000
0000
0000
0000
0000
0000
0000
0000
0000
0000
0000
0000
0000
0000
0000
0000
0000
0000
0000
1000
0000
0000
0000
0000
0000
0000
0000
0000
0001
0000
0000
0000
0000
0000
0000
0000
0000
0000
0000
0000
0000
0000
0000
0000
0000
0000
0000
0000
0000
0000
0000
0000
0100
0000
0000
0000
0000
0000
0000
0000
0000
0000
0000
0000
0000
0000
0000
0000
0000
0000
0000
0000
0000
0000
0000
0000
0100
0000
0000
0000
0000
0000
0000
0000
0000
0000
0000
0000
0000
0000
0000
0000
0000
0000
0000
0000
0000
0000
0000
0000
,
0001
0000
0000
0000
0000
0000
0000
0000
0100
0000
0000
0000
0000
0010
0000
0000
0100
0000
0000
0000
0000
0000
0000
0000
0001
0000
0000
0000
0000
1000
0000
0000
0000
0000
0000
0000
0000
1000
0000
0000
0100
0000
0000
0000
0000
0000
0000
0000
0010
0000
0000
0000
0000
0000
0000
0000
0100
0000
0000
0000
0000
1000
0000
0000
,
0001
0000
0000
0000
0000
0000
0000
0000
0100
0000
0000
0000
0000
0000
0000
0000
0010
0000
0000
0000
0000
0000
0000
0000
1000
0000
0000
0000
0000
0010
0000
0000
0000
0000
0000
0000
0000
0010
0000
0000
1000
0000
0000
0000
0000
0000
0000
0000
0001
0000
0000
0000
0000
0000
0000
0000
0001
0000
0000
0000
0000
0000
0000
0000
,
0010
0000
0000
0000
0000
0000
0000
0000
0100
0000
0000
0000
0000
0010
0000
0000
0001
0000
0000
0000
0000
0000
0000
0000
1000
0000
0000
0000
0000
0010
0000
0000
0000
0000
0000
0000
0000
0010
0000
0000
0100
0000
0000
0000
0000
0000
0000
0000
0010
0000
0000
0000
0000
0000
0000
0000
1000
0000
0000
0000
0000
0001
0000
0000
,
1000
0000
0000
0000
0000
0000
0000
0000
0100
0000
0000
0000
0000
0000
0000
0000
0010
0000
0000
0000
0000
0000
0000
0000
0001
0000
0000
0000
0000
0010
0000
0000
0000
0000
0000
0000
0000
0010
0000
0000
0001
0000
0000
0000
0000
0000
0000
0000
1000
0000
0000
0000
0000
0000
0000
0000
1000
0000
0000
0000
0000
0000
0000
0000
,
0010
0000
0000
0000
0000
0000
0000
0000
0100
0000
0000
0000
0000
0010
0000
0000
1000
0000
0000
0000
0000
0000
0000
0000
0001
0000
0000
0000
0000
0010
0000
0000
0000
0000
0000
0000
0000
0010
0000
0000
0100
0000
0000
0000
0000
0000
0000
0000
1000
0000
0000
0000
0000
0000
0000
0000
0000
0000
0000
0000
0000
0000
0000
0000
,
0004
0000
0000
0000
,
0003
0000
2000
0000
3100
0010
0002
1000
,
0203
0010
0000
0301
1000
0001
0010
0000
,
0100
0000
0000
0000
0000
0000
0000
0000
0000
0000
0000
0000
0000
0000
0000
0000
0000
0000
0000
0000
0000
0000
0000
0000
0010
0000
0000
0000
0000
0000
0000
0000
0000
0000
0000
0000
0000
0000
0000
0000
0000
0000
0000
0000
0000
0000
0000
0000
0002
0000
0000
0000
0000
0000
0000
0000
0000
0000
0000
0000
0000
0000
0000
0000
0000
0000
0000
0000
0000
0000
0000
0000
0000
0000
0000
0000
0000
0000
0000
0000
0000
0000
0000
0000
0000
0000
0000
0000
0000
0000
0000
0000
0000
0000
0000
0000
0103
0000
0000
0000
0000
0000
0000
0000
0000
0000
0000
0000
0000
0000
0000
0000
0000
0000
0000
0000
0000
0000
0000
0000
0010
0000
0000
0000
0000
0000
0000
0000
0000
0000
0000
0000
0000
0000
0000
0000
0000
0000
0000
0000
0000
0000
0000
0000
1000
0000
0000
0000
0000
0000
0000
0000
0000
0000
0000
0000
0000
0000
2010
0000
0000
0000
0000
0000
0000
0000
0000
0000
0000
0000
0000
0000
0000
0000
0000
0000
0000
0000
0000
3100
0000
0000
0000
0000
0000
0000
0000
0000
0000
0000
0000
0000
,
0000
0000
0000
0000
0000
0000
0000
0012
0000
0000
0000
0000
0000
0000
0000
0000
0000
0000
0000
0000
0000
0000
0000
0000
0000
0000
0000
0000
0103
0000
0000
0000
0000
0000
0000
0000
0000
0000
0000
0000
0000
0000
0000
0000
0000
0000
0000
0000
2010
0000
0000
0000
0000
0000
0000
0000
0000
0000
0000
0000
0000
0000
0000
0000
0000
0000
0000
0000
0000
3100
0000
0000
0000
0000
0000
0000
0000
0000
0000
0000
0000
0000
0000
0000
0000
0000
0000
0000
0000
0000
0000
0000
0000
0000
0000
0000
1000
0000
0000
0000
0000
0000
0000
0000
0000
0000
0000
0000
0000
0000
0000
0000
0000
0000
0000
0000
0000
0000
0000
0000
0001
0000
0000
0000
0000
0000
0000
0000
0000
0000
0000
0000
0000
0000
0000
0000
0000
0000
0000
0000
0000
0000
0000
0000
0100
0000
0000
0000
0000
0000
0000
0000
0000
0000
0000
0000
0000
0000
0000
0000
0000
0000
0000
0000
0000
0000
0000
0000
0000
0000
0000
0000
0000
0000
0000
0000
0000
0000
0000
0000
0000
0000
0000
0000
0000
0000
0000
0000
0000
0000
0000
0000
,
1000
0100
0020
0000
1030
0200
0001
0310
,
0200
0001
0000
0310
0100
1000
0010
0000
,
0100
0000
0000
0000
0000
0000
0000
0000
0010
0000
0000
0000
0000
0000
0000
0000
1000
0000
0000
0000
0000
0000
0000
0000
1010
0000
0000
0000
0000
0000
0000
0000
0000
0000
0000
0101
0000
0000
0000
0000
0000
0000
0000
0000
0000
0000
0000
0000
0002
0000
0000
0000
0000
0000
0000
0000
1000
0000
0000
0000
0000
0000
0000
0000
,
0023
0100
0000
0031
1000
0001
0100
0000
,
0000
0000
0000
0000
0010
0010
0000
0000
0000
0000
0000
0000
0000
0000
0000
0000
,
0000
0000
0000
0000
,
0000
0000
0000
0000
,
0000
0000
0000
0000
,
1000
0000
0010
0000
0001
0000
0010
0100
0001
0000
0010
0000
0100
0000
0010
0000
,
0001
0000
0010
0000
1000
0000
0010
0100
1000
0000
0010
0000
0100
0000
0010
0000
,
1000
0M10
0010
0001
1000
01M0
0100
0001
,
2001
0000
3000
0000
1200
0000
0300
0000
0120
0000
0130
1000
0010
0000
0100
0000
,
0020
0000
1030
0100
0000
0M01
1000
0000
0020
0000
1030
0100
0000
0M01
1000
0000
,
0020
0000
1030
0100
0000
0M01
1000
0000
0010
0000
0200
0000
1000
0000
0301
0000
,
0020
0000
0031
0100
0000
1M00
0001
0000
0020
0000
0031
0100
0000
1M00
0001
0000
,
0010
0000
0200
0000
0001
0000
1300
0000
0001
0000
0010
0001
0200
0000
0000
0000
,
0301
0100
0010
0100
0001
1000
0001
0000
1000
0100
0010
0100
1000
0001
1000
0000
,
0010
0100
0001
0100
0010
1000
0001
0000
0010
0100
1000
0100
0010
0001
1000
0000
,
0100
1000
0001
1000
0010
0100
0010
0000
0001
0010
0100
0010
2000
0000
0000
0000
,
3001
0000
0010
0000
1000
0000
0010
0100
1000
0001
1000
0000
0010
0100
0001
1000
,
0001
0000
0010
0100
0000
1000
0010
0000
1010
0000
0010
0100
0000
0001
0010
0000
,
0001
0000
0010
0100
0000
1000
0010
0100
1000
0100
0010
0000
0010
0000
0010
0000
,
1000
0000
0010
0100
0000
0001
0010
0000
0011
0000
0010
0100
0000
1000
0010
0000
,
1000
0000
0010
0100
0001
0100
0010
0000
0001
0010
0100
0001
0020
0000
0000
0000
,
0130
0000
M100
0000
0001
1000
0010
0000
0100
0000
010M
0000
1000
0001
0010
0000
,
0100
0000
M100
0000
0001
1000
0010
0000
0100
010M
1000
0001
0020
0000
0030
0000
,
1001
0000
0000
0011
0000
0000
0201
0000
1000
0000
0300
0000
1001
0000
0000
1010
,
0000
0000
1200
0000
0010
0000
1300
0001
1000
0010
0100
0000
2002
0000
0000
0000
,
3003
0000
0000
0000
,
0001
0100
0100
0100
0001
0100
0000
0010
,
0000
0100
0001
1000
0100
0000
0000
0000
,
1000
0100
0100
0100
1000
0100
0000
0010
,
0000
0000
0000
0000
0100
0000
0000
0000
1000
0000
0000
0000
0001
0000
0000
0000
0100
0000
0000
0000
0022
0033
0000
0000
0000
0000
0000
0000
0000
0000
0000
0000
,
0001
0100
0100
0100
0001
0100
0000
0010
,
0000
0100
0001
0010
1000
0000
0000
0000
,
0110
0000
0000
0000
0000
0000
0000
0000
0000
0000
0000
0000
0000
0000
0000
0000
0000
0000
0000
0000
0000
0000
0000
0000
0000
0000
0000
0000
0000
0000
0000
0000
0000
0000
0000
0000
0000
0000
0000
0000
0000
0000
0000
0000
0011
0000
0000
0000
0000
0000
0000
0000
0000
0000
0000
0000
0000
0000
0000
0000
0000
0000
0000
0000
0000
0000
0000
0000
0000
0000
0000
0000
0000
0000
0000
0101
0000
0000
0000
0000
0000
0000
0000
0000
0000
0000
0000
0000
0000
0000
0000
0000
0000
0000
0110
0000
0000
0000
0000
0000
0000
0000
0000
0000
0000
0000
0000
0000
0000
0000
0000
0000
0000
0000
0000
0000
1001
0000
0000
0000
0000
0000
0000
0000
0000
0000
0000
0000
0000
0000
0000
0000
0000
0000
0000
0000
0000
0000
0000
0000
0000
0000
0000
0000
0000
0000
0000
0000
0000
0000
0000
0000
0000
0000
0000
0000
0000
0000
0000
0000
0000
0000
0000
0000
0000
0000
0000
0000
1000
0000
0000
0000
0000
0000
0000
0000
0000
0000
0000
0000
0000
0000
0000
0000
0000
0000
0000
0000
0000
0000
0000
0000
,
0000
0010
1000
0001
0010
0000
0000
0000
,
0011
0000
0001
1000
0010
0000
0100
0010
1000
0001
1000
0100
0010
0000
0100
1000
,
0001
0000
0000
0000
1000
0000
0000
0000
0010
0000
0000
0000
0100
0000
0020
0000
0001
0000
0000
0000
0000
0000
0000
0000
0130
0010
0100
0000
0001
0000
1000
0000
,
0001
0000
1000
0001
0010
0000
0100
0010
0001
0000
2000
0010
0000
3002
0100
0000
,
1003
0000
0000
0001
0000
0000
1000
0000
0001
0000
0000
0000
0010
0000
0200
0000
0001
0000
0000
0000
0000
0000
0000
0000
0310
0100
0000
0000
1000
0001
0000
0000
,
1000
0000
0001
1000
0010
0000
0100
0010
1000
0001
1000
0001
0000
0000
0000
0000
,
2000
0000
0000
3100
0000
0010
0000
0000
0010
0100
0000
0000
1000
0000
0000
0010
0000
0100
0010
0000
1000
0001
0000
0010
,
0100
0000
0000
1000
0000
0001
0000
0000
0100
0010
0000
0000
0100
0000
0010
0000
0000
1000
0000
0000
0100
0010
0000
0000
,
0100
0000
0000
1000
0000
0001
0000
0000
0001
0100
0000
0000
0001
0000
0000
0010
0000
0100
0010
0000
0001
1000
0000
0010
,
0100
0000
0000
0001
0000
0100
0000
0000
0100
0010
0000
0000
1000
0000
0010
0000
0000
0001
0000
0000
0010
0100
0000
0000
,
0002
0000
0000
0013
0000
0100
0000
0000
0100
0010
0000
0000
0001
0000
0000
0100
0000
0010
0100
0000
0001
1000
0000
0100
,
0010
0000
0000
0001
0000
1000
0000
0000
0010
0100
0000
0000
0010
0000
0100
0000
0000
0001
0000
0000
0010
0100
0000
0000
,
0010
0000
0000
0001
0000
1000
0000
0000
1000
0010
0000
0000
1000
0000
0000
0100
0000
0010
0100
0000
1000
0001
0000
0100
,
0010
0000
0000
1000
0000
0010
0000
0000
0010
0100
0000
0000
0001
0000
0100
0000
0000
1000
0000
0000
0100
0020
0000
0000
,
0030
0000
0000
0000
;
