#TITLE:fairy tale story;
#SUBTITLE:;
#ARTIST:Aice room;
#TITLETRANSLIT:;
#SUBTITLETRANSLIT:;
#ARTISTTRANSLIT:;
#GENRE:;
#CREDIT:;
#MUSIC:fairy tale story.ogg;
#BANNER:fairy tale story.png;
#BACKGROUND:fairy tale story-bg.png;
#CDTITLE:;
#SAMPLESTART:30.585;
#SAMPLELENGTH:12.387;
#SELECTABLE:YES;
#OFFSET:-0.004;
#BPMS:0.000=155.000
,336.000=128.000
,340.000=123.700
,348.000=119.100
,352.000=115.000
,358.000=112.000
,360.000=109.500
;
#STOPS:;
#BGCHANGES:;
#FGCHANGES:;

//--------------- dance-single - DRILLBOT ----------------
#NOTES:
     dance-single:
     DRILLBOT:
     Hard:
     9:
     0,0,0,0,0:
0000
0000
0000
0000
,
0000
0000
0000
0000
,
0000
0000
0000
0000
,
1000
0000
0010
0000
0100
0010
1000
0000
,
0200
0000
1300
0100
,
0002
0000
0103
0000
1000
0001
2000
0000
,
0000
0000
3010
0100
,
0002
0000
0013
0000
0100
1000
0200
0000
,
0000
0000
0320
0000
0030
0001
0100
0000
,
0020
0000
0130
0000
0001
1000
0001
1000
,
0020
0000
0100
0000
,
0230
0000
0301
1000
,
0200
0300
0200
0300
0200
0300
0000
0000
,
0020
0030
0020
0030
0020
0030
0000
0000
,
1002
0003
0002
0003
0002
0003
0000
0000
,
2000
3000
2000
3000
2000
3000
0000
0000
,
0020
0030
0020
0030
2020
3030
0000
0000
,
0002
0003
0002
0003
0022
0033
0000
0000
,
1000
0100
0010
0001
,
0100
0001
1000
0001
0010
0000
0100
0000
,
2000
3000
2000
3000
2001
3000
1100
0000
,
0002
0003
0002
0003
1002
0003
0100
0000
,
0002
0003
0002
0003
1002
0003
0011
0000
,
2000
3000
2000
3000
0010
0000
1000
0000
,
0002
0003
0002
0003
1002
0003
1010
0000
,
2000
3000
2000
3000
1001
0000
0100
0000
,
0220
0330
0000
2002
3003
0000
0202
0303
,
0001
0100
0010
1000
0010
0000
0100
0000
,
0002
0003
0002
0003
1002
0003
0101
0000
,
2000
3000
2000
3000
2001
3000
0100
0000
,
2000
3000
2000
3000
2001
3000
1010
0000
,
0002
0003
0002
0003
0010
0000
0001
0000
,
2000
3000
2000
3000
2001
3000
0011
0000
,
0002
0003
0002
0003
1001
0000
0100
0000
,
0220
0330
0000
2002
3003
0000
2200
3300
,
1000
0100
0010
0001
0010
0000
0200
0000
,
0320
0000
0030
0010
0000
0000
0100
0000
0000
0100
0000
0000
1000
0000
0000
0000
,
1000
0000
0000
1000
0000
0000
0001
0000
0000
0001
0000
0000
1000
0000
0000
0000
,
0020
0000
0030
0010
0000
0000
0100
0000
0000
0100
0000
0000
0001
0000
0000
0000
,
0001
0000
0000
0001
0000
0000
0010
0000
0000
0010
0000
0000
0100
0000
0000
0000
,
0200
0000
0300
0100
0000
0000
1000
0000
0000
1000
0000
0000
0010
0000
0000
0000
,
0200
0000
0300
0100
0000
0000
0001
0000
0000
0001
0000
0000
0010
0000
0000
0000
,
0200
0000
0300
0100
0000
0000
0010
0000
0000
0010
0000
0000
0001
0000
0000
0000
,
0200
0000
0302
0000
1003
0020
0130
0000
,
1001
0001
0002
1003
,
0010
0000
0100
0000
0001
0010
0100
0000
,
1001
1000
2000
3001
,
0010
0000
0100
0000
1000
0000
0010
0100
,
0002
0000
0100
0000
,
2003
0000
0100
0000
,
3020
0000
1000
0000
,
0130
0000
0000
0100
0000
0000
0100
0000
2002
0000
3003
0000
0000
0000
0000
0000
,
0200
0000
0000
0000
,
0000
0000
0000
0000
0010
0000
0000
0300
,
1001
0000
0000
0000
,
0000
0000
0010
0000
,
1001
0000
0000
0000
,
0110
0000
0000
0000
,
1001
0000
0000
0000
,
0001
0010
0100
1000
0100
0000
1000
0000
,
1200
0300
0200
0300
0210
0300
0000
0000
,
0120
0030
0020
0030
0022
0033
0000
0000
,
0012
0003
0002
0003
1002
0003
0000
0000
,
2001
3000
2000
3000
2010
3000
0000
0000
,
1020
0030
0020
0030
0120
0030
0000
0000
,
0210
0300
0200
0300
0201
0300
0000
0000
,
0001
0100
0010
1000
,
0100
1000
0001
1000
0010
0000
0100
0000
,
0020
0030
0020
0030
0120
0030
0102
0000
,
0023
0030
0020
0030
0120
0000
0032
0000
,
0203
0300
0200
0300
0210
0300
0102
0000
,
0023
0030
0020
0030
0120
0030
2001
0000
,
3020
0030
0020
0030
0120
0030
2010
0000
,
3200
0300
0200
0300
0210
0300
0010
0000
,
0220
0330
0000
2002
3003
0000
0202
0303
,
0100
0001
1000
0100
0010
0000
0100
0000
,
0020
0030
0020
0030
0120
0030
2100
0000
,
3020
0030
0020
0030
0120
0000
2030
0000
,
3200
0300
0200
0300
0210
0300
2100
0000
,
3020
0030
0020
0030
0120
0030
1002
0000
,
0023
0030
0020
0030
0120
0030
0012
0000
,
0203
0300
0200
0300
0210
0300
0010
0000
,
0010
0100
0010
0100
0001
1000
0001
1000
,
0100
0000
0000
0100
0000
0000
0100
0000
2002
0000
0000
0000
3003
0000
0000
0000
,
0001
0001
0001
0100
,
1000
1000
1000
0100
,
0001
0001
0001
0010
,
1000
1000
0010
0100
,
0002
0000
0000
0023
,
0000
0000
0230
0300
,
2000
0000
0000
0000
,
3000
0000
0000
0000
;

//--------------- dance-single - DRILLBOT ----------------
#NOTES:
     dance-single:
     DRILLBOT:
     Challenge:
     14:
     0,0,0,0,0:
0000
0000
0000
0000
,
0000
0000
0000
0000
,
0000
0000
0000
0000
,
1000
0000
0100
0000
0010
0000
0001
0000
0100
0000
0010
1000
0002
0000
0000
0000
,
0203
0000
0000
0000
0301
1000
0100
1000
,
0020
0000
0130
0000
0001
1000
0002
0000
,
0000
0000
0000
0000
0013
0100
1000
0100
,
0002
0000
0103
0000
1000
0001
0200
0000
,
0001
0000
0320
0000
1030
0001
1000
0010
,
0002
0000
0023
0000
1030
0100
0010
0001
,
0200
0000
0000
0001
0320
0000
0000
0000
,
2030
0000
0000
0000
0000
0000
0000
0000
3001
0000
0010
0001
1000
0000
0010
0000
,
0200
0300
0200
0300
0200
0300
0001
0010
,
0200
0300
0200
0300
0200
1300
0001
0100
,
0120
0030
0020
0030
0020
0030
1000
0100
,
0020
0030
0020
0030
2000
3010
0100
1000
,
0020
0030
0020
0030
0220
0330
0020
0030
,
2020
3030
2000
3000
2002
3003
0002
0003
,
1000
0000
0010
0000
1000
0000
0010
0000
0100
0001
0100
0001
1000
0010
1000
0010
,
0100
0000
0001
0000
1000
0000
0100
1000
0001
0000
0100
0000
0020
0000
1030
0000
,
0002
0103
0002
1003
1002
0003
0101
0001
,
2000
3100
2000
3001
2001
3100
0010
0001
,
2000
3010
2000
3001
2001
3000
1010
1000
,
0002
0013
0002
0103
2000
3100
0001
1000
,
0002
0013
0002
1003
1002
0003
0011
0001
,
2000
3100
2000
3001
2001
3010
0100
0000
,
0220
0330
0000
0020
1030
0000
2200
3300
,
0001
0010
0001
0010
0100
1000
0100
1000
0001
0000
0100
0001
1000
0000
0001
0000
,
2000
3100
2000
3001
2001
3000
1100
1000
,
0002
0103
0002
1003
1002
0103
0010
1000
,
0002
0013
0002
1003
1002
0003
0011
0001
,
2000
3010
2000
3100
0002
0103
1000
0001
,
2000
3010
2000
3001
2001
3000
1010
1000
,
0002
0103
0002
1003
1002
0013
0100
0000
,
0220
0330
0000
0020
0031
0000
0202
0303
,
1000
0100
1000
0100
0010
0001
0010
0001
1000
0000
0010
1000
0002
0000
0000
0000
,
0013
0000
0000
0010
0000
0000
0100
0000
0000
0100
0000
0000
1000
0000
0100
0000
,
1000
0000
0000
1000
0000
0000
0001
0000
0000
0001
0000
0000
1000
0000
0010
0000
,
0220
0330
0000
0010
0000
0000
0100
0000
0000
0100
0000
0000
0001
0000
1000
0000
,
0001
0000
0000
0001
0000
0000
0010
0000
0000
0010
0000
0000
0100
0000
1000
0000
,
2200
3300
0000
1000
0000
0000
0100
0000
0000
0100
0000
0000
1000
0000
0001
0000
,
0202
0303
0000
0001
0000
0000
0100
0000
0000
0100
0000
0000
0001
0000
0010
0000
,
0220
0330
0000
0010
0000
0000
0100
0000
0000
0100
0000
0000
1000
0000
0100
0000
,
0010
0000
0000
0001
0000
0000
0010
0000
0000
0001
0000
0000
1000
0000
0000
0100
0000
0000
1000
0000
0000
0100
0000
0000
0010
0000
0000
0000
0001
0000
0000
0000
0100
0000
0000
0000
0020
0000
0000
0000
0030
0000
0000
0000
0000
0000
0000
0000
,
2001
0000
3010
0100
0020
0000
2030
3000
,
0010
0000
1000
0001
1000
0000
0100
0000
0020
0000
0030
0000
0100
0000
0000
0000
,
2200
3300
0000
0000
1000
0000
0001
0000
2000
0000
0000
0000
3002
0000
0003
0000
,
0010
0000
0001
1000
0001
0000
0100
0000
0020
0000
0030
0000
0100
0000
0001
0000
,
0201
0000
0301
0010
0200
0000
2300
3000
,
1100
0000
1000
0100
1000
0000
0100
0000
0020
0000
0000
0000
0032
0000
0003
0000
,
0202
0303
0001
0100
0020
0000
2030
3000
,
0001
0000
0000
0001
0000
0000
0001
0000
2002
0000
3003
0000
1000
0000
0000
0000
,
0020
0000
0000
0000
,
0000
0000
0000
0000
0100
0000
0000
0030
,
1001
0000
0000
0000
,
0000
0000
0010
0000
,
1001
0000
0000
0000
,
0110
0000
0000
0000
,
1001
0000
0000
0000
,
0001
0100
0001
0100
0010
1000
0010
1000
0001
0000
0010
0001
2000
0000
3010
0000
,
0200
0300
0200
0300
0210
0300
0001
0010
,
0200
0300
0200
0300
0210
1300
0001
0100
,
0020
0030
0020
0030
0120
0030
1000
0100
,
0020
0030
0020
0030
2000
3010
0100
1000
,
0020
0030
0020
0030
0120
0030
0100
0001
,
0020
0030
0020
0030
0110
0010
0001
0000
,
1000
0000
0010
0000
0100
0000
0001
0000
1000
0100
1000
0100
0010
0001
0010
0001
,
1000
0000
0100
0000
0010
0000
0100
1000
0001
0000
0100
0000
2002
3003
1000
0000
,
0020
1030
0020
0130
0120
0030
0101
0001
,
0020
0031
0020
0130
0120
0031
1000
0010
,
0200
0301
0200
0310
0210
0300
1010
1000
,
0200
1300
0200
0310
2000
3010
0001
1000
,
0020
1030
0020
0130
0120
0030
0101
0001
,
0020
0031
0020
0130
0120
0031
1000
0000
,
2200
3300
0000
2000
3010
0000
0220
0330
,
0001
0100
0001
0100
0010
1000
0010
1000
0001
0000
0010
0001
1000
0000
0100
0000
,
0020
0031
0020
0130
0120
0030
1100
1000
,
0020
1030
0020
0130
0120
1030
0001
0010
,
0200
1300
0200
0310
0210
0300
0011
0001
,
0200
0301
0200
0310
0002
0013
1000
0001
,
0020
0031
0020
0130
0120
0030
1100
1000
,
0020
1030
0020
0130
0120
1030
0001
0010
,
0100
0000
1000
0000
0100
0000
1000
0000
0001
0100
0001
0100
0010
1000
0010
1000
,
0002
0000
0000
2003
0000
0000
3100
0000
0210
0000
0000
0000
0000
0000
0000
0000
,
1300
0000
1000
0000
1000
0000
0100
0010
,
0001
0000
0001
0000
0001
1000
0100
1000
,
0001
0000
0001
0000
0001
0000
0100
0010
,
1000
0000
1000
0000
0100
1000
0010
0100
,
0001
0000
0000
0000
0000
0000
0000
0000
0000
0001
0000
0000
0000
0000
0000
0000
0000
0001
0000
0000
0000
0000
0000
0000
1000
0000
0000
0000
0100
0000
0000
0000
,
0010
0000
0010
0000
0010
0100
0100
0000
,
2000
0000
0000
0000
,
3000
0000
0000
0000
;
