#VERSION:0.83;
#TITLE:dica dica;
#SUBTITLE:;
#ARTIST:REMO-CON;
#TITLETRANSLIT:;
#SUBTITLETRANSLIT:;
#ARTISTTRANSLIT:;
#GENRE:ACID RAVE;
#CREDIT:;
#MUSIC:dica dica.ogg;
#BANNER:dica dica.png;
#BACKGROUND:dica dica-bg.png;
#CDTITLE:;
#SAMPLESTART:17.829;
#SAMPLELENGTH:15.000;
#SELECTABLE:YES;
#OFFSET:0.000;
#BPMS:0.000=175.000;
#STOPS:;
#TIMESIGNATURES:0.000=4=4;
#BGCHANGES:0.000=../BGAs/17te.mp4=1.000=0=0=0=StretchNoLoop====,
99999.000=-nosongbg-=1.000=0=0=0=StretchNoLoop====
;
#FGCHANGES:;

//--------------- dance-single - Extraordiberry ----------------
#NOTEDATA:;
#STEPSTYPE:dance-single;
#DESCRIPTION:Extraordiberry;
#DIFFICULTY:Beginner;
#METER:4;
#RADARVALUES:0,0,0,0,0;
#CREDIT:Extraordiberry;
#NOTES:
0000
0000
0000
0000
,
0000
0000
0000
0000
,
0000
0000
0000
0000
,
0000
0000
0000
0000
,
0000
0000
0000
0000
,
1001
0000
1000
0000
,
1000
1000
1000
0000
,
1001
0000
0001
0000
,
0001
0001
0001
0000
,
1001
0000
1000
0000
,
1000
1000
1000
0000
,
1001
0000
0000
0000
,
0000
0000
0000
0000
,
1001
0000
0100
0000
,
0100
0100
0100
0000
,
1001
0000
0010
0000
,
0010
0010
0010
0000
,
1001
0000
0100
0000
,
0100
0100
0100
0000
,
1001
0000
0000
0000
,
0000
0000
0000
0000
,
1000
0000
0000
0000
,
0001
0000
0000
0000
,
1000
0000
0000
0000
,
0001
0000
0001
0000
,
1000
0000
0000
0000
,
0100
0000
0000
0000
,
0010
0000
0000
0000
,
0001
0000
1000
0000
,
0001
0000
0000
0000
,
0100
0000
0000
0000
,
0010
0000
0000
0000
,
1000
0000
1000
0000
,
0002
0000
0000
0000
,
0000
0000
0000
0000
,
2003
0000
0000
0000
,
0000
0000
0000
0000
,
3001
0000
1000
0001
,
0000
0000
0000
0000
,
1000
0000
0001
1000
,
0000
0000
0000
0000
,
0001
0000
1000
0001
,
0000
0000
0000
0000
,
1000
0000
1000
0000
,
0001
0001
0001
0000
,
1000
0000
0001
1000
,
0000
0001
1000
0000
,
0001
0000
0010
0100
,
0000
0010
0100
0000
,
1000
0000
0000
0000
,
0000
0000
0000
0000
,
0001
0000
0000
0000
,
0000
0000
0000
0000
,
1000
1000
1000
0000
,
0001
0001
0001
0000
,
1000
0000
0000
0000
,
0100
0000
0000
0000
,
1000
0000
0000
0000
,
0001
0000
0001
0000
,
1000
0000
0000
0000
,
0010
0000
0100
0000
,
0010
0000
0000
0000
,
1000
0000
1000
0000
,
1000
0000
0001
1000
,
0000
0000
0001
0000
,
0001
0000
1000
0001
,
0000
0000
1000
0000
,
0001
0000
0100
0010
,
0000
0000
1000
0000
,
1000
0000
0001
0000
,
0001
0001
0001
0000
,
1000
0000
0000
0000
,
0000
0000
0000
0000
,
0001
0000
0000
0000
,
1000
1000
1000
0000
,
0001
0000
0000
0000
,
0010
0000
0000
0000
,
0100
0000
0000
0000
,
1000
0000
1000
0000
,
0001
0000
0010
0100
,
0000
0010
0100
0000
,
1000
0000
0010
0100
,
0000
0010
0100
0000
,
0001
0000
0001
0000
,
1000
0000
1000
0000
,
1001
0000
0000
0000
,
0000
0000
0000
0000
,
1001
0000
0000
0000
;

//--------------- dance-single - Extraordiberry ----------------
#NOTEDATA:;
#STEPSTYPE:dance-single;
#DESCRIPTION:Extraordiberry;
#DIFFICULTY:Easy;
#METER:8;
#RADARVALUES:0,0,0,0,0;
#BPMS:0.000=175.000;
#STOPS:44.500=2.400
,69.500=2.400
,326.500=2.400
;
#TIMESIGNATURES:0.000=4=4,
44.000=1=4,
45.000=4=4,
69.000=1=4,
70.000=4=4,
326.000=1=4,
327.000=4=4
;
#CREDIT:Extraordiberry;
#NOTES:
0000
0000
0000
0000
,
0000
0000
0000
0000
,
0000
0000
0000
0000
,
0000
0000
0000
0000
,
0000
0000
0000
0000
,
1002
0000
1000
0100
,
1000
0100
1003
0000
,
1000
2001
0001
0100
,
0001
0100
3001
0000
,
1002
0000
0100
1000
,
0100
1000
0103
0000
,
1001
2001
0000
0001
,
0010
0001
0010
3001
,
0000
0001
1002
1000
,
0010
1000
0010
1003
,
0000
2001
0010
0001
,
0010
0001
0010
3001
,
0000
1001
1001
0000
,
1000
0100
0010
0100
,
1000
0000
0001
0100
,
0010
0100
0001
0001
,
0001
0001
1000
0100
,
0010
0100
1000
0001
,
1000
0000
0001
0100
,
0010
1000
0002
0000
,
0000
0000
1003
0001
,
0010
0100
0010
0001
,
1000
0000
0001
0100
,
0010
0100
0001
0001
,
0001
0001
2000
0000
,
3200
0000
0320
0000
,
0032
0000
1003
0001
,
1000
1000
0002
0000
,
0000
0000
1003
0100
,
0001
0100
0000
1000
,
0100
0010
0001
0100
,
1000
0100
0001
1000
,
0001
0000
0001
0010
,
1000
0010
0001
0100
,
0010
1000
0001
0001
,
1000
1000
0002
0010
,
1003
0000
1000
0010
,
0001
0010
1000
0001
,
0100
0000
0001
0010
,
1000
0001
0100
1000
,
0001
0000
2000
0000
,
3020
0000
0230
0000
,
0302
0000
1003
0100
,
1000
0000
0001
0100
,
0001
0000
2000
0010
,
3001
0000
0002
0010
,
0103
0000
0001
0010
,
0100
0010
0001
1000
,
0010
0000
1000
0010
,
0100
0000
0010
0000
1000
0000
0000
0001
,
0000
1000
0001
1000
,
0100
0010
1000
0010
,
0100
0001
0100
1000
,
0001
0100
0002
0000
,
0000
0000
1003
0100
,
0001
0100
1000
0001
,
0100
0000
0001
0100
,
1000
0100
0001
0000
,
1000
1000
0001
0010
,
1000
0010
0001
1000
,
0010
0000
1000
0010
,
0100
0010
2000
0100
,
3001
0000
0002
0000
,
2003
0000
3200
0000
,
0320
0000
0032
0000
,
1000
1000
0100
1000
,
0100
1003
2000
0000
,
3020
0000
0230
0000
,
0302
0000
1003
0100
,
1000
0000
0001
0100
,
0001
1000
0001
0010
,
1000
0010
0001
1000
,
0100
0100
1000
0010
,
0001
1000
0100
0001
,
1000
1000
0001
0001
,
0010
0010
1000
1000
,
0010
0010
1001
2002
,
3003
0000
0000
0000
;

//--------------- dance-single - Extraordiberry ----------------
#NOTEDATA:;
#STEPSTYPE:dance-single;
#DESCRIPTION:Extraordiberry;
#DIFFICULTY:Medium;
#METER:14;
#RADARVALUES:0,0,0,0,0;
#BPMS:0.000=175.000;
#STOPS:44.500=2.400
,69.500=2.400
,326.500=2.400
;
#TIMESIGNATURES:0.000=4=4,
44.000=1=4,
45.000=4=4,
69.000=1=4,
70.000=4=4,
326.000=1=4,
327.000=4=4
;
#CREDIT:Extraordiberry;
#NOTES:
0000
0000
0000
0000
,
0000
0000
0000
0000
,
0000
0000
0000
0000
,
0000
0000
0000
0000
,
0000
0000
0000
0000
,
1002
0000
0000
0000
1003
0100
0001
0100
,
1000
0100
0001
0100
1000
0010
1000
0001
,
1002
0000
2003
0000
3001
0100
1000
0100
,
0001
0100
1000
0100
0001
0010
0001
1000
,
1002
0000
0000
0000
1003
0100
0001
0100
,
1000
0100
0001
0100
1000
0010
1000
0001
,
1001
0100
2001
0000
0000
0000
3001
0010
,
1000
0010
0001
0010
1000
0010
0001
0100
,
0001
1000
2001
0000
3002
0000
1003
0010
,
0001
0010
1000
0010
0001
0010
1000
0100
,
1000
0000
0000
0001
0000
0000
2001
0000
0000
0000
3002
0000
0000
0000
2003
0000
0000
0000
3001
0000
0000
0010
0000
0000
,
1000
0010
0001
0010
1000
0010
0001
0001
,
1000
1000
1001
0010
1000
0000
0100
0000
,
0010
0000
0100
0000
1000
0010
0100
0010
,
1000
0000
0011
0000
0001
0010
0100
0010
,
0001
1000
0010
0000
1010
0000
0011
0000
,
1010
0000
0011
0000
1001
0000
1000
0100
,
1000
0001
1000
0000
0010
0000
0000
0000
1000
0001
1000
0000
0100
0000
0010
0000
,
0100
0000
0000
0000
1000
0010
0000
0000
0100
0000
0010
0000
1000
0001
0000
0001
,
1000
0000
0010
0000
0100
0000
0000
0000
0002
0000
0000
1000
0000
0000
0010
0000
,
0000
0000
1000
0000
1003
0000
0000
0000
0001
1000
0001
0000
0100
0000
0010
0000
,
0100
0000
0001
0000
1000
0000
0000
0000
0100
0010
0100
0000
1000
0000
0001
0000
,
0100
0000
0010
0000
0100
0000
0000
0000
0001
1000
0000
1000
0001
0000
0010
0000
,
0100
1000
0001
0000
0101
0000
1100
0000
,
0101
1100
0002
0023
,
0230
0320
0032
0203
,
0320
0000
0230
0000
0301
0010
0100
0010
,
0001
1000
0001
0010
0002
0000
0000
0000
,
0000
0000
0000
0000
0000
0000
0000
0000
1003
0000
0010
0100
0010
0000
1000
0000
,
0010
0100
0010
0000
1000
0000
0100
0000
0000
0000
1000
0000
0010
0000
0100
0000
,
0010
0000
1000
0000
0000
0000
1000
0000
0001
0000
0010
0100
0010
0000
0001
0000
,
0010
0100
0010
0000
0001
0000
0100
0000
0000
0000
0001
0000
0010
0000
0100
0000
,
0010
0000
0001
0000
1000
0000
0000
0000
1000
0000
0010
0100
0010
0000
1000
0000
,
0010
0100
0010
0000
1000
0000
0001
0000
0010
0000
0100
0000
0010
0000
0001
0000
,
1000
0001
1000
0000
0010
0000
0000
0000
1010
0000
0000
0000
0101
0000
0000
0000
,
1100
0000
0011
0000
1000
0010
0001
0010
,
1000
0000
1000
0000
0001
0000
0001
0000
1000
0000
0100
0010
0100
0000
1000
0000
,
0100
0010
0100
0000
1000
0000
0100
0010
0100
0000
1000
0000
0001
0000
0100
0000
,
0010
0000
0100
0000
0001
0000
0000
0000
0001
0000
0100
0010
0100
0000
0001
0000
,
0100
0010
0100
0000
0001
0000
0100
0010
0100
0000
0001
0000
1000
0000
0100
0000
,
0010
0100
1000
0000
2000
0000
0000
0000
,
3200
0000
0320
0000
,
0032
0000
2003
0001
,
0010
3001
0002
1000
,
0010
0000
1003
0000
0001
0010
1000
0010
,
0001
0000
0001
0000
1000
0010
0001
0010
,
1000
0000
1000
0000
0001
0010
0100
0010
,
0001
0100
0010
0000
1000
0100
0010
0100
,
1000
0000
0001
0000
0100
0010
0100
0000
0001
1000
0000
1000
0001
0000
0010
0000
,
0100
1000
0001
0100
0101
0000
0000
1100
,
0000
0000
0000
0000
0110
0000
0000
0000
1000
0001
1000
0000
0010
0000
0100
0000
,
0001
1000
0000
1000
0001
0000
0010
0000
0200
0000
0310
0000
0001
0000
0100
0000
,
0010
0000
0100
0000
0001
0000
1000
0000
0100
0010
0000
0010
0100
0000
1000
0000
,
0010
0100
0000
0100
0010
0000
0000
0000
2000
0000
0000
0001
0000
0000
0010
0000
,
0000
0000
0001
0000
3001
0000
0000
0000
1000
0000
0100
0010
0100
0000
1000
0000
,
0100
0010
0100
0000
1000
0000
0001
0000
0100
0000
0010
0000
0100
0000
0001
0000
,
1000
0000
0000
0000
1100
0000
0000
0000
0001
0000
0100
0010
0100
0000
0001
0000
,
0100
0010
0100
0000
0001
0000
1000
0000
0100
0000
0010
0000
0000
0000
0000
0000
,
1010
0000
0000
0000
0101
0000
0000
0000
0001
0000
0010
0100
0010
0000
0001
0000
,
0010
0100
0010
0000
0001
0000
0010
0100
0010
0000
0001
0000
1000
0000
0010
0000
,
0100
0000
0010
0000
1000
0000
0000
0000
1000
0001
1000
0000
0100
0000
0010
0000
,
0100
1000
0001
0000
1000
0010
0001
0010
,
1000
0001
0001
0000
2000
0000
0000
0000
,
3200
0000
2300
0001
,
3020
0000
0100
0000
1030
1010
0000
0000
,
0001
0001
1000
1000
0001
0010
1000
0010
,
0001
1000
0001
0100
0002
0000
1000
0000
,
0010
0000
0000
0000
1003
0000
0000
0001
2000
0000
0000
0000
0001
0000
0000
0000
,
0010
0000
3001
0000
1000
0100
0010
0100
,
1000
0000
0001
0000
0100
0000
0100
0000
0001
1000
0001
0000
0010
0000
0001
0000
,
1000
0001
1000
0000
0010
0000
1000
0000
0001
0000
0010
0100
0010
0000
0001
0000
,
0010
0100
0010
0000
0001
0000
0001
0000
1000
0000
0010
0100
0010
0000
1000
0000
,
0010
0100
0010
0000
1000
0000
1000
0000
0001
0000
0010
0100
0010
0000
0001
0000
,
0010
0100
0010
0000
0001
1000
0001
0000
1000
0000
0010
0100
0010
0000
1000
0000
,
0010
0100
0010
0000
1000
0001
1000
0000
0001
0000
1000
0000
1100
0000
0000
0000
,
1000
0001
0101
0000
0011
0000
1100
0000
,
1010
1000
0101
0000
1001
0100
2002
0000
,
3003
0000
0000
0000
;

//--------------- dance-single - Extraordiberry ----------------
#NOTEDATA:;
#STEPSTYPE:dance-single;
#DESCRIPTION:Extraordiberry;
#DIFFICULTY:Hard;
#METER:17;
#RADARVALUES:0,0,0,0,0;
#BPMS:0.000=175.000;
#STOPS:44.500=2.400
,69.500=2.400
,326.500=2.400
;
#TIMESIGNATURES:0.000=4=4,
44.000=1=4,
45.000=4=4,
69.000=1=4,
70.000=4=4,
326.000=1=4,
327.000=4=4
;
#CREDIT:Extraordiberry;
#NOTES:
0000
0000
0000
0000
,
0000
0000
0000
0000
,
0000
0000
0000
0000
,
0000
0000
0000
0000
,
0000
0000
0000
0000
,
2001
0000
0000
0000
0000
0000
0000
0000
3001
1000
0100
0000
1000
0001
0010
0001
,
1000
0000
0001
1000
0100
1000
0001
0000
0010
0001
1000
0000
1000
0001
0010
0000
,
0120
0000
0000
0000
0032
0000
0000
0000
1003
0010
0100
0000
0010
0100
0001
0100
,
0010
0000
0100
0010
1000
0010
0100
0000
0001
0100
0010
0000
0010
0100
0001
0000
,
2001
0000
0000
0000
0000
0000
0000
0000
3001
1000
0100
0000
1000
0001
0010
0001
,
1000
0000
0001
1000
0100
1000
0001
0000
0010
0001
1000
0000
1000
0001
0010
0000
,
0210
0000
0301
0000
2001
0000
0000
0000
0000
0000
0000
0000
3001
1000
0100
1000
,
0001
0000
0010
0001
1000
0000
0001
1000
0100
1000
0001
0000
1000
0001
0010
0000
,
1000
0001
0010
0000
0120
0000
0000
0000
0032
0000
0000
0000
0103
0010
1000
0010
,
0100
0000
0010
0100
0001
0000
0100
0010
1000
0010
0100
0000
0010
0100
0001
0000
,
0010
0000
0000
0100
0000
0000
0001
0000
0000
0000
0000
0000
2001
0000
0000
0000
0000
0000
0000
0000
3200
0000
0000
0000
0000
0000
0000
0000
2300
0000
0000
0000
0000
0000
0000
0000
3001
0000
0000
1000
0000
0000
0100
0000
0000
1000
0000
0000
,
0001
0000
1000
0001
0010
0000
1000
0001
0010
0001
1000
0000
0001
0000
0001
0000
,
0010
0010
0210
0301
1001
0000
1000
0100
,
0010
0000
0100
0000
1000
0000
0000
0000
0001
0000
0100
0010
0000
0010
0100
0000
,
0001
0000
1000
0000
1100
0000
0000
0000
1000
0000
0100
0010
0000
0010
0100
0000
,
1000
0001
0100
0010
1010
0000
0011
0000
,
1010
0000
0000
0000
0011
0000
0000
0000
1001
0000
0000
0000
0001
0000
0010
0100
,
1000
0100
0010
0000
0001
0000
1000
0000
0001
0000
0100
0010
0000
0010
0100
0000
,
0001
0000
1000
0000
0000
0011
0000
0000
0001
0100
0010
0000
1000
0000
0001
0010
,
0100
0010
0001
0000
1000
0000
0000
0000
1001
0000
0000
0110
0000
0000
1010
0000
,
0000
0000
0001
0000
1010
0000
0000
0000
1000
0100
0010
0100
0000
1000
0001
0000
,
0100
0010
0100
0000
0001
0000
0001
0000
1000
0100
1000
0000
0001
0000
1000
0010
,
1000
0000
0001
0000
0100
0000
0000
0000
0001
0010
0100
0010
0000
0001
1000
0000
,
0010
0100
0010
0000
1000
0000
0001
0000
0011
0000
0010
0000
0011
0000
0000
0000
,
1010
0010
1010
0000
0002
0203
0302
0203
,
0320
2030
3020
2030
3002
0023
0032
0023
,
0230
2300
3200
2300
3001
0100
1000
0100
,
0001
0001
0001
1000
0002
0000
0000
0000
,
0000
0000
0000
0000
0000
0000
0000
0000
1003
0100
0010
0000
0001
1000
0100
0010
,
0100
0000
1000
0100
0010
0000
0001
0000
0000
0000
1000
0000
0001
0000
0100
0010
,
0100
0000
0001
0000
0000
0000
0010
0000
0001
0100
0010
0000
1000
0001
0100
0010
,
0100
0000
0001
0100
0010
0000
1000
0000
0000
0000
0001
0000
1000
0000
0100
0010
,
0001
0010
0100
0000
1000
0000
0010
0000
1000
0100
0010
0000
0001
1000
0100
0010
,
0100
0000
1000
0100
0010
0100
1000
0000
0001
0100
0010
0100
0000
0001
1000
0000
,
0100
0010
0100
0000
1000
0000
0001
0000
0101
0000
0000
0000
1010
0000
0000
0000
,
0011
0000
0000
0000
1100
0000
0000
0000
0001
0100
0010
0100
0001
0000
0010
0100
,
0001
0000
0001
0000
1000
0000
1000
0000
0001
0010
0001
0010
0001
0010
0001
0010
,
0001
0010
0001
0010
0001
0010
0001
0010
0100
1000
0100
1000
0100
1000
0100
1000
,
0100
1000
0100
1000
0001
0000
0000
0000
1000
0010
0100
0010
1000
0010
0100
0010
,
1000
0010
0100
0010
1000
0010
0100
0010
1000
0001
0010
0001
1000
0001
0010
0001
,
1000
0001
0010
0001
1000
0000
0000
0000
1001
0000
0000
0001
0100
0000
0000
0100
,
0010
0000
0000
0010
1000
0000
0000
1000
0100
0000
0000
0100
0010
0000
0000
0010
,
0001
0000
0000
0001
0100
0000
0000
0000
0002
0000
0000
0000
0010
0000
0000
0000
,
1000
0100
2003
0100
,
0001
0000
0000
0000
3010
0000
0000
0000
1000
0001
0010
0000
1000
0001
0010
0000
,
0001
0000
0001
0000
1000
0000
1000
0000
0010
0100
0001
0000
0010
0100
0001
0000
,
1000
0000
1000
0000
0001
0000
0001
0000
1000
0100
0010
0100
0000
1000
0001
0000
,
0100
0010
0100
0000
0001
1000
0001
0000
1000
0000
0100
0010
0000
0010
0100
0000
,
1000
0000
0010
0000
0001
0010
1000
0000
0001
0100
0001
0000
1000
0000
0001
0010
,
0001
1000
0010
1000
1100
0100
0010
0011
,
0001
0000
0100
0000
0101
0000
0000
0000
0001
0010
0100
0010
0001
0000
1000
0010
,
0100
0010
0000
1000
0001
0000
1000
0000
1001
0000
0001
1000
0100
0010
0100
0000
,
1000
0001
0100
0001
1000
0010
0100
0000
0001
0000
1000
0100
0010
0000
0001
0000
,
1000
0010
0100
0010
1000
0000
0001
0000
2002
3003
0000
0220
0330
0000
0022
0033
,
0000
0000
2000
3000
0022
0033
0000
0000
0001
0100
0010
0000
1000
0001
0100
0010
,
0100
0000
0001
0100
0010
0000
1000
0000
0001
0010
0001
0000
1000
0000
0001
0100
,
0001
0000
1000
0000
0100
0000
0000
0000
1000
0100
0010
0000
0001
1000
0100
0010
,
0100
0000
1000
0100
0010
0000
0001
0000
1000
0000
1010
0000
0010
0000
1000
0000
,
1001
0000
0000
0000
0011
0000
0000
0000
0001
0100
0010
0000
1000
0001
0100
0010
,
0100
0000
0001
0100
0010
0100
0001
0000
1000
0100
0010
0100
0000
1000
0001
0000
,
0100
0010
0100
0000
0001
0000
1000
0000
0001
0010
0100
0000
0001
0100
0010
0100
,
1000
0000
0001
0000
1000
0000
0000
0000
0001
0100
0010
0100
0001
0000
0010
0100
,
0001
0000
0001
0000
1000
0000
1000
0000
1001
0000
0000
0001
0010
0000
0000
0010
,
0100
0000
0000
0100
1000
0000
0000
1000
0001
0100
0001
0000
1000
0010
1000
0000
,
0001
0010
0001
0000
1000
0100
1000
0000
1100
0000
0100
0000
0000
0000
0000
0000
,
1000
0000
1000
0000
0001
0000
0001
0000
1000
0001
0010
0001
1000
0001
0010
0001
,
1000
0001
0010
0000
1000
0001
0010
0000
0002
0000
0000
0000
0100
0000
0000
0000
,
1000
0010
2003
0100
,
0001
0000
0010
0000
3001
0100
1000
0100
,
0001
0000
0001
0000
0001
0000
1000
0000
0100
0010
0100
0000
1000
0000
0001
0000
,
0100
0010
0100
0000
0001
1000
0001
0000
1000
0100
0010
0000
0001
1000
0100
0010
,
0100
0000
1000
0100
0010
0100
1000
0000
0001
0100
0010
0000
1000
0001
0100
0010
,
0100
0000
0001
0100
0010
0100
0001
0000
1000
0100
0010
0000
0001
1000
0100
0010
,
0100
0000
0001
0100
0010
0100
1000
0000
0001
0100
0010
0000
1000
0001
0100
0010
,
0100
0000
1000
0100
0010
0100
0001
0000
0101
0000
0100
0000
0110
0000
0010
0000
,
1010
0000
1000
0000
1001
0000
0001
0000
1000
0001
0010
0001
1000
0001
0010
0001
,
1000
0010
0100
0010
1000
0010
0100
0000
0120
0000
0031
0000
2002
0000
0000
0000
,
3003
0000
0000
0000
;

//--------------- dance-double - Extraordiberry ----------------
#NOTEDATA:;
#STEPSTYPE:dance-double;
#DESCRIPTION:Extraordiberry;
#DIFFICULTY:Easy;
#METER:8;
#RADARVALUES:0,0,0,0,0;
#BPMS:0.000=175.000;
#STOPS:44.500=2.400
,69.500=2.400
,326.500=2.400
;
#TIMESIGNATURES:0.000=4=4,
44.000=1=4,
45.000=4=4,
69.000=1=4,
70.000=4=4,
326.000=1=4,
327.000=4=4
;
#CREDIT:Extraordiberry;
#NOTES:
00000000
00000000
00000000
00000000
,
00000000
00000000
00000000
00000000
,
00000000
00000000
00000000
00000000
,
00000000
00000000
00000000
00000000
,
00000000
00000000
00000000
00000000
,
00012000
00000000
00100000
00100000
,
00100000
00100000
00103000
00000000
,
00001000
00021000
00000010
00000010
,
00000010
00000010
00030010
00000000
,
00012000
00000000
00100000
00100000
,
00100000
00100000
00103000
00000000
,
00010000
00012000
00000000
00100000
,
00010000
00100000
00010000
00103000
,
00000000
00001000
00021000
00000010
,
00001000
00000010
00001000
00030010
,
00000000
00021000
00000000
00001000
,
00000000
00100000
00100000
00130000
,
00000000
00011000
00010000
00001000
,
00100000
00000000
01000000
10000000
,
00010000
00000000
10000000
01000000
,
00010000
00001000
00010000
00010000
,
00010000
00000000
00001000
00010000
,
00000010
00000000
00000100
00000001
,
00001000
00000000
00000001
00000010
,
00001000
00000000
00010000
00001000
,
00011000
00000000
00001000
01000000
,
00010000
00000000
10000000
01000000
,
00100000
00000000
00010000
10000000
,
01000000
00010000
00001000
00001000
,
00001000
00000000
00020000
00000000
,
00030020
00000000
00002030
00000000
,
00003002
00000000
00000013
00000100
,
00010000
00010000
00002000
00000000
,
00000000
00000000
00013000
00100000
,
10000000
00100000
00000000
00010000
,
00001000
00000000
00001000
00000010
,
00000001
00000010
00000000
00001000
,
00010000
00001000
00010000
00100000
,
10000000
00100000
00010000
00001000
,
00010000
00010000
00000100
00000100
,
00000100
00020000
00001000
00000010
,
00031000
00000000
00010000
00001000
,
00000010
00000001
00000010
00001000
,
00010000
00000000
00001000
00010000
,
01000000
10000000
01000000
00010000
,
00001000
00000000
00002000
00000000
,
00023000
00000000
00030020
00000000
,
00002030
00000000
00003002
00000000
,
00000023
00000000
00002030
00000000
,
00013000
00000000
00002000
00100000
,
00013000
00000000
00020000
00000010
,
00031000
00000000
00010000
00001000
,
00100000
00010000
10000000
01000000
,
00100000
00000000
00001000
00010000
,
00000010
00000000
00001000
00000000
00000001
00000000
00000000
00001000
,
00000000
00000001
00001000
00000010
,
00010000
00001000
01000000
00001000
,
00010000
00000010
00010000
00000100
,
00010000
00010000
00002000
00000000
,
00000000
00000000
00013000
00100000
,
10000000
00100000
00000000
00010000
,
00001000
00000000
00001000
00000010
,
00000001
00000010
00001000
00000000
,
00010000
00010000
00001000
00000100
,
00000001
00000100
00001000
00010000
,
00001000
00000000
00010000
00001000
,
00100000
00001000
00020000
00000010
,
00031000
00000000
00002000
00000000
,
02003000
00000000
03020000
00000000
,
00230000
00000000
00301000
00000000
,
00001000
00020000
00100000
00100000
,
00130000
00000000
00020000
00000000
,
00030200
00000000
00002300
00000000
,
00003001
00000000
00000002
00000000
,
00000203
00000000
00002300
00000000
,
00013000
00000000
00010000
00001000
,
00000100
00000001
00000100
00001000
,
00010000
00000000
00001000
00010000
,
01000000
10000000
01000000
00010000
,
00001000
00000000
00010000
00010000
,
00100000
00100000
10000000
10000000
,
01000000
00010000
00001000
00022000
,
00033000
00000000
00000000
00000000
;

//--------------- dance-double - Extraordiberry ----------------
#NOTEDATA:;
#STEPSTYPE:dance-double;
#DESCRIPTION:Extraordiberry;
#DIFFICULTY:Medium;
#METER:14;
#RADARVALUES:0,0,0,0,0;
#BPMS:0.000=175.000;
#STOPS:44.500=2.400
,69.500=2.400
,326.500=2.400
;
#TIMESIGNATURES:0.000=4=4,
44.000=1=4,
45.000=4=4,
69.000=1=4,
70.000=4=4,
326.000=1=4,
327.000=4=4
;
#CREDIT:Extraordiberry;
#NOTES:
00000000
00000000
00000000
00000000
,
00000000
00000000
00000000
00000000
,
00000000
00000000
00000000
00000000
,
00000000
00000000
00000000
00000000
,
00000000
00000000
00000000
00000000
,
00012000
00000000
00000000
00000000
00013000
00001000
00010000
00100000
,
00010000
00001000
00010000
00100000
00010000
00001000
01000000
00001000
,
00011000
00000000
00021000
00000000
00031000
00010000
00001000
00000010
,
00001000
00010000
00001000
00000010
00001000
00010000
00000100
00010000
,
00012000
00000000
00000000
00000000
00013000
00001000
00010000
00100000
,
00010000
00001000
00010000
00100000
00010000
00001000
01000000
00001000
,
00011000
00010000
00021000
00000000
00000000
00000000
00031000
00010000
,
00001000
00000100
00001000
00010000
00001000
00000100
00001000
00010000
,
00000010
00010000
00011000
00000000
00012000
00000000
00013000
00001000
,
00010000
01000000
00010000
00001000
00010000
01000000
00010000
00001000
,
00100000
00000000
00000000
00001000
00000000
00000000
00021000
00000000
00000000
00000000
00030020
00000000
00000000
00000000
00020030
00000000
00000000
00000000
00031000
00000000
00000000
00010000
00000000
00000000
,
00001000
00000100
00001000
00010000
00001000
00000100
00001000
00001000
,
00010000
00010000
00011000
00001000
00011000
00000000
00010000
00100000
,
10000000
00100000
00010000
00000000
00001000
00010000
00100000
10000000
,
00020000
00000000
00031000
00000000
00000001
00000100
00001000
00000100
,
00000001
00001000
00000010
00001000
00020000
00000000
00032000
00000000
,
00023000
00000000
01030000
00000000
10010000
00000000
10000000
01000000
,
00010000
00001000
00010000
00000000
00001000
00010000
01000000
10000000
,
00020000
00000000
00000000
00000000
00000000
00031000
00000000
00000000
00000100
00000000
00001000
00000000
00000001
00000000
00000100
00000000
,
00001000
00000000
00010000
00000000
00001000
00000000
00000000
00000000
00020000
00000000
00000000
00230000
00000000
00000000
20300000
00000000
,
00000000
32000000
03020000
00000000
00031000
00000010
00000001
00000010
,
00001000
00010000
00000100
00000000
00010000
00001000
00000010
00000001
,
00001000
00000010
00010000
00000000
00001000
00000100
00000001
00000100
,
00001000
00010000
00000010
00001000
00020000
00000000
20030000
00000000
,
30020000
00030100
00001002
00000010
,
00000023
00001000
00002030
00010000
,
00023000
00000000
00001000
00000000
00031000
00000100
00000001
00000100
,
00001000
00010000
00001000
00100000
00002000
00000000
00000000
00000000
,
00000000
00000000
00000000
00000000
00013000
00100000
10000000
00100000
,
00010000
10000000
01000000
00010000
00000000
10000000
01000000
00010000
,
00001000
00010000
00000000
00001000
00001000
00000010
00000001
00000010
,
00001000
00000001
00000100
00001000
00000000
00000001
00000100
00001000
,
00010000
00001000
01000000
00001000
00010000
00100000
10000000
00100000
,
00010000
10000000
01000000
00010000
10000000
01000000
00010000
00001000
,
00010000
01000000
00100000
00010000
00002000
00000000
00003002
00000000
,
00002003
00000000
01003000
00000000
00010000
00001000
00010000
01000000
,
00010000
00001000
00010000
00000000
00001000
00000100
00000001
00000100
,
00001000
00010000
00100000
10000000
00100000
00010000
10000000
01000000
,
00010000
00100000
00001000
00000000
00010000
01000000
10000000
01000000
,
00010000
00001000
00000010
00000001
00000010
00001000
00000001
00000100
,
00001000
00000010
00010000
00000000
00002000
00000000
00010000
00000000
,
00100000
00013000
00020000
00001000
,
00000010
00031000
00010000
00001000
,
00000100
00000100
00000001
00000010
,
00001000
00000000
00001000
00000000
00010000
00100000
00010000
00001000
,
00010000
00100000
00010000
00000000
00001000
00000010
00001000
00010000
,
00100000
00010000
00001000
00000000
00010000
01000000
10000000
01000000
,
00010000
00001000
00010000
00000000
00001000
00000100
00000001
00000100
,
00001000
00010000
00000100
00000010
00000001
00000100
00001000
00010000
,
00001000
00000100
00000010
00001000
00020000
00000000
00000000
20030000
,
00000000
00000000
30020000
00000000
10030000
01000000
00010000
00001000
,
00010000
00100000
10000000
00010000
10010000
10000000
01000000
00010000
,
10000000
00100000
00010000
00100000
01000000
00010000
00001000
00000100
,
00000001
00000000
00000100
00000000
00001000
00000000
00010000
00000000
00002000
00003000
00000000
00000020
00000030
00000000
00000002
00000003
,
00000000
00000000
00000200
00000300
00002000
00003000
00000000
00000000
00010000
00000000
01000000
00000000
10000000
00000000
01000000
00000000
,
00010000
10000000
00100000
00010000
10000000
00100000
00000000
00100000
,
00010000
00001000
00010000
00000000
00001000
00000100
00000001
00000100
,
00001000
00000100
00000010
00000000
00001000
00020000
00000000
00000000
,
20030000
00000000
30010000
00000000
10000000
01000000
00010000
00001000
,
00000010
00000001
00000010
00001000
00000001
00000100
00001000
00000000
,
00000001
00000100
00001000
00000000
00010000
00100000
10000000
00100000
,
00010000
10000000
01000000
00000000
00001000
00010000
00001000
00000010
,
00001000
00010000
00001000
00000000
00020000
00000000
00001000
00000000
,
01000000
00000000
00031000
00000000
00010000
00001000
00000100
00000001
,
00000100
00000010
00001000
00000000
00010000
01000000
00000000
00000000
,
00001000
00001000
00010000
00010000
00001000
00000100
00001000
00010000
,
00001000
00000100
00002000
00010000
,
00000100
00013000
00020000
00001000
,
01000000
00000000
00031000
00000000
00010000
00100000
00010000
00100000
,
10000000
01000000
10000000
01000000
00010000
00001000
00000100
00000010
,
00000100
00001000
00010000
00000000
00001000
00000010
00000001
00000010
,
00001000
00010000
01000000
10000000
01000000
00010000
10000000
00100000
,
00010000
01000000
00001000
00000000
00010000
00100000
10000000
00100000
,
00010000
00001000
00000010
00000001
00000010
00001000
00000001
00000100
,
00001000
00000010
00001000
00000000
00020000
00000000
20030000
00000000
,
30020000
00000000
00032000
00000000
00003001
00000100
00001000
00010000
,
00100000
10000000
00010000
00000000
00011000
00001000
00022000
00000000
,
00033000
00000000
00000000
00000000
;

//--------------- dance-double - Extraordiberry ----------------
#NOTEDATA:;
#STEPSTYPE:dance-double;
#DESCRIPTION:Extraordiberry;
#DIFFICULTY:Hard;
#METER:17;
#RADARVALUES:0,0,0,0,0;
#BPMS:0.000=175.000;
#STOPS:44.500=2.400
,69.500=2.400
,326.500=2.400
;
#TIMESIGNATURES:0.000=4=4,
44.000=1=4,
45.000=4=4,
69.000=1=4,
70.000=4=4,
326.000=1=4,
327.000=4=4
;
#CREDIT:Extraordiberry;
#NOTES:
00000000
00000000
00000000
00000000
,
00000000
00000000
00000000
00000000
,
00000000
00000000
00000000
00000000
,
00000000
00000000
00000000
00000000
,
00000000
00000000
00000000
00000000
,
10020000
00000000
00000000
00000000
00000000
00000000
00000000
00000000
00130000
01000000
00100000
01000000
00100000
01000000
00100000
01000000
,
00100000
01000000
00100000
01000000
00100000
01000000
00100000
01000000
00100000
01000000
00100000
00000000
00001000
00000000
00010000
00000000
,
00011000
00000000
00000000
00000000
00002001
00000000
00000000
00000000
00003010
00000100
00000010
00000100
00000010
00000100
00000010
00000100
,
00000010
00000100
00000010
00000100
00000010
00000100
00000010
00000100
00000010
00000100
00000010
00000000
00010000
00000000
00001000
00000000
,
00201000
00000000
00000000
00000000
00300000
00000000
00000000
00000000
00100000
01000000
00100000
01000000
00100000
01000000
00100000
01000000
,
00100000
01000000
00100000
01000000
00100000
01000000
00100000
01000000
00100000
01000000
00100000
00000000
00010000
00000000
00001000
00000000
,
00011000
00000000
00000010
00000000
20010000
00000000
00000000
00000000
00000000
00000000
00000000
00000000
31000000
00010000
01000000
00010000
,
01000000
00010000
01000000
00010000
01000000
00010000
01000000
00010000
01000000
00010000
01000000
00010000
01000000
00010000
01000000
00000000
,
00010000
00000000
00001000
00000000
00011000
00000000
00000000
00000000
00001002
00000000
00000000
00000000
00000103
00001000
00000100
00001000
,
00000100
00001000
00000100
00001000
00000100
00001000
00000100
00001000
00000100
00001000
00000100
00001000
00000100
00001000
00000100
00000000
,
00001000
00000000
00000000
00000000
00000000
00000000
00010000
00000000
00000000
00000000
00000000
00000000
00021000
00000000
00000000
00000000
00000000
00000000
00000000
00000000
02030000
00000000
00000000
00000000
00000000
00000000
00000000
00000000
03200000
00000000
00000000
00000000
00000000
00000000
00000000
00000000
01300000
00000000
00000000
00010000
00000000
00000000
01000000
00000000
00000000
00010000
00000000
00000000
,
01000000
00010000
01000000
00010000
01000000
00010000
01000000
00010000
01000000
00010000
01000000
00010000
01000000
00000000
00100000
00000000
,
00001000
00010000
00011000
01000000
00001001
00000000
00000001
00000100
,
00001000
00000100
00000001
00000000
00000001
00000100
00001000
00010000
,
00000010
00001000
00010000
00000000
10000000
01000000
00010000
01000000
,
10000000
00000000
00010000
00000000
00100000
00000000
00010000
00000000
00001000
00000000
00000000
00001000
00000001
00000000
00000000
00000001
,
00001000
00000000
00000000
00001000
00010000
00000000
00000000
00000000
10000000
00000000
01000000
00000000
00010000
00000000
00001000
00000000
,
00100000
00010000
10000000
00100000
10000000
01000000
00010000
00001000
,
00100000
00000000
00010000
00000000
00010000
00001000
00000000
00000000
00000001
00000000
00000100
00000000
00001000
00000000
00010000
00001000
,
00010000
00000000
00001000
00000000
00000010
00000000
00000000
00000000
00000002
00000000
00000000
00000203
00000000
00000000
00002300
00000000
,
00000000
00000000
02003000
00000000
03200000
00000000
00000000
00000000
10300000
00000000
01000000
00100000
01000000
00000000
00010000
00000000
,
00001000
00000000
00010000
00000000
00000010
00000000
00001000
00000000
00000001
00000000
00000100
00000010
00000100
00000000
00001000
00000000
,
00010000
00000000
00000010
00000000
00001000
00000000
00000000
00000000
00000001
00000000
00000010
00000100
00000010
00000000
00001000
00000000
,
00010000
00001000
00010000
00000000
00000100
00000000
00001000
00000000
00010000
00000000
00000000
00010000
10000000
00000000
00000000
10000000
,
00010000
00000000
00000000
00010000
00001000
00000000
00000000
00000000
00000001
00000000
00000100
00000000
00000001
00000000
00000100
00000000
,
00001000
00010000
00001000
00010000
00100000
10000000
00100000
10000000
,
01000000
00010000
01000000
00010000
00001000
00000010
00000001
00000010
,
00001000
00010000
00001000
00000010
00002000
00000000
00000000
00000000
,
00000000
00000000
00000000
00000000
00000000
00000000
00000000
00000000
00013000
00000000
00100000
01000000
00100000
00000000
00010000
00100000
,
01000000
00000000
00010000
00000000
10000000
00000000
01000000
00000000
00000000
00000000
10000000
00000000
00010000
00000000
01000000
00100000
,
10000000
00100000
01000000
00000000
00100000
00000000
00010000
00000000
00001000
00000000
00000010
00000100
00000010
00000000
00001000
00000010
,
00000100
00000000
00001000
00000000
00000001
00000000
00000100
00000000
00001000
00000000
00010000
00001000
00010000
00000000
00001000
00000000
,
00000010
00000000
00000001
00000000
00000010
00000000
00001000
00000000
00010000
00000000
00100000
01000000
00100000
00000000
00010000
00100000
,
01000000
00100000
10000000
00000000
00010000
00000000
10000000
00000000
01000000
00000000
00010000
00001000
00010000
00000000
00100000
10000000
,
00100000
10000000
00100000
00000000
01000000
00000000
00010000
00000000
00001000
00000000
00000000
00001000
00000001
00000000
00000000
00000001
,
00001000
00000000
00000000
00001000
00020000
00000000
00000000
00000000
00030100
00001000
00000100
00001000
00000100
00001000
00000100
00001000
,
00000100
00000000
00001000
00000000
00010000
00000000
00100000
00000000
10000000
00010000
00100000
00010000
10000000
00000000
01000000
00100000
,
00010000
00100000
01000000
00000000
00010000
00001000
00010000
00000100
00001000
00000000
00000001
00000010
00000100
00000010
00000001
00000000
,
00001000
00000100
00000001
00000100
00001000
00000000
00000000
00000000
00000001
00001000
00000010
00001000
00000001
00000000
00000100
00000010
,
00001000
00000010
00000100
00000000
00001000
00010000
00001000
01000000
00100000
00000000
10000000
00100000
01000000
00100000
10000000
00000000
,
00010000
00100000
10000000
00100000
00010000
00000000
00000000
00000000
00001000
00000000
00000000
00000000
00000001
00000000
00000000
00000000
,
00000100
00001000
00010000
00001000
,
00000010
00000001
00002000
00000100
,
00000001
00000010
00023000
01000000
,
10000000
00000000
00000000
00000000
00130000
00000000
00000000
00000000
01000000
00010000
01000000
00010000
01000000
00010000
01000000
00010000
,
01000000
00000000
00010000
00000000
00001000
00000000
00000000
00000000
00000100
00001000
00000100
00001000
00000100
00001000
00000100
00001000
,
00000100
00000000
00001000
00000000
00010000
00000000
00000000
00000000
10010000
00000000
10000000
01000000
10000000
00000000
01000000
00000000
,
00010000
00001000
00010000
00000000
00100000
00000000
01000000
00010000
01000000
00000000
00010000
00000000
10000000
00000000
01000000
00000000
,
00010000
00000000
00001000
00000000
00000100
00001000
00010000
00000000
00001000
00000000
00000010
00000100
00000010
00000000
00000001
00000000
,
00000100
00000010
00000100
00000000
00000010
00000000
00001000
00000000
00010000
00000000
00100000
00000000
00010000
00000000
00001000
00000000
,
00000010
00000000
00001000
00000000
00010000
00000000
00100000
00000000
00001000
00010000
00000000
00010000
00100000
00000000
10000000
00000000
,
00010000
00100000
00000000
00100000
01000000
00000000
10000000
00000000
10010000
00000000
00010000
00100000
00001000
00000000
00010000
00001000
,
00010000
00000000
00001000
00010000
00000100
00000000
00001000
00000000
00000001
00000100
00000010
00000100
00001000
00000000
00010000
00001000
,
00010000
00000000
00100000
01000000
00010000
01000000
00100000
00000000
20000000
30000000
00000000
02000000
03000000
00000000
00020000
00030000
,
00000000
00000000
00000200
00000300
00000020
00000030
00000000
00000000
00001000
00000000
00000010
00000100
00000010
00000000
00001000
00000010
,
00000100
00000010
00000001
00000000
00001000
00000000
00000010
00000000
00000100
00000000
00001000
00010000
00001000
00000000
00000010
00000100
,
00000010
00000000
00000001
00000000
00000100
00000000
00001000
00000000
00010000
00000000
00100000
01000000
00100000
00000000
00010000
00100000
,
01000000
00000000
00010000
00000000
00100000
00000000
00000000
00000000
00010000
00000000
00001000
00000000
00000000
00000000
00000000
00010000
,
00001000
00000000
00000000
00000000
00110000
00000000
00000000
00000000
00001000
00000000
00000010
00000100
00000010
00000000
00001000
00000010
,
00000100
00000010
00000001
00000000
00001000
00000000
00000001
00000000
00000100
00000000
00001000
00010000
00001000
00000000
00010000
00100000
,
01000000
00100000
10000000
00000000
01000000
00000000
00010000
00000000
00001000
00000010
00000100
00000010
00000001
00000000
00001000
00000001
,
00000100
00000001
00001000
00000000
00000010
00000100
00000010
00000000
00000100
00001000
00000100
00001000
00000100
00001000
00000100
00001000
,
00000100
00001000
00010000
00000000
10010000
00000000
10000000
00000000
,
01000000
00000000
00010000
00000000
00001000
00001000
00010000
00010000
,
00100000
00100000
01000000
01000000
00010000
00001000
00000000
00000000
,
00000100
00000000
00000100
00000000
00010000
00000000
00010000
00000000
01000000
00010000
01000000
00010000
01000000
00010000
01000000
00010000
,
01000000
00010000
01000000
00000000
00100000
00000000
00100000
00000000
00020000
00000000
00000000
00000000
01000000
00000000
00000000
00000000
,
10000000
00100000
00032000
00000100
,
00000001
00000000
00000010
00000000
00013000
01000000
10000000
01000000
,
00010000
00000000
10000000
00000000
01000000
00000000
00010000
00000000
00001000
00010000
00001000
00000000
00010000
00000000
00100000
00000000
,
10000000
00010000
10000000
00000000
01000000
00000000
00010000
00000000
00001000
00000000
00000010
00000100
00000010
00000000
00001000
00000010
,
00000100
00000010
00000001
00000000
00000100
00000000
00001000
00000000
00010000
00000000
00100000
01000000
00100000
00000000
00010000
00100000
,
01000000
00100000
10000000
00000000
01000000
00000000
00010000
00000000
00001000
00000010
00000100
00000010
00000001
00000000
00000100
00000010
,
00000100
00000000
00001000
00010000
00001000
00010000
00001000
00000000
00010000
00100000
01000000
00100000
10000000
00000000
01000000
00100000
,
01000000
00000000
00010000
00001000
00010000
00001000
00010000
00000000
00100000
10000000
00010000
10000000
01000000
00000000
00100000
01000000
,
10000000
01000000
00100000
00000000
00010000
00100000
00001000
00010000
00001000
00000000
00000010
00000100
00001000
00000100
00000010
00000000
,
00000001
00000100
00001000
00010000
00001000
00000000
00010000
00000000
00011000
00000000
00000010
00000000
20020000
00000000
00000000
00000000
,
30030000
00000000
00000000
00000000
;
