#VERSION:0.83;
#TITLE:Xetta;
#SUBTITLE:;
#ARTIST:TangJuan vs. Black Box;
#TITLETRANSLIT:;
#SUBTITLETRANSLIT:;
#ARTISTTRANSLIT:;
#GENRE:;
#ORIGIN:;
#CREDIT:;
#BANNER:Xetta.png;
#BACKGROUND:Xetta-bg.png;
#PREVIEWVID:;
#JACKET:Xetta-jacket.png;
#CDIMAGE:;
#DISCIMAGE:;
#LYRICSPATH:;
#CDTITLE:;
#MUSIC:Xetta.ogg;
#OFFSET:0.400000;
#SAMPLESTART:17.600000;
#SAMPLELENGTH:19.200001;
#SELECTABLE:YES;
#DISPLAYBPM:200.000000:400.000000;
#BPMS:0.000=200.000;
#STOPS:;
#DELAYS:;
#WARPS:426.500=8.000;
#TIMESIGNATURES:0.000=4=4;
#TICKCOUNTS:0.000=4;
#COMBOS:0.000=1;
#SPEEDS:0.000=1.000=0.000=0,
56.000=2.000=4.000=0,
180.000=4.000=10.000=0,
190.000=3.000=0.500=0,
190.500=4.000=0.500=0,
191.000=3.000=0.500=0,
191.500=4.000=0.500=0,
380.000=8.000=4.000=0,
412.000=16.000=12.000=0;
#SCROLLS:0.000=0.500,
40.000=1.000,
124.000=0.500,
206.000=0.000,
206.167=0.850,
206.333=0.000,
206.500=0.850,
206.667=0.000,
206.833=0.850,
207.000=0.000,
207.167=0.850,
207.333=0.000,
207.500=0.850,
207.667=0.000,
207.833=0.850,
208.000=0.500,
238.000=0.000,
238.167=0.850,
238.333=0.000,
238.500=0.850,
238.667=0.000,
238.833=0.850,
239.000=0.000,
239.167=0.850,
239.333=0.000,
239.500=0.850,
239.667=0.000,
239.833=0.850,
240.000=0.500,
256.000=0.250,
288.000=0.500,
320.000=0.250,
336.000=0.500,
368.000=0.250,
424.000=0.000,
426.500=0.100;
#FAKES:;
#LABELS:0.000=Song Start;
#BGCHANGES:1.333=Xetta.avi=1.000=0=0=0=StretchNoLoop====,
99999=-nosongbg-=1.000=0=0=0 // don't automatically add -songbackground-
;
#KEYSOUNDS:;
#ATTACKS:
;

//---------------dance-single - ----------------
#NOTEDATA:;
#CHARTNAME:;
#STEPSTYPE:dance-single;
#DESCRIPTION:;
#CHARTSTYLE:;
#DIFFICULTY:Challenge;
#METER:18;
#RADARVALUES:0.973894,1.381845,0.313077,0.727905,0.947059,871.000000,831.000000,40.000000,93.000000,0.000000,0.000000,0.000000,0.000000,0.000000,0.973894,1.381845,0.313077,0.727905,0.947059,871.000000,831.000000,40.000000,93.000000,0.000000,0.000000,0.000000,0.000000,0.000000;
#CREDIT:Kekkle;
#DISPLAYBPM:200.000000:400.000000;
#NOTES:
// measure 0
0000
0000
0000
0000
,  // measure 1
0000
0000
0000
0000
,  // measure 2
0000
0000
0000
0000
,  // measure 3
0000
0000
0000
0000
,  // measure 4
0000
0000
0000
0000
,  // measure 5
0000
0000
0000
0000
,  // measure 6
0000
0000
0000
0000
,  // measure 7
0000
0000
0000
0000
,  // measure 8
0000
0000
0000
0000
,  // measure 9
0000
0000
0000
0000
,  // measure 10
1000
0010
0100
0010
1000
0001
0010
0100
,  // measure 11
1000
0001
1000
0100
0010
0100
1000
0001
1000
0010
0100
0001
,  // measure 12
1000
1000
0001
0001
1000
1000
0001
0001
,  // measure 13
1000
0100
0010
0001
0010
0100
1000
0010
0100
0001
0100
0010
,  // measure 14
1000
2000
0000
0000
0001
0002
3003
0000
,  // measure 15
1000
0010
0100
0010
1000
0001
0010
0100
,  // measure 16
0001
0000
0100
0000
1000
0000
0001
1000
0010
0000
0100
0000
0010
0000
0010
0000
,  // measure 17
1000
0001
0010
0100
0001
0100
0010
0001
,  // measure 18
1000
0000
0001
0100
0010
0000
0100
0010
1000
0001
1000
0100
1000
0001
0010
0100
,  // measure 19
0010
0001
1000
0010
0001
0010
0100
0100
,  // measure 20
0010
1000
0001
0010
1000
0010
0100
0100
,  // measure 21
0010
0001
0010
0100
1000
0100
0010
0001
1000
0001
0100
0020
,  // measure 22
0000
0000
0130
0000
0001
0000
0001
0000
1000
0100
1000
0001
0100
0010
1000
0010
,  // measure 23
0100
0001
1000
0100
0010
0001
1000
0010
,  // measure 24
0001
0000
0010
0000
0100
0000
0001
1000
0100
0000
0010
0000
0100
0000
0100
0000
,  // measure 25
1000
0001
0100
0010
0001
0010
0100
0001
,  // measure 26
1000
0000
0100
0010
0001
0000
1000
0001
0100
0001
1000
0001
0010
0100
0010
0001
,  // measure 27
1000
0001
0100
0010
0001
0010
0100
0100
,  // measure 28
0001
1000
0100
0010
1000
0010
0100
0100
,  // measure 29
0010
0001
1000
0001
0010
0100
1000
0001
0100
0010
1000
0002
,  // measure 30
0000
0000
1003
0000
0100
0000
0010
0001
1000
0001
0100
0001
1000
0001
0010
0100
,  // measure 31
2000
0000
0010
0000
3010
0000
0200
0000
0010
0000
0310
0000
,  // measure 32
0002
0000
0010
0000
0013
0000
2000
0000
0001
0000
3001
0000
,  // measure 33
0020
0000
0100
0000
0130
0000
0002
0000
0100
0000
0103
0000
,  // measure 34
2000
0000
0000
0000
0000
0000
0000
0000
0100
0000
0000
0000
0000
0000
0000
0000
3100
0000
0000
0000
0000
0000
0000
0000
0020
0000
0000
0000
0000
0000
0000
0000
0000
0000
0000
0000
0030
0000
0000
0000
0000
0000
0001
0000
0000
1000
0000
0000
,  // measure 35
0002
0000
0103
0000
0010
0100
0020
0000
0100
0000
0130
0000
,  // measure 36
2000
0000
0100
0000
3100
0000
0002
0000
1000
0000
1003
0000
,  // measure 37
0200
0000
0010
0000
0310
0000
2000
0000
0010
0000
3010
0000
,  // measure 38
0002
0000
0010
0000
0013
0000
0200
0000
0000
0300
0000
0000
,  // measure 39
2000
0000
3001
0000
1000
0100
0010
0100
,  // measure 40
1000
0010
0100
0001
0010
0100
1000
0100
,  // measure 41
0020
0000
0000
0000
0000
0000
0031
1000
0001
0000
0100
0000
0010
0000
1000
0000
,  // measure 42
0001
0010
0100
1000
0010
0100
0010
1000
,  // measure 43
1002
0000
0000
0013
0100
0010
0001
0100
,  // measure 44
0110
0010
1000
0010
0000
0100
0010
0100
,  // measure 45
0001
1000
0001
1000
0001
0001
0010
0010
,  // measure 46
0100
0000
0100
0000
1000
0000
1000
0000
0001
0100
0001
1000
0001
0010
0100
1000
,  // measure 47
0001
1000
0100
1000
0001
1000
0010
0100
0020
0000
0000
0000
0130
0000
0000
0000
,  // measure 48
1001
0000
0000
0000
1000
0100
0001
0000
0100
0000
1000
0000
0001
0000
0201
0000
,  // measure 49
0000
2000
3300
0000
1100
0100
0101
0001
,  // measure 50
2000
0000
0000
0000
3001
0010
1000
0000
0010
0000
0001
0000
1000
0000
1020
0000
,  // measure 51
0000
0000
0000
0002
0000
0000
0033
0000
0000
0000
0000
0000
0001
0000
0010
0000
1000
0000
0001
0000
0010
0000
1000
0000
,  // measure 52
0020
0000
0000
0000
1030
0010
0001
0000
1000
0000
0100
0000
0010
0000
0021
0000
,  // measure 53
0000
2000
3030
0000
1010
0010
0011
0001
,  // measure 54
0200
0000
0000
0000
1300
0100
0001
0000
1000
0000
0010
0000
0100
0000
0201
0000
,  // measure 55
0000
2000
3300
0000
1200
0000
0301
0000
,  // measure 56
1001
0000
0000
0000
1000
0100
0010
0001
1000
0000
0010
0000
0200
0000
1000
0000
,  // measure 57
0000
0000
0301
0000
0000
0000
1000
0001
0010
0000
0100
0000
0100
0000
0100
1000
,  // measure 58
0001
0000
1000
0000
1100
0000
0001
0000
0011
0000
1000
0000
0001
0000
0001
1000
,  // measure 59
0020
0000
0000
0000
0000
0000
1000
0000
0000
0000
0000
0000
1030
0000
0000
0001
0000
0000
0100
0000
0000
0010
0000
0000
0001
0000
0000
0000
0010
0000
0000
0000
1000
0000
0000
0000
0001
0000
0000
0000
0010
0000
0000
0000
1000
0000
0000
0000
,  // measure 60
0020
0000
0000
0000
0130
0000
0100
1000
0001
0000
1000
0001
0100
0000
0200
0000
,  // measure 61
0000
0000
0310
0000
0001
0000
1000
0100
0001
0000
1000
0000
0100
0000
0001
0100
,  // measure 62
2000
0000
3001
0010
1000
0010
0001
1000
,  // measure 63
1010
0001
0011
1000
1001
0000
0110
0000
,  // measure 64
0001
1000
0010
0100
,  // measure 65
0010
0001
0010
1000
,  // measure 66
0002
0000
0103
1000
,  // measure 67
0100
0001
1000
0100
,  // measure 68
0020
0000
0230
0000
,  // measure 69
1300
0001
0100
1000
,  // measure 70
0200
0000
0000
0000
,  // measure 71
0310
0010
0010
0010
0020
0000
0000
1030
,  // measure 72
1001
0000
0001
0010
0100
0000
0001
0000
1000
0000
0010
0100
1000
0000
0001
0000
,  // measure 73
0101
0000
1000
0000
1010
0000
0001
0000
2001
0000
0000
0000
3001
0100
0010
1000
,  // measure 74
0001
0000
1000
0010
0100
0000
1000
0000
0001
0000
0010
0100
0001
0000
1000
0000
,  // measure 75
0100
0000
0010
0001
1000
0000
0001
0000
2002
0000
3003
0000
0220
0000
0330
0000
,  // measure 76
0001
0000
0100
0000
1000
0100
0001
1000
0100
0000
0010
0000
1000
0010
0001
1000
,  // measure 77
0010
0100
0001
0000
0100
0010
0001
0010
2000
0000
0000
0001
0000
0000
3010
0000
,  // measure 78
1020
0030
2100
3000
0021
0030
0102
0003
,  // measure 79
1001
0000
1000
0000
0010
0100
1000
0100
0001
0000
1000
0000
0100
0001
0100
1000
,  // measure 80
0001
0000
0000
1000
0000
0000
0010
0000
0011
0000
0000
0000
0001
0000
0010
0000
,  // measure 81
1000
0001
0010
1000
0002
0000
0103
0100
,  // measure 82
1000
0000
0000
0001
0000
0000
0100
0000
1100
0000
0000
0000
1000
0000
0100
0000
,  // measure 83
0001
0000
0000
1000
0000
0000
0100
0000
0020
0000
0000
0000
0230
0000
0000
0000
,  // measure 84
1300
0001
0010
0001
0010
0100
1000
0010
1000
0001
0100
0001
0100
0010
1000
0100
,  // measure 85
0010
0001
1000
0010
0001
0010
0100
0001
1000
0000
0001
0010
0000
0000
0110
0000
,  // measure 86
1000
0000
0010
0100
0000
0000
0110
0000
0001
0000
0010
0100
0000
0000
0110
0000
,  // measure 87
2002
3003
0220
0330
2002
3003
0220
0330
,  // measure 88
1000
0000
0001
0010
0001
0010
0100
1000
0010
0000
1000
0010
1000
0010
0100
0001
,  // measure 89
0010
0000
0100
1000
0100
1000
0001
0100
0010
1000
0100
0010
0001
0010
0100
1000
,  // measure 90
0001
0000
1000
0100
1000
0100
0010
0001
0100
0000
0001
0100
0001
0100
0010
1000
,  // measure 91
0100
0000
0010
0001
0010
0001
1000
0010
0100
0001
0010
0100
1000
0100
0010
0001
,  // measure 92
1000
0000
0010
0010
0000
0100
0100
0000
,  // measure 93
0001
0000
0001
0000
1000
0000
0100
0010
0000
0000
0010
0000
1001
0000
0000
0000
,  // measure 94
0001
0000
0100
0010
0100
0000
0010
1000
0000
0010
0100
0000
0001
0000
0001
0000
,  // measure 95
1000
0000
0001
0010
0001
0000
1000
0010
0100
0001
0100
0001
1000
0100
1000
0100
,  // measure 96
0010
0001
1000
0001
0010
0100
1000
0001
1000
0010
1000
0100
0010
0001
1000
0010
,  // measure 97
0100
0010
1000
0001
0010
0100
1000
0001
1000
0100
0010
0001
0100
0010
1000
0100
,  // measure 98
0010
0001
1000
0010
0100
0001
1000
0001
0010
0100
1000
0001
0100
0001
1000
0001
,  // measure 99
0010
0100
1000
0001
0100
0010
1000
0001
0200
0000
0000
0000
0000
0000
0000
0000
,  // measure 100
0301
1000
0100
0010
0100
1000
0001
0100
0010
1000
0001
0010
0100
1000
0010
0100
,  // measure 101
0010
1000
0100
0010
0001
0100
0010
0100
1000
0100
0001
1000
0100
0010
1000
0010
,  // measure 102
0001
1000
0010
0100
0010
1000
0001
0010
1000
0010
0100
1000
0001
0100
0010
1000
,  // measure 103
0002
0023
0230
2300
3002
0023
0230
2300
,  // measure 104
3002
0023
0230
2300
3002
0023
0230
2300
,  // measure 105
3002
0023
0230
2300
3002
0023
0230
2300
,  // measure 106
3002
0000
0000
0000
,  // measure 107
0003
0000
0000
0000
;

//---------------dance-double - ----------------
#NOTEDATA:;
#CHARTNAME:;
#STEPSTYPE:dance-double;
#DESCRIPTION:;
#CHARTSTYLE:;
#DIFFICULTY:Challenge;
#METER:18;
#RADARVALUES:0.938114,1.381845,0.242635,0.555712,0.872703,839.000000,808.000000,31.000000,71.000000,0.000000,0.000000,0.000000,0.000000,0.000000,0.938114,1.381845,0.242635,0.555712,0.872703,839.000000,808.000000,31.000000,71.000000,0.000000,0.000000,0.000000,0.000000,0.000000;
#CREDIT:Kekkle;
#DISPLAYBPM:200.000000:400.000000;
#NOTES:
00000000
00000000
00000000
00000000
,
00000000
00000000
00000000
00000000
,
00000000
00000000
00000000
00000000
,
00000000
00000000
00000000
00000000
,
00000000
00000000
00000000
00000000
,
00000000
00000000
00000000
00000000
,
00000000
00000000
00000000
00000000
,
00000000
00000000
00000000
00000000
,
00000000
00000000
00000000
00000000
,
00000000
00000000
00000000
00000000
,
10000000
00100000
01000000
00100000
10000000
00010000
00100000
01000000
,
10000000
00010000
10000000
01000000
00100000
00010000
00100000
00001000
00100000
00001000
00010000
00000010
,
00001000
00001000
00000001
00000001
00001000
00001000
00000001
00000001
,
00000010
00000001
00000010
00000100
00001000
00000100
00010000
00001000
00100000
00001000
00100000
00010000
,
10000000
20000000
00000000
00000000
00010000
00020000
30030000
00000000
,
10000000
00010000
00100000
01000000
10000000
00010000
01000000
00100000
,
00010000
00000000
00001000
00000000
00000100
00000000
00000010
00001000
00000001
00000000
00001000
00000000
00000100
00000000
00000100
00000000
,
00000010
00000001
00001000
00000010
00000100
00001000
00010000
00100000
,
01000000
00000000
00010000
10000000
01000000
00000000
00100000
00010000
10000000
00000000
00010000
00100000
01000000
00100000
00010000
10000000
,
00100000
00010000
10000000
01000000
00001000
00010000
00000100
00000100
,
00000010
00001000
00000001
00000100
00010000
00001000
01000000
01000000
,
00100000
10000000
00010000
00100000
00001000
00010000
00000100
00000010
00000001
00001000
00000010
00000200
,
00000000
00000301
00000100
00000010
00001000
00010000
01000000
00100000
,
10000000
00010000
00100000
01000000
10000000
00010000
01000000
00100000
,
00010000
00000000
00001000
00000000
00000010
00000000
00000100
00001000
00000001
00000000
00001000
00000000
00000010
00000000
00000010
00000000
,
00000100
00000001
00001000
00000100
00000010
00001000
00010000
00100000
,
01000000
00000000
00010000
10000000
00100000
00000000
01000000
00010000
10000000
00000000
00010000
01000000
00100000
01000000
00010000
10000000
,
01000000
00010000
10000000
00100000
00001000
00010000
00000010
00000010
,
00000100
00001000
00000001
00000010
00010000
00001000
00100000
00100000
,
01000000
10000000
00010000
01000000
00001000
00010000
00000010
00000100
00000001
00001000
00000100
00000020
,
00000000
00000000
00000031
00000000
00000010
00000000
00000100
00000000
00001000
00000100
00010000
00001000
01000000
00010000
01000000
00100000
,
10000000
00000000
00100000
00000000
00010000
00000000
10000000
00000000
00010000
00000000
00100000
00000000
,
10000000
00000000
01000000
00000000
00010000
00000000
00001000
00000000
00000010
00000000
00000001
00000000
,
00001000
00000000
00000010
00000000
00000001
00000000
00001000
00000000
00000001
00000000
00000010
00000000
,
00001000
00000000
00000000
00000000
00000000
00000000
00000000
00000000
00000100
00000000
00000000
00000000
00000000
00000000
00000000
00000000
00010000
00000000
00000000
00000000
00000000
00000000
00000000
00000000
00002000
00000000
00000000
00000000
00000000
00000000
00000000
00000000
00000000
00000000
00000000
00000000
00000000
00000000
00000000
00000000
00000000
00000000
00013000
00000000
00000000
00001000
00000000
00000000
,
00010000
00000000
00100000
00000000
10000000
00010000
10000000
00000000
01000000
00000000
00010000
00000000
,
10000000
00000000
00010000
00000000
01000000
00000000
10000000
00000000
00100000
00000000
00010000
00000000
,
00001000
00000000
00000100
00000000
00000001
00000000
00001000
00000000
00000100
00000000
00000001
00000000
,
00001000
00000000
00000001
00000000
00000100
00000000
00002000
00000000
00000000
00000000
00000000
00000000
,
00003001
00000000
00000100
00000000
00000010
00001000
00000010
00000100
,
00000001
00001000
00000100
00010000
00001000
00100000
00001000
00010000
,
00200000
00000000
00000000
00000000
00000000
00000000
10300000
00010000
10000000
00000000
01000000
00000000
00100000
00000000
00010000
00000000
,
10000000
00100000
00010000
00001000
00100000
00001000
00010000
00000100
,
00002100
00000000
00000000
00003001
00000100
00000010
00010000
00001000
,
00011000
00000000
00010000
00001000
00000000
00100000
01000000
10000000
,
00010000
01000000
00010000
01000000
00100000
00100000
10000000
10000000
,
00010000
00000000
00010000
00000000
00100000
00000000
00100000
00000000
00001000
00010000
00000100
00001000
00000100
00000010
00000001
00001000
,
00000010
00010000
00000010
00001000
00000001
00000010
00000100
00001000
00000002
00000000
00000000
00000000
00000103
00000000
00000000
00000000
,
00001001
00000000
00000000
00000000
00001000
00000010
00000100
00000000
00001000
00000000
00000001
00000000
00001000
00000000
00020000
00000000
,
00000000
00200000
00330000
00000000
10100000
00010000
00110000
10000000
,
10010000
00000000
00000000
00000000
00010000
00100000
01000000
00000000
00010000
00000000
10000000
00000000
00010000
00000000
00002000
00000000
,
00000000
00000000
00000000
00000020
00000000
00000000
00003030
00000000
00000000
00000000
00000000
00000000
00000001
00000000
00000010
00000000
00001000
00000000
00010000
00000000
01000000
00000000
10000000
00000000
,
10010000
00000000
00000000
00000000
00010000
01000000
00100000
00000000
00010000
00000000
10000000
00000000
00010000
00000000
00002000
00000000
,
00000000
00000200
00003300
00000000
00000101
00001000
00001100
00000001
,
00001001
00000000
00000000
00000000
00001000
00000100
00000010
00000000
00001000
00000000
00000001
00000000
00001000
00000000
00020000
00000000
,
00000000
02000000
03030000
00000000
01100000
00000000
10010000
00000000
,
01100000
00000000
00000000
00000000
10000000
01000000
00100000
00010000
10000000
00000000
00100000
00000000
00020000
00000000
00000010
00000000
,
00000000
00000000
00130000
00000000
00000000
00000000
00010000
00001000
00010000
00000000
00000100
00000000
00000100
00000000
00000100
00000010
,
00000001
00000000
00001000
00000000
00000010
00000000
00000001
00000000
00001000
00000000
00010000
00000000
00100000
00000000
10000000
00010000
,
00200000
00000000
00000000
00000000
00000000
00000000
01000000
00000000
00000000
00000000
00000000
00000000
01300000
00000000
00000000
10000000
00000000
00000000
00010000
00000000
00000000
00000000
00000000
00000000
10000000
00000000
00000000
00000000
00100000
00000000
00000000
00000000
00010000
00000000
00000000
00000000
00001000
00000000
00000000
00000000
00000100
00000000
00000000
00000000
00000001
00000000
00000000
00000000
,
00001001
00000000
00000000
00000000
00001000
00000000
00000100
00000010
00000001
00000000
00001000
00000010
00000100
00000000
00000200
00000000
,
00000000
00000000
00001000
00000000
00001300
00000000
00010000
00100000
10000000
00000000
01000000
00000000
00010000
00000000
00001000
00000010
,
00000002
00000000
00001003
00000010
00000100
00010000
01000000
00001000
,
00011000
01000000
01100000
00010000
10010000
00000000
01100000
00000000
,
10000000
00100000
01000000
00010000
,
00001000
00000010
00000100
00000001
,
00002000
00000000
00003001
00000010
,
00001000
00010000
01000000
00010000
,
00002000
00000000
00023000
00000000
,
00130000
10000000
01000000
00010000
,
00002000
00000000
00000000
00000000
,
00013000
00010000
00010000
00010000
00020000
00000000
00000000
00031000
,
00011000
00000000
00010000
00000010
00000100
00000000
00001000
00000000
00010000
00000000
00001000
00100000
01000000
00000000
00010000
00000000
,
00001000
00000000
00010000
00000000
01000000
00000000
10000000
00000000
00200000
00000000
00000000
00000000
10300000
00010000
00100000
00001000
,
00010000
00000000
00001000
01000000
00100000
00000000
00010000
00000000
00001000
00000000
00010000
00000100
00000010
00000000
00001000
00000000
,
00020000
00000000
00000000
02030000
00000000
00000000
13000000
00000000
20020000
00000000
30030000
00000000
02200000
00000000
03300000
00000000
,
10000000
00000000
01000000
00000000
00010000
00001000
00000010
00000100
00001000
00000000
00000001
00000000
00000100
00001000
00010000
00100000
,
01000000
00000000
00010000
01000000
10000000
00000000
10000000
01000000
00020000
00000000
00000000
20030000
00000000
00000000
31000000
00000000
,
01200000
00300000
00102000
00003000
00010020
00000030
00000210
00000300
,
00000001
00000100
00010000
00001000
00100000
10000000
00010000
00000000
,
10000000
00000000
00000000
01000000
00000000
00000000
00010000
00000000
00011000
00000000
00000000
00000000
00010000
00000000
01000000
00000000
,
00100000
10000000
00100000
01000000
00010000
00000000
00001000
00000010
,
00000001
00000000
00000000
00000100
00000000
00000000
00001000
00000000
00011000
00000000
00000000
00000000
00001000
00000000
00000100
00000000
,
00000010
00000000
00000000
00000001
00000000
00000000
00000010
00000000
00020000
00000000
00000000
00000000
00032000
00000000
00000000
00000000
,
01003000
00010000
01000000
00100000
01000000
10000000
01000000
00000000
00010000
10000000
00010000
00100000
01000000
00010000
00001000
00000000
,
00010000
00001000
00000010
00000001
00001000
00000010
00000100
00000010
00001000
00000000
00000001
00000100
00000000
00000000
00011000
00000000
,
00001000
00000000
01000000
00100000
00000000
00000000
00011000
00000000
00010000
00000000
00000100
00000010
00000000
00000000
00011000
00000000
,
00002000
02003000
03200000
20300000
,
30010000
00000000
00100000
01000000
00010000
01000000
00100000
00000000
00010000
00000000
10000000
00100000
01000000
00100000
10000000
00000000
,
00100000
00000000
00010000
00001000
00010000
00001000
00000010
00000100
00001000
00000001
00001000
00000010
00000100
00000001
00000010
00000100
,
00001000
00000000
00000010
00000100
00001000
00000100
00000010
00000000
00001000
00000000
00000001
00000010
00000100
00000010
00000001
00000000
,
00000010
00000000
00001000
00010000
00001000
00010000
00100000
01000000
00010000
10000000
00010000
00100000
01000000
10000000
00100000
01000000
,
00010000
00000000
01000000
01000000
00000000
00100000
00100000
00000000
,
10000000
00000000
00010000
00000000
00100000
00000000
00001000
00010000
00000000
00000000
00010000
00000000
00011000
00000000
00000000
00000000
,
00001000
00000000
00010000
00000100
00010000
00000000
00000100
00000010
00000000
00000001
00000010
00000000
00000001
00000000
00000001
00000000
,
00001000
00000000
00000001
00000100
00000010
00000000
00000100
00000010
00010000
00001000
00010000
00001000
00010000
00001000
00010000
00001000
,
00100000
00010000
00100000
01000000
10000000
00010000
01000000
00100000
10000000
00100000
01000000
00001000
00010000
00000100
00001000
00000100
,
00000010
00000001
00001000
00000010
00000100
00000010
00001000
00000001
00000010
00000001
00001000
00000001
00000100
00000010
00001000
00000010
,
00010000
00001000
00100000
00001000
00010000
00000100
00010000
00001000
01000000
00010000
10000000
01000000
00100000
01000000
10000000
00010000
,
10000000
01000000
00100000
00010000
10000000
00100000
01000000
00001000
00020000
00000000
00000000
00000000
00000000
00000000
00000000
00000000
,
00031000
00100000
00001000
00010000
00000010
00001000
00000100
00000010
00000001
00000100
00000010
00001000
00000001
00000010
00000100
00010000
,
00001000
01000000
00010000
00100000
01000000
10000000
00010000
01000000
00100000
00010000
00100000
01000000
00010000
10000000
01000000
00010000
,
00001000
00000010
00000100
00001000
00000001
00000100
00000010
00000100
00001000
00010000
00100000
10000000
00010000
10000000
01000000
00010000
,
00002000
02003000
03020000
00230000
00302000
02003000
03020000
00230000
,
00302000
02003000
03020000
00230000
00302000
02003000
03020000
00230000
,
00302000
02003000
03020000
00230000
00302000
02003000
03020000
00230000
,
00302000
00000000
00000000
00000000
,
00003000
00000000
00000000
00000000
;

//---------------dance-single - ----------------
#NOTEDATA:;
#CHARTNAME:;
#STEPSTYPE:dance-single;
#DESCRIPTION:;
#CHARTSTYLE:;
#DIFFICULTY:Hard;
#METER:17;
#RADARVALUES:0.858726,1.214348,0.336558,0.477443,0.680943,768.000000,725.000000,43.000000,61.000000,0.000000,0.000000,0.000000,0.000000,0.000000,0.858726,1.214348,0.336558,0.477443,0.680943,768.000000,725.000000,43.000000,61.000000,0.000000,0.000000,0.000000,0.000000,0.000000;
#CREDIT:Kekkle;
#DISPLAYBPM:200.000000:400.000000;
#NOTES:
0000
0000
0000
0000
,
0000
0000
0000
0000
,
0000
0000
0000
0000
,
0000
0000
0000
0000
,
0000
0000
0000
0000
,
0000
0000
0000
0000
,
0000
0000
0000
0000
,
0000
0000
0000
0000
,
0000
0000
0000
0000
,
0000
0000
0000
0000
,
1000
0010
1000
0010
0100
0010
1000
0001
,
0010
0001
0010
0001
1000
0001
1000
0010
1000
0010
0100
0010
,
0100
0100
0010
0010
0100
0100
0010
0010
,
0100
0001
0100
0010
1000
0010
1000
0001
1000
0001
0010
0100
,
1000
1001
0000
0000
0001
1001
0000
0000
,
1000
0010
0100
0010
1000
0100
0010
0100
,
0001
0000
0100
0000
0010
0000
0001
1000
0001
0000
0100
0000
0010
0000
0010
0000
,
1000
0001
0010
0100
0001
0100
0010
0001
,
1000
0000
0001
0100
0001
0000
1000
0100
1000
0000
0100
0000
0010
0000
0010
0000
,
0001
1000
0100
0010
1000
0010
0100
0010
,
0001
0100
0010
0100
1000
0100
0010
0100
,
0001
1000
0001
0010
0100
0010
0100
1000
0100
1000
0001
0200
,
0000
0310
0001
0010
1000
0001
0010
0100
,
1000
0001
1000
0010
0100
0001
0100
0010
,
0001
0000
0010
0000
0100
0000
0001
1000
0001
0000
0010
0000
0100
0000
0100
0000
,
1000
0100
0010
0100
0001
0100
0010
0001
,
1000
0000
0001
0100
0001
0000
1000
0100
1000
0000
0001
0000
0100
0000
0100
0000
,
0001
0100
0010
0100
1000
0100
0010
0100
,
0001
0010
0100
0010
1000
0010
0001
0100
,
0010
1000
0010
1000
0001
1000
0001
0010
0100
0010
0100
2000
,
0000
0000
3001
0000
0100
0000
1000
0000
0100
0000
0001
0000
1000
0001
1000
0001
,
1000
0000
0100
0000
0010
0000
1000
0000
0010
0000
0100
0000
,
1000
0000
0001
0000
1000
0000
0010
0000
0100
0000
0010
0000
,
0001
0000
0010
0000
0100
0000
0001
0000
0100
0000
0010
0000
,
1000
0000
0001
0000
0010
0000
0200
0000
0000
0000
0000
0000
,
1300
0000
0010
0000
0100
0000
1000
0000
0100
0000
0010
0000
,
1000
0000
0001
0000
1000
0000
0100
0000
0010
0000
0100
0000
,
0001
0000
0100
0000
0010
0000
0001
0000
0010
0000
0100
0000
,
1000
0000
0010
0000
0100
0000
0020
0000
0000
0000
0000
0000
,
0130
0000
0100
0000
0001
0100
0001
0100
,
0010
1000
0010
0100
0001
1000
0001
0010
,
0200
0000
0000
0000
0000
0000
1300
0001
1000
0000
0001
0000
0100
0000
0010
0000
,
1000
0001
1000
0001
0010
0100
1000
0001
,
0200
0000
0000
0310
0001
0010
1000
0001
,
1001
0000
0000
0110
0000
1000
0100
0010
,
0001
1000
0001
1000
0010
0010
0100
0100
,
0010
0000
0010
0000
0100
0000
0100
0000
0001
0100
0001
0000
0100
0010
0100
0000
,
0010
1000
0010
1000
0001
1000
0001
0000
0020
0000
0000
0000
0230
0000
0000
0000
,
2300
0000
0000
0000
3001
0100
0010
0000
0100
0000
1000
0000
0100
0000
0102
0000
,
0000
2000
3003
0000
1000
0010
0001
0010
,
2000
0000
0000
0000
3001
0010
0100
0000
0010
0000
1000
0000
0010
0000
0012
0000
,
0000
0000
0000
2000
0000
0000
3003
0000
0000
0000
0000
0000
0001
0000
0010
0000
0100
0000
1000
0000
0010
0000
0100
0000
,
0002
0000
0000
0000
1003
0100
0010
0000
0100
0000
0001
0000
0100
0000
2100
0000
,
0000
0002
3003
0000
0001
0100
1000
0100
,
0002
0000
0000
0000
1003
0010
0100
0000
0010
0000
0001
0000
0010
0000
2010
0000
,
0000
0002
3003
0000
0110
0000
1001
0000
,
0110
0000
0000
0000
0001
1000
0001
1000
0001
0000
0010
0000
0100
0000
0110
0000
,
0000
0000
0011
0000
0000
0000
0001
1000
0010
0000
0100
0000
0010
0000
1000
0010
,
0100
0000
0010
0000
0001
0000
0010
0000
1000
0000
0100
0000
0010
0000
0010
0100
,
0010
0000
0000
0002
0000
0000
0000
0000
0000
0000
0000
0000
1003
0000
0010
0000
0100
0000
0001
0000
0010
0000
0100
0000
,
2000
0000
0000
0000
3001
0000
0100
0010
1000
0000
0010
0100
0001
0000
0200
0000
,
0000
0000
0310
0000
0001
0000
0010
0000
1000
0000
0001
0000
1001
0000
1000
0001
,
0020
0000
0130
0100
0010
0010
0100
0100
,
0001
0100
1000
0010
0110
0000
1001
0000
,
1000
0010
0100
0001
,
0100
1000
0100
0001
,
2000
0000
3100
0010
,
0001
0100
1000
0100
,
0020
0000
0230
0000
,
0301
1000
0100
0010
,
0002
0000
0000
0000
,
1003
0010
1000
0020
0200
0000
0330
0000
,
1001
1000
0100
0010
0011
0000
0001
0010
,
1000
0010
0001
0010
2000
0000
3010
0001
,
1001
0001
0100
0010
1010
0000
1000
0010
,
0001
0010
1000
0001
2002
3003
0220
0330
,
1000
0000
0100
0000
0010
0001
1000
0000
0001
0000
0100
0000
0010
1000
0001
0000
,
1000
0100
0010
0000
0001
0100
0010
0000
1001
0000
0000
1000
0000
0000
0010
0000
,
2020
3030
2002
3003
0022
0033
2002
3003
,
2200
0000
3300
0000
2002
0000
3003
0000
0220
0000
0330
0000
0001
1000
0100
1000
,
0001
0000
0000
0100
0000
0000
0010
0000
0020
0000
0000
0000
0130
0000
0001
0000
,
0100
0001
0100
1000
0100
0000
0010
1000
,
0001
0000
0000
0010
0000
0000
0100
0000
0200
0000
0000
0000
0310
0000
0001
0000
,
0010
0000
0000
1000
0000
0000
0010
0000
0110
0000
0000
0000
1001
0000
0000
0000
,
0001
0100
0010
0000
1000
0100
0010
0000
0001
0100
0010
0000
1000
0100
0010
0000
,
0001
1000
0010
1000
0001
1000
0010
1000
0001
0000
0000
1001
0000
0000
0011
0000
,
1000
0000
0000
1001
0000
0000
1010
0000
0001
0000
0000
1001
0000
0000
0101
0000
,
0220
0330
2002
3003
0220
0330
2002
3003
,
1000
0000
0001
0000
0010
0001
0010
0001
0010
0000
0100
0000
1000
0001
1000
0001
,
1000
0000
0010
0000
0100
0001
0100
0001
0100
0000
0010
0000
1000
0010
1000
0010
,
1000
0000
0001
0000
0010
0001
1000
0001
1000
0000
0001
0000
0100
0010
1000
0010
,
1000
0000
0001
0000
1000
0001
0010
0001
0010
0000
0001
0000
1000
0010
0100
0010
,
0100
0000
0001
1000
0000
1000
0001
0000
,
0100
0000
0010
0000
0100
0000
0010
0100
0000
0000
0001
0000
1001
0000
0000
0000
,
1000
0000
0001
0010
0001
0000
0010
0001
0000
0000
1000
0000
0010
0000
0100
0000
,
0001
0000
1000
0100
1000
0000
0001
0000
1000
0001
1000
0001
1000
0001
0100
0000
,
0010
1000
0010
1000
0010
0100
0010
0000
1000
0001
1000
0001
0010
0001
0010
0000
,
0100
1000
0001
0000
0100
0001
1000
0000
0010
1000
0001
0000
0010
0001
1000
0000
,
0001
0100
0001
0100
0010
0100
0010
0000
1000
0010
1000
0010
1000
0001
1000
0000
,
0001
0010
0001
0010
0100
1000
0100
1000
0002
0000
0000
0000
0000
0000
0000
0000
,
1003
0010
0100
0010
1000
0010
0100
0000
0010
1000
0001
1000
0010
1000
0001
0000
,
0010
0001
1000
0000
0010
1000
0001
0000
0100
0001
1000
0000
0100
1000
0001
0000
,
1000
0010
0100
0001
1000
0010
0100
0000
0001
0010
0100
1000
0001
0010
0100
0000
,
0020
0000
0000
0000
,
0000
0000
0000
0000
,
0000
0000
0000
0000
,
0000
0000
0000
0000
,
0030
0000
0000
0000
;

//---------------dance-double - ----------------
#NOTEDATA:;
#CHARTNAME:;
#STEPSTYPE:dance-double;
#DESCRIPTION:;
#CHARTSTYLE:;
#DIFFICULTY:Hard;
#METER:17;
#RADARVALUES:0.836363,1.088726,0.344385,0.336558,0.610501,748.000000,704.000000,44.000000,43.000000,0.000000,0.000000,0.000000,0.000000,0.000000,0.836363,1.088726,0.344385,0.336558,0.610501,748.000000,704.000000,44.000000,43.000000,0.000000,0.000000,0.000000,0.000000,0.000000;
#CREDIT:Kekkle;
#DISPLAYBPM:200.000000:400.000000;
#NOTES:
00000000
00000000
00000000
00000000
,
00000000
00000000
00000000
00000000
,
00000000
00000000
00000000
00000000
,
00000000
00000000
00000000
00000000
,
00000000
00000000
00000000
00000000
,
00000000
00000000
00000000
00000000
,
00000000
00000000
00000000
00000000
,
00000000
00000000
00000000
00000000
,
00000000
00000000
00000000
00000000
,
00000000
00000000
00000000
00000000
,
10000000
01000000
10000000
01000000
00100000
00001000
00100000
00001000
,
00010000
00000010
00010000
00000010
00000100
00000010
00000100
00000001
00001000
00000001
00001000
00000100
,
00000010
00000001
00000010
00000001
00001000
00000100
00001000
00000100
,
00010000
00001000
00010000
00001000
01000000
00001000
01000000
00100000
01000000
00100000
10000000
00010000
,
10000000
10010000
00000000
00000000
00010000
10010000
00000000
00000000
,
00010000
10000000
01000000
00100000
00010000
10000000
00100000
01000000
,
00100000
00010000
00001000
00000100
00000001
00001000
00000100
00000100
,
00000010
00000001
00001000
00000010
00000001
00000010
00000100
00000001
,
00001000
00000000
00000100
00000010
00000100
00000000
00001000
00000001
00001000
00000000
00000001
00000000
00000100
00000000
00000100
00000000
,
00000001
00000100
00001000
00010000
00100000
10000000
00010000
00010000
,
10000000
01000000
00010000
00001000
00000010
00000001
00001000
00001000
,
00000001
00000100
00000001
00000100
00000010
00000100
00000010
00010000
00000010
00010000
00001000
00020000
,
00000000
00130000
10000000
01000000
00010000
00001000
00010000
00000010
,
00001000
00000010
00000100
00000001
00001000
00000100
00000010
00000100
,
00000001
00000100
00001000
00000001
00000100
00001000
00010000
00010000
,
00100000
10000000
00100000
01000000
10000000
01000000
00010000
10000000
,
01000000
00000000
00100000
01000000
00100000
00000000
00010000
10000000
00010000
00000000
10000000
00000000
00100000
00000000
00100000
00000000
,
10000000
00100000
00010000
00001000
00000100
00000001
00001000
00001000
,
00000001
00000010
00001000
00010000
01000000
01000000
10000000
10000000
,
00010000
01000000
00010000
01000000
00001000
01000000
00001000
00010000
00001000
00010000
00000100
00020000
,
00000000
00030100
00001000
00000001
00000100
00001000
00010000
00100000
,
10000000
00000000
00100000
00000000
10000000
00000000
00100000
00000000
00010000
00000000
00100000
00000000
,
00010000
00000000
00001000
00000000
00010000
00000000
00001000
00000000
00000010
00000000
00001000
00000000
,
00000010
00000000
00000001
00000000
00000010
00000000
00000001
00000000
00000100
00000000
00000001
00000000
,
00000100
00000000
00001000
00000000
00000100
00000000
00002000
00000000
00000000
00000000
00000000
00000000
,
00013000
00000000
00100000
00000000
10000000
00000000
00010000
00000000
01000000
00000000
00010000
00000000
,
10000000
00000000
01000000
00000000
00010000
00000000
00001000
00000000
00100000
00000000
00001000
00000000
,
00010000
00000000
00001000
00000000
00000010
00000000
00000001
00000000
00001000
00000000
00000001
00000000
,
00000100
00000000
00001000
00000000
00010000
00000000
00002000
00000000
00000000
00000000
00000000
00000000
,
00023000
00000000
00230000
00000000
01300000
00010000
01000000
00010000
,
10000000
01000000
10000000
01000000
00010000
00001000
00010000
00001000
,
00020000
00000000
00000000
00000000
00000000
00000000
00030010
00000100
00000010
00000000
00001000
00000000
00000001
00000000
00000010
00000000
,
00001000
00010000
00001000
00010000
01000000
10000000
00010000
01000000
,
00200000
00000000
00000000
10300000
00010000
00100000
01000000
00010000
,
00001000
00000000
00000000
00011000
00000000
00010000
00001000
00000010
,
00000001
00001000
00000001
00001000
00000010
00000100
00000010
00000100
,
00001000
00000000
00010000
00000000
00001000
00000000
00010000
00000000
00100000
01000000
00100000
00000000
10000000
00010000
10000000
00000000
,
00010000
00100000
00010000
00100000
00001000
00100000
00001000
00000000
00020000
00000000
00000000
00000000
00032000
00000000
00000000
00000000
,
00023000
00000000
00000000
00000000
00130000
01000000
00100000
00000000
00010000
00000000
00001000
00000000
00000010
00000000
00000011
00000000
,
00000000
00002200
00003300
00000000
00000001
00000100
00001000
00010000
,
00002000
00000000
00000000
00000000
00003010
00000100
00000010
00000000
00001000
00000000
00010000
00000000
00100000
00000000
10100000
00000000
,
00000000
00000000
00000000
02020000
00000000
00000000
03030000
00000000
00000000
00000000
00000000
00000000
10000000
00000000
01000000
00000000
00100000
00000000
00010000
00000000
00001000
00000000
00000100
00000000
,
00000020
00000000
00000000
00000000
00000130
00001000
00000100
00000000
00000010
00000000
00001000
00000000
00010000
00000000
01010000
00000000
,
00000000
22000000
33000000
00000000
01000000
00010000
00001000
01000000
,
00200000
00000000
00000000
00000000
01300000
00010000
01000000
00000000
00100000
00000000
00010000
00000000
00001000
00000000
00001100
00000000
,
00000000
00000202
00000303
00000000
00001001
00000000
00000110
00000000
,
00001001
00000000
00000000
00000000
00000001
00001000
00000001
00001000
00000001
00000000
00000100
00000000
00001000
00000000
00011000
00000000
,
00000000
00000000
00101000
00000000
00000000
00000000
00001000
00010000
00001000
00000000
00010000
00000000
00100000
00000000
10000000
00010000
,
10000000
00000000
01000000
00000000
00010000
00000000
00001000
00000000
00000100
00000000
00000001
00000000
00000100
00000000
00001000
00010000
,
00001000
00000000
00000000
00000200
00000000
00000000
00000000
00000000
00000000
00000000
00000000
00000000
00000301
00000000
00000010
00000000
00000100
00000000
00001000
00000000
00010000
00000000
00100000
00000000
,
01000000
00000000
00000000
00000000
10000000
00000000
00010000
10000000
00010000
00000000
01000000
00100000
10000000
00000000
00200000
00000000
,
00000000
00000000
00310000
00000000
00001000
00000000
00000100
00000000
00000010
00000000
00001000
00000000
00000001
00000000
00000010
00000100
,
00000020
00000000
00001030
00010000
01000000
10000000
00100000
00010000
,
00001000
00001000
00010000
00010000
00010010
00000000
00101000
00000000
,
00001000
00010000
00000010
00001000
,
00000100
00000001
00000100
00001000
,
00000002
00000000
00000103
00000010
,
00000100
00001000
00010000
00100000
,
02000000
00000000
03020000
00000000
,
10030000
01000000
00010000
00001000
,
00020000
00000000
00000000
00000000
,
00030010
00010000
00000010
00020000
00002000
00000000
00033000
00000000
,
00011000
00010000
00100000
10000000
10010000
00000000
10000000
01000000
,
00010000
00001000
00000010
00001000
00020000
00000000
00030010
00010000
,
00011000
00001000
00000010
00000001
00001001
00000000
00000001
00000100
,
00002000
00000000
00000000
00023000
00000000
00000000
00130000
00000000
01100000
00000000
00000000
00000000
10010000
00000000
00000000
00000000
,
10000000
00000000
01000000
00000000
00100000
00001000
00100000
00000000
00001000
00000000
00010000
00000000
00000010
00010000
00000010
00000000
,
00000100
00000000
00000001
00000000
00001000
00000100
00001000
00000100
00000020
00000000
00000000
00000031
00001000
00000000
00000001
00000000
,
00000101
00000110
00010010
00011000
,
00101000
01100000
20020000
30030000
,
10000000
00000000
00000000
00100000
00000000
00000000
01000000
00000000
00200000
00000000
00000000
00000000
00310000
00000000
00001000
00000000
,
00010000
00001000
00000100
00000001
00000100
00000000
00000001
00001000
,
00000001
00000000
00000000
00000010
00000000
00000000
00000100
00000000
00000020
00000000
00000000
00000000
00001030
00000000
00010000
00000000
,
00002000
00000000
00000000
00023000
00000000
00000000
01030000
00000000
01100000
00000000
00000000
00000000
10010000
00000000
00000000
00000000
,
10000000
01000000
00100000
00000000
01000000
00100000
00010000
00000000
00100000
00001000
00010000
00000000
00001000
00010000
00000010
00000000
,
00001000
00000010
00001000
00000010
00001000
00000001
00001000
00000001
00000010
00000000
00000000
00000110
00000000
00000000
00001001
00000000
,
00000001
00000000
00000000
00000101
00000000
00000000
00001010
00000000
00000010
00000000
00000000
00011000
00000000
00000000
00101000
00000000
,
01100000
10010000
01100000
10010000
,
10000000
01000000
00010000
00001000
00000100
00000001
00001000
00000100
,
00000010
00000001
00000010
00000001
00001000
00000001
00001000
00000001
00001000
00000010
00001000
00000010
00000100
00000010
00000100
00000000
,
00000001
00000100
00001000
00010000
01000000
10000000
00010000
01000000
,
00100000
10000000
00100000
10000000
00010000
10000000
00010000
10000000
00010000
00100000
00010000
00100000
01000000
00100000
01000000
00000000
,
10000000
00000000
00010000
00010000
00000000
10000000
10000000
00000000
,
00100000
00000000
00010000
00000000
00001000
00000000
00000000
00011000
00000000
00000000
00010000
00000000
00001000
00000000
00000010
00000000
,
00000001
00000000
00001000
00000001
00001000
00000000
00000001
00001000
00000000
00000000
00000001
00000000
00000100
00000000
00000010
00000000
,
00000100
00000000
00001000
00000000
00010000
00000000
00000100
00000000
00010000
00001000
00010000
00001000
00010000
00001000
00010000
00000000
,
00001000
01000000
00010000
00000000
01000000
00000000
00100000
00000000
10000000
00010000
00100000
00000000
00010000
00000000
00100000
00000000
,
00001000
00010000
00001000
00010000
00000100
00010000
00000100
00010000
00000100
00001000
00000100
00001000
00000001
00001000
00000001
00000000
,
00001000
00000010
00000100
00000000
00000010
00000000
00000100
00000000
00000001
00001000
00000100
00000000
00000010
00000000
00000100
00000000
,
00001000
00000100
00001000
00000100
00010000
00001000
00010000
00001000
00020000
00000000
00000000
00000000
00000000
00000000
00000000
00000000
,
00031000
00100000
00010000
00000000
00100000
00000000
01000000
00000000
10000000
00010000
01000000
00000000
00001000
00000000
00010000
00000000
,
00001000
00010000
00001000
00010000
00000010
00010000
00000010
00010000
00000010
00000100
00000010
00000100
00000001
00000100
00000001
00000000
,
00001000
00000001
00000010
00000000
00001000
00000000
00010000
00000000
01000000
10000000
00010000
00000000
01000000
00000000
00100000
00000000
,
20000000
00000000
00000000
00000000
,
00000000
00000000
00000000
00000000
,
00000000
00000000
00000000
00000000
,
00000000
00000000
00000000
00000000
,
30000000
00000000
00000000
00000000
;

//---------------dance-single - ----------------
#NOTEDATA:;
#CHARTNAME:;
#STEPSTYPE:dance-single;
#DESCRIPTION:;
#CHARTSTYLE:;
#DIFFICULTY:Medium;
#METER:14;
#RADARVALUES:0.659698,0.837482,0.109577,0.375693,0.238721,590.000000,576.000000,14.000000,48.000000,0.000000,0.000000,0.000000,0.000000,0.000000,0.659698,0.837482,0.109577,0.375693,0.238721,590.000000,576.000000,14.000000,48.000000,0.000000,0.000000,0.000000,0.000000,0.000000;
#CREDIT:Kekkle;
#DISPLAYBPM:200.000000:400.000000;
#NOTES:
0000
0000
0000
0000
,
0000
0000
0000
0000
,
0000
0000
0000
0000
,
0000
0000
0000
0000
,
0000
0000
0000
0000
,
0000
0000
0000
0000
,
0000
0000
0000
0000
,
0000
0000
0000
0000
,
0000
0000
0000
0000
,
0000
0000
0000
0000
,
0001
0100
0001
0100
0010
1000
0010
1000
,
0001
0000
0001
0010
0000
0010
0100
0000
0100
1000
0000
1000
,
0010
0100
0010
0100
0001
1000
0001
1000
,
0100
0000
0100
0010
0000
0010
0001
0000
0001
1000
0000
1000
,
0020
0000
0200
0330
,
0001
0100
0010
0100
0001
0010
0100
0000
,
1000
0100
0010
0100
1000
0010
0100
0001
,
1000
0100
0010
0100
1000
0010
0100
0000
,
0001
0000
0000
0001
0100
0000
0000
0100
0010
0000
1000
0000
0100
0000
0010
0000
,
0001
1000
0010
0100
1000
0100
0001
0000
,
1000
0001
0010
0100
0001
0100
1000
0000
,
0001
0000
0001
0100
0000
0100
0010
0000
0010
1000
0000
1000
,
0001
0010
1000
0010
0100
0010
0001
1000
,
0001
0100
0010
1000
0100
1000
0010
0000
,
1000
0001
0010
0001
0100
0010
1000
0010
,
0100
0001
0010
0001
1000
0010
0100
0000
,
0001
0000
0000
0001
1000
0000
0000
1000
0100
0000
1000
0000
0001
0000
0100
0000
,
0001
1000
0100
0010
1000
0010
0001
0000
,
1000
0001
0100
0010
0001
0010
1000
0001
,
0010
0000
0010
0100
0000
0100
1000
0000
1000
0001
0000
0001
,
0100
0010
0001
0010
0100
0010
1000
0000
,
0002
0000
0023
0000
,
0230
0000
1300
0001
,
0200
0000
0320
0000
,
2030
0000
3002
0000
,
1003
0000
0100
0000
0010
0000
0001
0000
0000
1000
0000
0000
,
0001
0000
0100
0000
0010
0000
1000
0000
0000
0001
0000
0000
,
1000
0000
0010
0000
0100
0000
0001
0000
0000
1000
0000
0000
,
0001
0000
0010
0000
0100
0000
2000
0000
0000
0000
0000
0000
,
3001
0000
0100
0000
0010
1000
0010
0000
,
1000
0001
1000
0000
0001
0010
0001
0010
,
0200
0000
0000
0000
1300
0001
1000
0000
,
0001
0100
0001
0000
0100
0010
1000
0010
,
0200
0000
0301
1000
,
1001
0000
0000
0001
0000
1000
0100
0010
,
0200
0000
0000
0000
1300
0001
1000
0001
,
0100
0010
0100
0010
1000
0001
0010
0100
,
1000
0001
1000
0000
0001
0000
0100
0000
0020
0000
0000
0000
0000
0000
0030
0000
,
1001
0000
1000
0100
0001
0100
1000
0020
,
0000
0100
0000
0000
1030
1000
0001
0001
,
2000
0000
3001
0010
1000
0010
0001
0200
,
0000
0000
0000
0010
0000
0000
0000
0000
0000
0000
0000
0000
0301
0000
1000
0000
0001
0000
1000
0000
0001
0000
1000
0000
,
0200
0000
0310
1000
0010
0001
0100
0020
,
0000
0001
0000
0000
0130
0100
0001
0001
,
2000
0000
3100
0001
0100
1000
0010
0200
,
0000
1000
0000
0000
0310
0000
0110
0000
,
1001
0000
1000
0100
0010
0001
0100
0020
,
0000
2030
0000
3001
0010
0100
0001
0100
,
0010
0001
1000
1000
0010
0010
0100
1000
,
0100
0000
0000
0020
0000
0000
0000
0000
0000
0000
0000
0000
1030
0000
0001
0000
1000
0000
0001
0000
1000
0000
0001
0000
,
0020
0000
0000
0000
0130
0000
0010
0100
0010
0000
0001
0000
1000
0000
0020
0000
,
0000
0130
0001
0100
1000
0100
0010
1000
,
0002
0000
1003
0100
0001
0100
1000
0000
,
0001
0100
1000
0100
0001
0000
1001
0000
,
2000
0000
3200
0000
,
0310
0001
0010
0100
,
2000
0000
3001
0100
,
1000
0100
0010
1000
,
0002
0000
0023
0000
,
0130
1000
0010
0100
,
0002
0000
0000
0000
,
1000
1000
2000
3003
,
0001
0000
0000
0100
0000
0000
0001
0000
0200
0000
0000
0000
0310
0000
1000
0000
,
0001
0010
1000
0010
0002
0000
0013
0100
,
1000
0000
0000
0010
0000
0000
1000
0000
0020
0000
0000
0000
0130
0000
0001
0000
,
1000
0000
0000
0100
0000
0000
0010
0000
0110
0000
0000
0000
1001
0000
0000
0000
,
0001
0100
1000
0100
0001
0010
1000
0010
,
0001
0000
0100
0000
0010
0000
1000
0000
0001
0000
0000
1000
0000
0000
0001
0000
,
0020
0230
2300
3001
,
1001
0110
2002
3003
,
1000
0100
0110
0010
,
0001
0010
1000
0010
0001
0000
1000
0000
,
0001
0100
0110
0010
,
0100
0000
0000
0001
0000
0000
1000
0000
1001
0000
0000
0000
0110
0000
0000
0000
,
0001
0010
0001
0000
1000
0000
0001
0000
1000
0010
1000
0000
0001
0000
1000
0000
,
0100
0000
0001
0000
0100
0000
1000
0000
0010
0000
0000
0100
0000
0000
0001
0000
,
1000
0000
0000
0100
0000
0000
0100
0000
0010
0000
0000
0001
0000
0000
0001
0000
,
2000
3020
0230
0302
,
1003
0000
0100
0000
0001
0000
0100
0000
1000
0000
0001
0000
0100
0001
0100
0000
,
0001
0000
1000
0000
0010
0000
0001
0000
0010
0000
1000
0000
0010
1000
0010
0000
,
1000
0000
0001
0000
0010
0000
0100
0000
0001
0000
0100
0000
0010
0100
0010
0000
,
0001
0000
1000
0000
0010
0000
0100
0000
1000
0000
0100
0000
0010
0100
0010
0000
,
1000
0000
0001
1000
0000
0001
1000
0000
,
0100
0000
0010
0000
0001
0000
0000
1000
0000
0000
0001
0000
0100
0000
0000
0000
,
0010
0100
0001
0010
0100
1000
0001
1000
,
0010
0100
0010
0100
0001
1000
0001
1000
,
0100
0000
0001
0000
0100
0000
1000
0000
0001
0000
0100
0000
0010
1000
0010
0000
,
0100
0000
0001
0000
1000
0000
0100
0000
0010
0100
0010
0100
0010
0000
0001
0000
,
1000
0000
0010
0000
0001
0000
0010
0000
0100
0000
0001
0000
0100
0001
0100
0000
,
0001
1000
0100
0010
0200
0000
0000
0000
,
1300
0000
0001
0000
0010
0000
1000
0000
0010
0000
0100
0000
1000
0100
0010
0000
,
0001
0000
1000
0000
0010
0000
0100
0000
0001
1000
0001
1000
0001
0000
0100
0000
,
0010
0000
0100
0000
1000
0000
0100
0000
0001
0000
1000
0000
0100
1000
0001
0000
,
2000
0000
0000
0000
,
0000
0000
0000
0000
,
0000
0000
0000
0000
,
0000
0000
0000
0000
,
3000
0000
0000
0000
;

//---------------dance-double - ----------------
#NOTEDATA:;
#CHARTNAME:;
#STEPSTYPE:dance-double;
#DESCRIPTION:;
#CHARTSTYLE:;
#DIFFICULTY:Medium;
#METER:14;
#RADARVALUES:0.623918,0.837482,0.093923,0.422654,0.160452,558.000000,546.000000,12.000000,54.000000,0.000000,0.000000,0.000000,0.000000,0.000000,0.623918,0.837482,0.093923,0.422654,0.160452,558.000000,546.000000,12.000000,54.000000,0.000000,0.000000,0.000000,0.000000,0.000000;
#CREDIT:Kekkle;
#DISPLAYBPM:200.000000:400.000000;
#NOTES:
00000000
00000000
00000000
00000000
,
00000000
00000000
00000000
00000000
,
00000000
00000000
00000000
00000000
,
00000000
00000000
00000000
00000000
,
00000000
00000000
00000000
00000000
,
00000000
00000000
00000000
00000000
,
00000000
00000000
00000000
00000000
,
00000000
00000000
00000000
00000000
,
00000000
00000000
00000000
00000000
,
00000000
00000000
00000000
00000000
,
10000000
00100000
10000000
00100000
01000000
00010000
01000000
00010000
,
20000000
32000000
03020000
00032000
,
00003010
00000001
00000010
00000001
00001000
00000010
00001000
00000010
,
00000200
00002300
00023000
00230000
,
20300000
00000000
00020000
30030000
,
10000000
01000000
00100000
00010000
01000000
00100000
01000000
00000000
,
00001000
00010000
00000010
00000100
00000001
00001000
00000100
00000000
,
00001000
00000010
00000100
00000001
00000010
00000100
00000010
00000000
,
00000001
00000000
00000000
00000001
00001000
00000000
00000000
00001000
00000001
00000000
00000100
00000000
00000010
00000000
00000000
00000000
,
00000100
00001000
00010000
00001000
00010000
01000000
00100000
00000000
,
01000000
00010000
00001000
00010000
00001000
00000100
00000010
00000000
,
00001000
00000000
00001000
00000001
00000000
00000001
00000010
00000000
00000010
00000100
00000000
00000100
,
00010000
00001000
00010000
00001000
01000000
00100000
10000000
00000000
,
00010000
00100000
01000000
10000000
00100000
01000000
00100000
00000000
,
10000000
01000000
00100000
00001000
00010000
00000010
00001000
00000000
,
00000001
00000100
00000010
00001000
00000100
00000010
00000100
00000000
,
00000010
00000000
00000000
00000010
00000100
00000000
00000000
00000100
00010000
00000000
00001000
00000000
01000000
00000000
00000000
00000000
,
00001000
00010000
00100000
01000000
00100000
01000000
00001000
00000000
,
00010000
00001000
00000010
00000100
00000010
00000100
00010000
00000000
,
00001000
00000000
00001000
01000000
00000000
01000000
00010000
00000000
00010000
10000000
00000000
10000000
,
01000000
00100000
01000000
00100000
00001000
00010000
00000010
00000000
,
00010000
00001000
00010000
00000000
,
00001000
00010000
00100000
10000000
,
01000000
00010000
00001000
00000000
,
00010000
00001000
00020000
00000000
,
00031000
00010000
00001000
00000000
,
00010000
00001000
00000010
00000001
,
00000100
00001000
00010000
00000000
,
00001000
00010000
00002000
00000000
,
00013000
00000000
00000100
00000000
00000010
00000001
00000010
00000000
,
00000001
00001000
00000001
00000000
00000100
00000010
00000100
00000010
,
00020000
00000000
00000000
00000000
00031000
00100000
00001000
00000000
,
00100000
01000000
00100000
00000000
01000000
10000000
00010000
10000000
,
02000000
00000000
13000000
00010000
,
01010000
00000000
00000000
01000000
00000000
00001000
00010000
00001000
,
00020000
00000000
00000000
00000000
00030100
00000010
00000100
00000010
,
00000001
00001000
00000001
00001000
00000010
00000100
00001000
00010000
,
00100000
01000000
00010000
00000000
02000000
00000000
00000000
03000000
,
10010000
00000000
10000000
01000000
00010000
00001000
00000010
00000002
,
00000000
00001000
00000000
00000000
00000103
00000010
00000100
00000000
,
00001001
00000000
00000001
00000100
00001000
00010000
00100000
20000000
,
00000000
00000000
00000000
00010000
00000000
00000000
00000000
00000000
00000000
00000000
00000000
00000000
31000000
00000000
00100000
00000000
01000000
00000000
00100000
00000000
01000000
00000000
00100000
00000000
,
00010000
00000000
10000000
00100000
00010000
00001000
00000100
00000002
,
00000000
00001000
00000000
00000000
00000013
00000100
00000010
00000000
,
00001001
00000000
00000001
00000010
00001000
00010000
01000000
20000000
,
00000000
00010000
00000000
00000000
30100000
00000000
01000000
00000000
,
10010000
00000000
10000000
01000000
00100000
00010000
01000000
00002000
,
00000000
00023000
00000000
00030100
00000010
00000001
00001000
00000000
,
00000001
00000100
00000001
00000100
00000010
00001000
00000010
00001000
,
00010000
00000000
00000000
02000000
00000000
00000000
00000000
00000000
00000000
00000000
00000000
00000000
03010000
00000000
10000000
00000000
00010000
00000000
10000000
00000000
00010000
00000000
10000000
00000000
,
02000000
00000000
03100000
00010000
10000000
00100000
00010000
00002000
,
00000000
00013000
00100000
10000000
00010000
00100000
00001000
00010000
,
00002000
00000000
00013000
00000100
00000010
00000001
00000100
00000000
,
00000010
00010000
00001000
00100000
00001000
00000000
00011000
00000000
,
00002000
00000000
02003000
00000000
,
03100000
10000000
00010000
00100000
,
02000000
00000000
03010000
00001000
,
00000010
00001000
00010000
00000000
,
00000020
00000000
00000230
00000000
,
00000301
00001000
00000010
00010000
,
00002000
00000000
00000000
00000000
,
00010000
00010000
00020000
00033000
,
00001000
00000000
00000000
00010000
00000000
00000000
00001000
00000000
00020000
00000000
00000000
00000000
00130000
00000000
00000000
00000000
,
10000000
00100000
00010000
00100000
20000000
00000000
30010000
00100000
,
00001000
00000000
00000000
00010000
00000000
00000000
00001000
00000000
00020000
00000000
00000000
00000000
00031000
00000000
00000010
00000000
,
00000001
00000000
00000000
00001000
00000000
00000000
00000010
00000000
00000110
00000000
00000000
00000000
00001001
00000000
00000000
00000000
,
00000001
00000100
00002000
00000000
00013000
00100000
20000000
00000000
,
30010000
00000000
00100000
00000000
10000000
00000000
00100000
00000000
00010000
00000000
00000000
10000000
00000000
00000000
00010000
00000000
,
02000000
03200000
00320000
00032000
,
00003200
00000302
00002003
00000000
,
00003001
00000010
00000110
00000002
,
00000013
00001000
00000010
00001000
00020000
00000000
01030000
00000000
,
10000000
00100000
01100000
20000000
,
30010000
00000000
00000000
01000000
00000000
00000000
00100000
00000000
01100000
00000000
00000000
00000000
10010000
00000000
00000000
00000000
,
10000000
01000000
00010000
00001000
00000010
00000001
00000100
00001000
,
00010000
00000000
00100000
00000000
10000000
00000000
00010000
00000000
00100000
00000000
00000000
01000000
00000000
00000000
00100000
00000000
,
00001000
00000000
00000000
00010000
00000000
00000000
00010000
00000000
00000010
00000000
00000000
00000100
00000000
00000000
00000100
00000000
,
00000002
00002003
00003200
00020300
,
00031000
00000000
01000000
00000000
00100000
00000000
10000000
00000000
00100000
00000000
01000000
00000000
00100000
10000000
00100000
00000000
,
10000000
00000000
00010000
00000000
00100000
00000000
00001000
00000000
00010000
00000000
00000100
00000000
00010000
00000100
00010000
00000000
,
00000100
00000000
00001000
00000000
00000001
00000000
00000100
00000000
00000010
00000000
00001000
00000000
00000010
00000100
00000010
00000000
,
00001000
00000000
00000001
00000000
00001000
00000000
00000100
00000000
00010000
00000000
00001000
00000000
00100000
00001000
00100000
00000000
,
00001000
00000000
00010000
00001000
00000000
00010000
00001000
00000000
,
00010000
00000000
00001000
00000000
01000000
00000000
00000000
00100000
00000000
00000000
01000000
00000000
00100000
00000000
00000000
00000000
,
10000000
00010000
00100000
01000000
00010000
00001000
00010000
00000000
,
00001000
00010000
00001000
00010000
00000100
00000010
00000001
00000000
,
00001000
00000000
00000001
00000000
00000100
00000000
00000010
00000000
00001000
00000000
00000010
00000000
00010000
00000010
00010000
00000000
,
00001000
00000000
00100000
00000000
00001000
00000000
00010000
00000000
00001000
00010000
00001000
00010000
00001000
00000000
00010000
00000000
,
00001000
00000000
00100000
00000000
01000000
00000000
10000000
00000000
01000000
00000000
00100000
00000000
01000000
00100000
01000000
00000000
,
10000000
00010000
01000000
00001000
00020000
00000000
00000000
00000000
,
00031000
00000000
00100000
00000000
01000000
00000000
10000000
00000000
00010000
00000000
01000000
00000000
00100000
01000000
00100000
00000000
,
01000000
00000000
00001000
00000000
00010000
00000000
00000100
00000000
00010000
00001000
00010000
00001000
00010000
00000000
00001000
00000000
,
00010000
00000000
00000010
00000000
00000100
00000000
00000001
00000000
00001000
00000000
00000100
00000000
00000010
00000100
00000010
00000000
,
00000200
00000000
00000000
00000000
,
00000000
00000000
00000000
00000000
,
00000000
00000000
00000000
00000000
,
00000000
00000000
00000000
00000000
,
00000300
00000000
00000000
00000000
;

//---------------dance-single - ----------------
#NOTEDATA:;
#CHARTNAME:;
#STEPSTYPE:dance-single;
#DESCRIPTION:;
#CHARTSTYLE:;
#DIFFICULTY:Easy;
#METER:11;
#RADARVALUES:0.358921,0.502489,0.093923,0.281770,0.000000,321.000000,309.000000,12.000000,36.000000,0.000000,0.000000,0.000000,0.000000,0.000000,0.358921,0.502489,0.093923,0.281770,0.000000,321.000000,309.000000,12.000000,36.000000,0.000000,0.000000,0.000000,0.000000,0.000000;
#CREDIT:Kekkle;
#DISPLAYBPM:200.000000:400.000000;
#NOTES:
0000
0000
0000
0000
,
0000
0000
0000
0000
,
0000
0000
0000
0000
,
0000
0000
0000
0000
,
0000
0000
0000
0000
,
0000
0000
0000
0000
,
0000
0000
0000
0000
,
0000
0000
0000
0000
,
0000
0000
0000
0000
,
0000
0000
0000
0000
,
1000
0001
0100
0000
,
0001
1000
0100
0010
,
0001
1000
0010
0000
,
1000
0001
0010
0100
,
1000
0000
1001
0000
,
0001
0100
0010
0010
,
0100
0001
1000
1000
,
0001
0010
0100
0100
,
1000
0001
0100
0100
,
0001
1000
0200
0010
,
0310
0001
2000
0001
,
3001
0001
0001
0002
,
0000
0103
0100
0100
,
0010
1000
0001
0001
,
0010
0100
1000
1000
,
0001
0100
0010
0010
,
0100
0001
1000
1000
,
0100
0010
0002
1000
,
1003
0010
0100
0100
,
0001
0001
0001
0002
,
0000
1003
1000
1000
,
0100
0000
0110
0000
,
0001
0000
1001
0000
,
0100
0000
0110
0000
,
1000
0000
2000
0000
,
3001
0000
0110
0000
,
1000
0000
1001
0000
,
0001
0000
0110
0000
,
1000
0000
2000
0000
,
3001
0100
0010
0000
,
1000
0100
0010
0001
,
2000
0000
3001
0100
,
0010
1000
0100
0010
,
0002
0000
1003
0000
,
1000
1000
0000
0001
,
0200
0000
0301
1000
,
0001
1000
0100
0010
,
0100
0010
0100
0000
0020
0000
0000
0000
,
0031
0000
1000
0000
0010
0000
0100
0010
,
0000
0020
0000
0000
1030
0000
1000
0000
,
0001
0000
1000
0000
0100
0000
0010
0100
,
0000
0100
0000
0000
2000
0000
0000
0000
,
3001
0000
0100
0000
0010
0000
1000
0010
,
0000
0020
0000
0000
0130
0000
0100
0000
,
0001
0000
1000
0000
0100
0000
0010
0001
,
0000
0002
0000
0000
1003
0000
0001
0000
,
1000
0000
0010
0000
0100
0000
0010
0100
,
0000
0200
0000
0000
0301
0000
0100
0000
,
1000
0100
0010
1000
,
0002
0000
2003
0000
,
3001
0010
0100
1000
,
0001
0100
0020
0000
,
0130
0000
0100
0000
,
0001
1000
0001
0000
1000
0000
1000
0000
,
0001
0000
0010
0000
,
1000
0000
0100
0000
,
0002
0000
0000
0000
,
1003
0000
1000
0000
,
0020
0000
0000
0000
,
0230
0000
0000
0000
,
0320
0000
0000
0000
,
0100
0000
0130
0000
,
0001
1000
0110
0000
,
1000
1000
0001
0010
,
0100
0010
1001
0000
,
1000
0001
0100
0100
,
0010
0100
0010
0000
0100
0010
0100
0000
,
0010
0100
1001
0000
,
2000
0000
3200
0000
,
0320
0000
0032
0000
,
1003
0000
1001
0000
,
0001
0100
0010
0000
,
1000
0000
1001
0000
,
1000
0100
0010
0000
,
0001
0001
1000
1000
,
0001
1000
0001
1000
0001
0000
0100
0000
,
0010
0010
0100
0100
,
0010
0010
0010
0010
,
2000
0000
3002
0000
,
0013
0000
0100
0000
1000
0001
1000
0000
,
0020
0000
0230
0000
,
0301
0000
1000
0000
0100
0010
0100
0000
,
0020
0000
0031
0000
,
1000
0010
0100
0100
,
0002
0000
1003
0000
,
0001
0010
0200
0000
,
1300
0001
0100
0010
,
1000
0001
1000
0000
0001
1000
0001
0000
,
1000
0100
0010
0001
,
1000
0001
1000
0001
2000
0000
0000
0000
,
3001
0100
0010
1000
,
0001
1000
0001
0000
1000
0001
1000
0000
,
0001
0010
1000
0010
,
0002
0000
0000
0000
,
0000
0000
0000
0000
,
0000
0000
0000
0000
,
0000
0000
0000
0000
,
0003
0000
0000
0000
;

//---------------dance-double - ----------------
#NOTEDATA:;
#CHARTNAME:;
#STEPSTYPE:dance-double;
#DESCRIPTION:;
#CHARTSTYLE:;
#DIFFICULTY:Easy;
#METER:11;
#RADARVALUES:0.328731,0.418741,0.046962,0.399173,0.000000,294.000000,288.000000,6.000000,51.000000,0.000000,0.000000,0.000000,0.000000,0.000000,0.328731,0.418741,0.046962,0.399173,0.000000,294.000000,288.000000,6.000000,51.000000,0.000000,0.000000,0.000000,0.000000,0.000000;
#CREDIT:Kekkle;
#DISPLAYBPM:200.000000:400.000000;
#NOTES:
00000000
00000000
00000000
00000000
,
00000000
00000000
00000000
00000000
,
00000000
00000000
00000000
00000000
,
00000000
00000000
00000000
00000000
,
00000000
00000000
00000000
00000000
,
00000000
00000000
00000000
00000000
,
00000000
00000000
00000000
00000000
,
00000000
00000000
00000000
00000000
,
00000000
00000000
00000000
00000000
,
00000000
00000000
00000000
00000000
,
10000000
10000000
00010000
00010000
,
00100000
00001000
00010000
00000010
,
00001000
00001000
00000001
00000001
,
00000100
00000010
00010000
00001000
,
00020000
00000000
00031000
00000000
,
00010000
00001000
01000000
01000000
,
00010000
10000000
01000000
01000000
,
00100000
00001000
00010000
00010000
,
00001000
00010000
00000010
00000010
,
00001000
00000001
00000020
00000100
,
00000130
00010000
00002000
01000000
,
01003000
01000000
01000000
02000000
,
00000000
03100000
00100000
00100000
,
10000000
00010000
00100000
00100000
,
01000000
00100000
00001000
00001000
,
00010000
00000010
00000100
00000100
,
00000001
00001000
00000100
00000100
,
00000010
00000100
00020000
00001000
,
00031000
01000000
00200000
10000000
,
10300000
10000000
10000000
20000000
,
00000000
30010000
00010000
00010000
,
00200000
00000000
00302000
00000000
,
00023000
00000000
00030020
00000000
,
00000230
00000000
00000302
00000000
,
00000203
00000000
00002300
00000000
,
00023000
00000000
00230000
00000000
,
02300000
00000000
03002000
00000000
,
00023000
00000000
02030000
00000000
,
23000000
00000000
30020000
00000000
,
01030000
00000000
00100000
00000000
,
01000000
00100000
01000000
00100000
,
02000000
00000000
03001000
00000000
,
00010000
00001000
00010000
00001000
,
00020000
00000000
00030100
00000000
,
00000110
00000000
00000001
00001000
,
00000001
00000000
00000100
00000100
,
00000100
00000000
00001000
00010000
,
00001000
00010000
00001000
00000000
00020000
00000000
00000000
00000000
,
00031000
00010000
00100000
10000000
,
01000000
00010000
00001000
00001000
,
01000000
00001000
00010000
00001000
,
00000100
00000001
00002000
00000000
,
00003001
00000010
00001000
00010000
,
01000000
00010000
00001000
00001000
,
00010000
00100000
00010000
00001000
,
00000100
00000001
00001000
00001000
,
00001001
00000000
00000002
00000000
,
00000013
00001000
00010000
00000000
,
00001000
00001000
00010000
00010000
,
00002000
00000000
00023000
00000000
,
00031000
00000000
00010000
00100000
,
10000000
01000000
00010000
00000000
,
00002000
00000000
00013000
00000000
,
00001000
00010000
00011000
00000000
,
00002000
00000000
00000000
00000000
,
00003200
00000000
00000000
00000000
,
00000302
00000000
00000000
00000000
,
00001003
00000000
00000100
00000000
,
00020000
00000000
00000000
00000000
,
00032000
00000000
00000000
00000000
,
00023000
00000000
00000000
00000000
,
00001000
00000000
00031000
00000000
,
00010000
00100000
20000000
00000000
,
31000000
00010000
00011000
00000000
,
00001000
00000010
00000002
00000000
,
00000103
00001000
00011000
00000000
,
00010000
00010000
00001000
00001000
,
00010000
00010000
00011000
00000000
,
00002000
00000000
00003200
00000000
,
00000301
00000010
00001000
00000000
,
00020000
00000000
00031000
00000000
,
00010000
00010000
00001000
00000000
,
02000000
00000000
03100000
00000000
,
01000000
01000000
00100000
00000000
,
10000000
00010000
10000000
00000000
00010000
10000000
00010000
00000000
,
10000000
01000000
00200000
00000000
,
00302000
00000000
00023000
00000000
,
00030010
00000100
00000010
00000100
,
00000001
00000100
00001000
00010000
,
00100000
10000000
00010000
00100000
,
00001000
00010000
00001000
00000010
,
00000001
00000100
00001000
00000000
,
00020000
00000000
00031000
00000000
,
00020000
00000000
00130000
00000000
,
20000000
00000000
30010000
00000000
,
10000000
00010000
10000000
00010000
,
00100000
01000000
00010000
00001000
,
00000010
00000001
00000100
00001000
,
00010000
00001000
00000100
00000010
,
00010000
00001000
00020000
00000000
,
00031000
00100000
01000000
00010000
,
00001000
00010000
01000000
10000000
,
00010000
01000000
00100000
00010000
,
00002000
00000000
00000000
00000000
,
00000000
00000000
00000000
00000000
,
00000000
00000000
00000000
00000000
,
00000000
00000000
00000000
00000000
,
00003000
00000000
00000000
00000000
;

//---------------dance-single - ----------------
#NOTEDATA:;
#CHARTNAME:;
#STEPSTYPE:dance-single;
#DESCRIPTION:;
#CHARTSTYLE:;
#DIFFICULTY:Beginner;
#METER:7;
#RADARVALUES:0.187846,0.334993,0.039135,0.273943,0.000000,168.000000,163.000000,5.000000,35.000000,0.000000,0.000000,0.000000,0.000000,0.000000,0.187846,0.334993,0.039135,0.273943,0.000000,168.000000,163.000000,5.000000,35.000000,0.000000,0.000000,0.000000,0.000000,0.000000;
#CREDIT:Kekkle;
#DISPLAYBPM:200.000000:400.000000;
#NOTES:
0000
0000
0000
0000
,
0000
0000
0000
0000
,
0000
0000
0000
0000
,
0000
0000
0000
0000
,
0000
0000
0000
0000
,
0000
0000
0000
0000
,
0000
0000
0000
0000
,
0000
0000
0000
0000
,
0000
0000
0000
0000
,
0000
0000
0000
0000
,
2000
0000
3000
0000
,
0010
0000
0010
0000
,
0200
0000
0300
0000
,
0001
0000
0001
0000
,
2000
0000
3000
0000
,
0001
0000
0001
0000
,
0100
0000
0100
0000
,
0010
0000
0010
0000
,
1000
0000
0001
0000
,
2000
0000
3001
0000
,
0002
0000
1003
0000
,
1000
0000
1000
0000
,
0010
0000
1001
0000
,
0001
0000
0001
0000
,
0010
0000
0010
0000
,
0100
0000
0100
0000
,
1000
0000
1000
0000
,
0020
0000
0130
0000
,
0200
0000
0310
0000
,
0010
0000
0010
0000
,
0100
0000
1001
0000
,
0002
0000
0003
0000
,
2000
0000
3000
0000
,
0200
0000
0300
0000
,
0020
0000
0030
0000
,
0002
0000
0003
0000
,
0200
0000
0300
0000
,
2000
0000
3000
0000
,
0020
0000
0030
0000
,
0001
0000
0001
0000
,
1000
0000
1000
0000
,
0200
0000
0300
0000
,
0010
0000
0010
0000
,
0010
0000
0001
0000
,
0001
0000
1000
0000
,
1000
0000
0010
0000
,
0010
0000
0200
0000
,
0000
0000
0000
0000
,
0300
0000
0001
0000
,
1000
0000
0100
0100
,
0100
0000
0010
0000
,
0002
0000
0000
0000
,
0003
0000
1000
0000
,
0010
0000
0100
0100
,
0100
0000
0001
0000
,
1000
0000
0200
0000
,
0310
0000
0001
0000
,
1000
0000
0001
0000
,
0100
0000
0010
0000
,
0200
0000
0000
0000
,
0300
0000
0001
0000
,
1000
0000
0100
0000
,
0100
0000
0010
0000
,
0001
0001
0001
0000
,
2000
0000
3000
0000
,
0002
0000
0003
0000
,
0200
0000
0300
0000
,
0010
0000
0010
0000
,
0020
0000
0030
0000
,
0200
0000
0300
0000
,
0020
0000
0030
0000
,
0100
0000
0100
0000
,
0001
0000
1001
0000
,
1000
1000
1000
0000
,
0100
0000
0110
0000
,
0010
0010
0010
0000
,
0001
0000
0001
0000
,
1000
1000
1000
0000
,
0010
0000
0010
0000
,
0100
0000
0100
0000
,
0020
0000
0030
0000
,
1000
0000
1000
0000
,
0200
0000
0300
0000
,
0010
0000
0010
0000
,
0001
0001
0001
0000
,
1000
1000
1000
0000
,
0010
0000
0100
0000
,
0010
0000
1001
0000
,
2000
0000
3000
0000
,
0002
0000
0003
0000
,
0200
0000
0300
0000
,
0020
0000
0030
0000
,
1000
0000
0001
0000
,
1000
0000
0010
0000
,
0100
0000
0010
0000
,
0200
0000
0000
0000
,
0300
0000
0001
0000
,
1000
1000
1000
0000
,
0100
0000
0010
0000
,
0001
0000
2000
0000
,
3000
0000
0001
0000
,
0100
0100
0100
0000
,
0010
0000
0100
0000
,
0002
0000
0000
0000
,
0000
0000
0000
0000
,
0000
0000
0000
0000
,
0000
0000
0000
0000
,
0003
0000
0000
0000
;
