#TITLE:Where Is Smiley?;
#SUBTITLE:;
#ARTIST:Serani Poji;
#TITLETRANSLIT:;
#SUBTITLETRANSLIT:;
#ARTISTTRANSLIT:;
#GENRE:;
#CREDIT:;
#MUSIC:Where Is Smiley.ogg;
#BANNER:Where Is Smiley-bn.png;
#BACKGROUND:Where Is Smiley-bg.png;
#CDTITLE:;
#SAMPLESTART:79.428;
#SAMPLELENGTH:13.059;
#SELECTABLE:YES;
#OFFSET:0.690;
#BPMS:0.000=170.000;
#STOPS:;
#BGCHANGES:;
#FGCHANGES:;

//--------------- dance-single - OrangeRight ----------------
#NOTES:
     dance-single:
     OrangeRight:
     Beginner:
     3:
     0,0,0,0,0:
0000
0000
0000
0000
,
0000
0000
0000
0000
,
0000
0000
0000
0000
,
0000
0000
0000
0000
,
0000
0000
0000
0000
,
1000
0000
0000
0000
,
1000
0000
0000
0000
,
0001
0000
0000
0000
,
0001
0000
0000
0000
,
1000
0000
0000
0000
,
0100
0000
0000
0000
,
1000
0000
0000
0000
,
0001
0000
0000
0000
,
0010
0000
0000
0000
,
0010
0000
0000
0000
,
0001
0000
0000
0000
,
1000
0000
0000
0000
,
2000
0000
0000
0000
,
3000
0000
0000
0000
,
0002
0000
0000
0000
,
0003
0000
0000
0000
,
0001
0000
1000
0000
,
0001
0000
0000
0000
,
1000
0000
0001
0000
,
1000
0000
0000
0000
,
0200
0000
0300
0000
,
0100
0000
0000
0000
,
1000
0000
0000
0000
,
0001
0000
0000
0000
,
0200
0000
0300
0000
,
0100
0000
0000
0000
,
0001
0000
0000
0000
,
1000
0000
0000
0000
,
0001
0000
0000
0000
,
0100
0000
0000
0000
,
0001
0000
0000
0000
,
1000
0000
0000
0000
,
0010
0000
0000
0000
,
0010
0000
0000
0000
,
1000
0000
0000
0000
,
0001
0000
0000
0000
,
0002
0000
0000
0000
,
0003
0000
0000
0000
,
2000
0000
0000
0000
,
3000
0000
0000
0000
,
1000
0000
1000
0000
,
1000
0000
0000
0000
,
0001
0000
0001
0000
,
0001
0000
0000
0000
,
0020
0000
0030
0000
,
0001
0000
1000
0000
,
0100
0000
0000
0000
,
0100
0000
0000
0000
,
2000
0000
3000
0000
,
0001
0000
0100
0000
,
0001
0000
0000
0000
,
1000
0000
0000
0000
,
2000
0000
3000
0000
,
0002
0000
0003
0000
,
1000
0000
0100
0000
,
1000
0000
0000
0000
,
0002
0000
0003
0000
,
2000
0000
3000
0000
,
0001
0000
0100
0000
,
0001
0000
0000
0000
,
2000
0000
3000
0000
,
0002
0000
0003
0000
,
1000
0000
0001
0000
,
1000
0000
0000
0000
,
0200
0000
0300
0000
,
0020
0000
0030
0000
,
0001
0000
0001
0000
,
1000
0000
1000
0000
,
0001
0000
0000
0000
,
0100
0000
0000
0000
,
0010
0000
0000
0000
,
1000
0000
0000
0000
,
0100
0000
0000
0000
,
0010
0000
0100
0000
,
0010
0000
0000
0000
,
0001
0000
0000
0000
,
1000
0000
0000
0000
,
1000
0000
0000
0000
,
0001
0000
0000
0000
,
0001
0000
0000
0000
,
0100
0000
0000
0100
,
0000
0000
0100
0000
,
0001
0000
0000
1000
,
0000
0000
0001
0000
,
1000
0000
0000
0000
;

//--------------- dance-single - OrangeRight ----------------
#NOTES:
     dance-single:
     OrangeRight:
     Easy:
     5:
     0,0,0,0,0:
0000
0000
0000
0000
,
0000
0000
0000
0000
,
0000
0000
0000
0000
,
0000
0000
0000
0000
,
0000
0000
0000
0000
,
1000
0000
1000
0000
,
1000
0000
0000
0000
,
0001
0000
0001
0000
,
0001
0000
0000
0000
,
1000
0000
0100
0000
,
0010
0010
0000
0000
,
0001
0000
0100
0001
,
1000
0000
0100
0000
,
1000
0010
1000
0000
,
0001
0010
0001
0000
,
1000
0010
2000
0000
,
3002
0000
0103
0001
,
0020
0000
0030
0000
,
0001
0100
0010
1000
,
0200
0000
0300
0000
,
1000
0000
0001
1000
,
1001
0000
1001
0000
,
0001
0010
0100
0000
,
1001
0000
1001
0000
,
1000
0010
0100
0000
,
0002
0000
1003
0000
,
2000
0000
3001
1000
,
0100
1000
0001
0000
,
1000
0000
1000
0000
,
0002
0000
0103
0000
,
0200
0000
0310
0100
,
0001
0010
0001
0000
,
1000
0010
0100
0000
,
0001
0000
0010
0000
,
0100
0100
0000
0000
,
1000
0000
0001
1000
,
0010
0000
0100
0000
,
0001
0010
0001
0000
,
1000
0010
1000
0000
,
0001
1000
0002
0000
,
0003
0000
1000
0010
,
2000
0000
3000
0000
,
0001
0000
1000
0000
,
0002
0000
0003
0000
,
0001
0000
1000
0001
,
1001
0000
1001
0000
,
1000
0100
0010
0000
,
1001
0000
1001
0000
,
0001
0100
0010
0000
,
1000
0100
1000
0000
,
0001
0100
0001
0000
,
1000
1000
0001
0000
,
0001
0000
0100
0000
,
0001
0010
0001
0000
,
1000
0010
1000
0000
,
0001
0001
1000
0000
,
1000
0001
1000
0001
,
2000
0000
3200
0000
,
0320
0000
0031
1000
,
0001
0100
0010
1000
,
0001
0001
0000
0000
,
0002
0000
0023
0000
,
0230
0000
1300
0001
,
1000
0010
0100
0010
,
1000
0100
0010
0000
,
0002
0000
2003
0000
,
3020
0000
0130
0001
,
1000
0100
0010
0001
,
0100
0100
0000
0000
,
0020
0000
2030
0000
,
3200
0000
0320
0000
,
0230
0000
2300
0000
,
3002
0000
0203
0000
,
0310
1000
0001
0020
,
0000
0130
1000
0002
,
0000
0103
0010
1000
,
0100
0001
0100
1000
,
0010
0100
0001
0020
,
0000
0130
1000
0001
,
2000
0000
3000
0000
,
0002
0000
0003
0000
,
0100
0001
1000
0200
,
0000
0310
0001
2000
,
0000
3010
0100
0001
,
0010
1000
0010
0001
,
0200
0000
0300
0020
,
0000
0030
1000
0001
,
2000
0000
3000
0002
,
0000
0103
0001
1000
,
1001
0000
0000
0000
;

//--------------- dance-single - OrangeRight ----------------
#NOTES:
     dance-single:
     OrangeRight:
     Medium:
     8:
     0,0,0,0,0:
0000
0000
0000
0000
,
0000
0000
0000
0000
,
0000
0000
0000
0000
,
0000
0000
0000
0000
,
0000
0000
0000
0000
,
1000
0000
0000
1000
0000
0000
0001
0000
,
0000
0001
0000
0100
0000
0001
1000
0000
,
0001
0000
0000
0001
0000
0000
1000
0000
,
0000
1000
0000
0010
1000
0000
0001
0000
,
1000
0100
0010
0001
,
0100
0100
0000
0001
,
0010
0100
1000
0010
,
0100
0001
0100
1000
,
0100
0000
0001
0010
0001
0000
1000
0000
,
0100
0000
1000
0010
1000
0000
0001
0000
,
0100
0000
0010
0100
0020
0000
0000
0000
,
1030
0000
0100
0010
0000
0001
1000
0001
,
2000
0001
0000
3001
,
1000
0000
0001
0100
0000
0001
0100
0000
,
0002
1000
0000
1003
,
0001
0000
0010
0000
0001
1000
0001
0000
,
1001
0000
0000
0000
1001
0000
0000
1001
,
0000
0000
0000
1000
0000
0001
0100
0000
,
0110
0000
0000
0000
0110
0000
0000
0010
,
0000
1000
0000
0100
0010
0000
0001
0000
,
2000
0000
0000
0000
3010
0000
0100
0001
,
0200
0000
0000
0000
0301
1000
0100
0000
,
0010
0010
0001
0100
,
0010
1000
0001
0010
,
0002
0000
0000
0000
0013
0001
0010
0000
,
0200
0000
0000
0000
1300
0001
1000
0000
,
0010
0010
1000
0100
,
0010
0001
0000
0001
1000
0000
1000
0000
,
0001
0000
0010
0100
0000
0100
1000
0000
,
0010
0010
1000
0001
,
1000
0000
1000
0100
0000
0100
0010
0000
,
0001
0100
1000
0100
,
0001
0000
1000
0010
1000
0000
0100
0000
,
1000
0000
0001
0010
0001
0000
0100
0000
,
0010
1000
0002
0000
,
0013
0000
0100
0000
1000
0010
0100
0000
,
0002
0010
0000
0103
,
0001
0000
0100
0010
1000
0000
0001
0000
,
2000
0010
0000
3100
,
1000
0010
0000
0100
0001
0000
1000
0000
,
1001
0000
0000
0000
1001
0000
0000
1001
,
0000
0000
0000
0001
0000
1000
0100
0000
,
0110
0000
0000
0000
0110
0000
0000
0010
,
0000
0001
0000
0100
0010
0000
1000
0001
,
2000
0000
0100
0000
0100
0000
3010
0100
,
0020
0000
0000
0000
1030
0001
1000
0000
,
0001
0000
0101
0000
0001
0100
0000
0010
,
0000
1000
0000
0001
1000
0000
0001
1000
,
0002
0000
0100
0000
0100
0000
0013
0100
,
2000
0000
0000
0000
3001
1000
0001
0000
,
1000
0000
1010
0000
1000
0100
0000
0010
,
0000
0001
0000
1000
0001
0000
1000
0000
,
2010
0000
3001
0010
,
0012
0000
0000
0103
0000
0001
1000
0000
,
0100
0000
0010
0000
0001
0000
1000
0001
,
1000
1001
0000
0001
,
1002
0000
0103
0010
,
2010
0000
0000
3100
0000
1000
0001
0000
,
0010
0000
0001
0000
0100
0000
0010
1000
,
0000
0001
0000
0010
0000
0100
1000
0000
,
1020
0000
0130
0001
,
0021
0000
0000
0130
0000
0100
1000
0000
,
0001
1000
0010
0100
,
0001
1001
0000
0001
,
0201
0010
0302
1000
,
0023
0100
0031
1000
,
1200
0010
2300
0001
,
3020
0000
0100
0000
1030
0001
1000
0000
,
0002
0023
0230
2300
,
0001
3020
0230
0302
,
1000
0023
2030
3020
,
0032
0203
0320
2030
,
3002
0000
0023
0000
0230
0000
1300
0001
,
2000
0000
3020
0000
0130
0001
0000
0000
,
1001
1000
1000
0001
,
0001
0100
0000
0010
1000
0000
0001
0000
,
2000
3200
0320
0032
,
1000
0203
0320
2030
,
0001
3200
0320
0032
,
0203
2300
3200
0302
,
2003
0000
3001
0101
,
0000
0100
0001
0010
,
0200
0000
1300
1100
,
0000
0000
1000
0000
0010
0100
0000
0000
,
0101
0000
0000
0000
;

//--------------- dance-single - OrangeRight ----------------
#NOTES:
     dance-single:
     OrangeRight:
     Hard:
     11:
     0,0,0,0,0:
0000
0000
0000
0000
,
0000
0000
0000
0000
,
0000
0000
0000
0000
,
0000
0000
0000
0000
,
0000
0000
0000
0000
,
1000
0000
0100
1000
0000
0100
1000
0000
,
0001
0100
0010
1000
0000
0001
0010
0000
,
0001
0000
0100
0001
0000
0100
0001
0000
,
0100
0010
0000
0010
1000
0000
0001
0000
,
1000
0001
0010
0000
0001
1000
0100
0000
,
2000
0000
3001
0000
1000
0001
0100
0000
,
0001
0010
0100
0000
1000
0010
0100
0001
,
0000
0010
0000
0100
1000
0001
1000
0000
,
0001
0000
0100
0001
1000
0100
0010
0100
,
1000
0000
0010
1000
0001
0010
0100
0010
,
0001
0100
0010
0000
2000
0000
0100
0000
,
0001
0000
3010
1000
0000
0100
0010
0001
,
0200
0001
0000
1000
,
0310
0000
1000
0100
0000
0010
0001
0100
,
0020
1000
0000
0031
,
0010
0000
1000
0100
0010
0001
0100
0000
,
0101
0000
1000
0000
1100
0000
0000
1010
,
0000
0100
0000
0011
0000
0001
1001
0000
,
1010
0000
0001
0000
0011
0000
0000
0101
,
0000
0010
0000
1000
0001
0000
1000
0010
,
2000
0000
0010
0000
3001
0000
0001
0100
,
0002
0000
0010
0000
1003
0100
0010
0000
,
0011
0000
0101
0000
0100
0010
0000
1000
,
0000
0010
0000
0001
0000
0010
1000
0100
,
2000
0000
0100
0000
3001
0100
0001
0000
,
0002
0000
0100
0000
1003
0010
0100
0000
,
0110
0000
1001
0000
1000
0010
0100
0000
,
0001
0010
0100
1000
0001
1000
0001
0000
,
1000
0100
1000
0001
0100
0001
1000
0010
,
1000
0001
0000
0010
0000
0100
1000
0000
,
0001
0100
0001
1000
0100
1000
0001
0010
,
0001
1000
0000
0010
0100
0000
0001
0000
,
1000
0000
0001
0010
0100
0010
0001
1000
,
0000
0000
1000
0100
0010
0100
1000
0001
,
1000
0010
0100
0000
0002
0000
0010
0000
,
1003
0000
0001
1000
0000
0100
0010
0001
,
2000
0000
0000
0010
0000
0000
0001
0000
,
3100
1000
0000
0010
0000
0100
0001
1000
,
0002
0000
0000
0010
0000
0000
1000
0000
,
0103
0001
0000
0010
0100
1000
0100
0000
,
1100
0000
0001
0000
0101
0000
0000
1010
,
0000
0100
0000
0011
0000
0010
0110
0000
,
0011
0000
1000
0000
1010
0000
0000
1100
,
0000
1000
0010
0100
0001
0010
0100
0010
,
0002
0100
1000
0010
,
2003
0000
3100
0020
0000
0130
1000
0001
,
0100
0000
0101
0000
0001
0100
0010
0000
,
1000
0100
0001
0000
0001
0100
1000
0000
,
2000
0010
0001
0100
,
3002
0000
0103
0020
0000
1030
0100
0010
,
0001
0000
1001
0000
0001
0100
0010
0000
,
1000
0010
0001
0010
1000
0100
0010
0001
,
1002
0103
2001
3010
,
2002
0000
3003
1100
0000
0100
1000
0010
,
0100
0001
1000
0000
0010
1000
0001
0000
,
0011
0000
1100
0000
1000
0001
1000
0000
,
2100
3001
1002
0013
,
2002
0000
3003
0101
0000
0100
0001
0010
,
0100
1000
0001
0000
0100
0001
1000
0001
,
0000
0010
0000
1000
0000
0010
0001
0100
,
0201
0310
0120
1030
,
2020
0000
3030
1100
0000
1000
0100
0010
,
0001
0100
1000
0000
1000
0100
0001
0000
,
0011
0000
0101
0000
0001
0100
0010
1000
,
1200
0301
0201
1300
,
2020
0000
3030
0202
0000
0303
0001
0100
,
0201
1300
1200
0301
,
0012
0000
1003
2100
0000
3001
1000
0001
,
0020
1000
0100
0032
,
1000
0203
0001
0010
,
1300
0000
0100
0001
0010
0000
0100
1000
,
0000
1000
0010
0100
0001
1000
0100
0000
,
0020
0000
1000
0000
0100
0000
0031
1000
,
0020
0000
0001
0000
0130
0010
1000
0000
,
1001
0000
1000
0100
0001
0000
0001
0100
,
1000
0001
0000
0001
0100
0010
1000
0000
,
0200
0001
0010
2300
,
0001
3020
1000
0100
,
0001
0000
0230
0000
1000
0000
0301
1000
,
0002
0010
1000
0100
,
1003
0001
1000
0001
0100
0000
0102
0000
,
0010
1003
1100
1000
,
0010
0100
0010
0100
0001
0000
2001
0000
,
0010
0000
3100
0000
1000
0010
0000
0000
,
0101
0000
0000
0000
;

//--------------- dance-single - OrangeRight ----------------
#NOTES:
     dance-single:
     OrangeRight:
     Challenge:
     13:
     0,0,0,0,0:
0000
0000
0000
0000
,
0000
0000
0000
0000
,
0000
0000
0000
0000
,
0000
0000
0000
0000
,
0000
0000
0000
0000
,
1000
0000
0100
0001
0000
0100
1000
0000
,
0001
0010
0000
1000
0010
0001
0100
0000
,
0001
0000
0100
1000
0000
0100
0001
0000
,
1000
0010
0000
0010
0001
0010
1000
0001
,
1000
0100
0010
0100
0001
0100
1000
0010
,
1010
0000
1001
0000
1000
0001
0100
0001
,
0010
1000
0010
0100
0010
0001
0100
0110
,
0000
1010
0000
1000
0001
0010
1000
0010
,
0001
0000
1000
0010
0001
0001
0010
1000
,
0001
0000
1000
0100
0001
0001
0100
1000
,
0010
0100
0010
1000
0200
0000
0001
0000
,
0010
0000
1300
0002
0000
0103
1000
0100
,
0020
0001
0100
1000
,
0130
0000
0100
0001
1000
0100
0010
0100
,
2000
0100
0001
0010
,
3001
0000
1000
0010
0001
0010
1000
0100
,
0110
0000
0010
0001
0011
0000
0001
0101
,
0000
1000
0100
1100
0000
1000
1001
0000
,
0110
0000
0010
1000
1010
0000
1000
1100
,
0000
1000
0010
0001
0010
1000
0100
0010
,
0021
0000
1000
0000
0031
0100
0010
0100
,
0201
0000
1000
0000
0301
0010
0100
1000
,
1010
0000
0101
0000
0001
0010
0000
1000
,
0000
0010
0001
0100
0000
0100
0010
1000
,
1200
0000
0001
0000
1300
0010
0100
0010
,
1020
0000
0031
0010
1000
0100
0010
0001
,
0011
0000
1100
0000
0100
1000
0000
0010
,
0001
0010
0000
1000
0100
0010
0100
1000
,
0001
0100
0010
0001
0010
0100
0001
0010
,
1010
0000
0011
0000
0001
1000
1010
0000
,
1000
0100
0010
1000
0010
0100
1000
1001
,
0000
0001
0100
0001
1000
0001
0010
0100
,
1000
0000
0001
0010
1000
1000
0010
0001
,
1000
0000
0001
0100
1000
1000
0100
0001
,
0010
0100
0010
0001
0200
0000
1000
0000
,
0010
0000
0301
2000
0000
3100
0001
0100
,
0020
0000
0001
0001
0000
0100
0100
0000
,
1000
0000
1030
0010
0001
0100
0010
1000
,
0020
0000
1000
1000
0000
0100
0100
0000
,
0001
0000
0031
0010
1000
0100
0001
0100
,
0110
0000
0001
0010
0011
0000
0001
0101
,
0000
1000
0100
1100
0000
0001
1001
0000
,
0110
0000
0010
1000
1010
0000
0001
0101
,
0000
0001
0100
1000
0001
0010
1000
0001
,
0021
2030
3020
0032
,
0203
0000
0000
0000
1300
0000
0100
0000
0001
0000
0010
0000
0100
0000
1000
0001
,
1000
0000
1100
0000
0100
1000
0010
0000
,
0100
0001
0010
1000
0010
0001
0100
0010
,
1020
0000
0032
0000
0013
1000
0001
1000
,
0200
0000
0000
0000
0301
0000
0100
0000
1000
0000
0001
0000
0100
0000
0010
0100
,
0010
0000
1001
0000
0001
0100
0010
1000
,
0100
0001
0100
1000
0010
0100
0001
1000
,
1200
0000
0310
0001
0201
0000
0310
1000
,
1200
0000
0301
0201
0000
1300
0010
0001
,
0010
0100
0010
1000
0100
0001
0100
1000
,
0010
0110
0000
0101
0000
0011
0001
0100
,
0201
0000
0310
1000
1200
0000
0310
0001
,
0201
0000
1300
1200
0000
0301
0010
1000
,
0010
0100
0010
0001
0100
1000
0100
0101
,
0000
0011
0000
1010
0000
1100
1000
0010
,
2010
0000
3100
0010
0012
0000
0103
0010
,
1020
0000
0031
0021
0000
1030
0100
0010
,
0100
0001
0100
1000
0010
0001
0010
1000
,
1001
0000
0110
0000
0010
1000
0100
1000
,
2001
0000
3100
1000
1002
0000
0103
0001
,
0021
0000
1030
1020
0000
0031
1000
0001
,
1002
0000
0013
0001
2001
0000
3010
1000
,
1200
0000
0301
0201
0000
1300
0010
0100
,
0101
0011
1010
0011
,
1001
1100
0101
1100
,
1001
0000
1010
0000
0110
0000
0100
0001
,
0010
0011
1010
0011
,
1001
0000
0101
0000
0110
0000
0010
1000
,
0100
0000
0101
0000
0100
1000
0010
1000
,
1001
0000
1000
0010
1010
0000
0001
0010
,
0011
0001
0100
1000
0001
0010
1000
0100
,
2000
3020
0032
0203
,
2300
3020
2030
3200
,
0302
0000
0023
0000
2030
0000
3100
1000
,
0020
0230
0302
0023
,
0031
0100
1000
0100
0010
0000
2100
0000
,
0010
3001
1001
0001
,
1000
0100
0001
0100
0010
0000
0201
0000
,
0010
0000
1300
0000
0100
0001
0010
0000
,
0110
0000
0000
0000
;

//--------------- dance-double - OrangeRight ----------------
#NOTES:
     dance-double:
     OrangeRight:
     Easy:
     6:
     0,0,0,0,0:
00000000
00000000
00000000
00000000
,
00000000
00000000
00000000
00000000
,
00000000
00000000
00000000
00000000
,
00000000
00000000
00000000
00000000
,
00000000
00000000
00000000
00000000
,
00100000
00001000
00100000
00001000
,
00010000
00000100
00001000
00000000
,
00000010
00010000
00000010
00010000
,
00001000
00100000
00010000
00000000
,
10000000
00010000
10000000
00010000
,
00100000
01000000
00000000
00100000
,
00010000
01000000
00010000
01000000
,
00001000
00000000
00010000
00000000
,
00000100
00001000
00000100
00010000
,
00001000
01000000
00010000
01000000
,
00100000
01000000
00020000
00000000
,
00130000
00001000
00010000
00000100
,
00002000
00000000
00000010
00000000
,
00003010
00000000
00001000
00000001
,
00000200
00000000
00000010
00000000
,
00000310
00000000
00000010
00001000
,
00001001
00000000
00001001
00000000
,
00001000
00000100
00010000
00000000
,
00011000
00000000
00011000
00000000
,
00010000
00001000
00100000
00000000
,
00020000
00000000
01030000
00000000
,
02000000
00000000
03001000
01000000
,
00010000
00010000
00100000
00000000
,
00001000
00010000
00000100
00000000
,
00002000
00000000
00003010
00000000
,
00000020
00000000
00010030
00000010
,
00001000
00001000
00000100
00000000
,
00000010
00000001
00000010
00000000
,
00000001
00001000
00000100
00001000
,
00000010
00000100
00000000
00000010
,
00001000
00000100
00010000
00001000
,
00100000
00000000
00001000
00000000
,
01000000
00010000
01000000
00001000
,
00010000
00000100
00001000
00000100
,
00000010
00000100
00002000
00000000
,
00003010
00010000
00001000
01000000
,
00020000
00000000
00100000
00000000
,
00130000
00000000
00010000
10000000
,
02000000
00000000
00100000
00000000
,
13000000
00000000
00010000
10000000
,
10010000
00000000
10010000
00000000
,
00010000
01000000
00001000
00000000
,
00011000
00000000
00011000
00000000
,
00001000
00010000
00000010
00000000
,
00001000
00000100
00001000
00000000
,
00000001
00000100
00000001
00000000
,
00001000
00001000
00000100
00000000
,
00010000
00001000
01000000
00000000
,
00010000
00100000
00010000
00000000
,
10000000
00100000
10000000
00000000
,
00010000
00100000
01000000
00000000
,
10000000
00100000
01000000
00010000
,
00200000
00000000
00320000
00000000
,
02030000
00000000
03001000
00010000
,
00000100
00001000
00000010
00001000
,
00000100
00000100
00000000
00001000
,
00000020
00000000
00002030
00000000
,
00003200
00000000
00010300
00001000
,
00100000
00010000
01000000
00100000
,
10000000
00010000
00000000
00010000
,
20000000
00000000
30200000
00000000
,
02300000
00000000
03010000
00100000
,
00010000
01000000
00001000
00010000
,
00000100
00000100
00000000
00001000
,
00000002
00000000
00000023
00000000
,
00000230
00000000
00001300
00000000
,
00001001
00000000
00000110
00000000
,
00002002
00000000
00003003
00000000
,
00001000
00000100
00000001
00000000
,
00000001
00000100
00001000
00000000
,
00000100
00010000
00001000
00100000
,
00010000
01000000
10000000
00000000
,
01000000
00010000
00100000
01000000
,
20000000
00000000
30020000
00000000
,
10030000
00000000
01000000
00000000
,
00100000
00010000
01000000
00000000
,
00010000
00100000
10000000
00000000
,
10000000
00100000
00010000
00000000
,
00100000
00001000
00010000
00000100
,
00001000
00000010
00000100
00000001
,
00002000
00000000
00003000
00000002
,
00000000
00000003
00000100
00000010
,
00002000
00000000
00003000
00000200
,
00000000
00010300
00001000
00000000
,
00011000
00000000
00000000
00000000
;

//--------------- dance-double - OrangeRight ----------------
#NOTES:
     dance-double:
     OrangeRight:
     Medium:
     9:
     0,0,0,0,0:
00000000
00000000
00000000
00000000
,
00000000
00000000
00000000
00000000
,
00000000
00000000
00000000
00000000
,
00000000
00000000
00000000
00000000
,
00000000
00000000
00000000
00000000
,
00100000
00000000
00000000
00010000
00000000
00000000
01000000
00000000
,
00000000
00001000
00000000
00010000
00000000
00001000
00010000
00000000
,
00000010
00000000
00000000
00001000
00000000
00000000
00000100
00000000
,
00000000
00010000
00000000
00001000
00010000
00000000
00001000
00000000
,
00100000
00010000
00100000
00000000
00010000
01000000
00010000
00000000
,
01000000
00001000
00010000
00000100
,
00001000
00000010
00001000
00000000
00000100
00000000
00001000
00000010
,
00000000
00000100
00000000
00000001
00000010
00000000
00000100
00000000
,
00001000
00000000
00000100
00001000
00000100
00000000
00010000
00000000
,
00001000
00000000
01000000
00010000
01000000
00000000
00100000
00000000
,
01000000
00010000
00100000
00010000
20000000
00000000
00100000
00000000
,
00000000
00000000
30100000
00000000
10000000
00010000
01000000
00000000
,
00020000
01000000
00000000
01030000
,
00010000
00000000
00100000
00000000
00001000
00010000
00000010
00000000
,
00002000
00000100
00000000
00003100
,
00001000
00000000
00000010
00000000
00000100
00000001
00000100
00000000
,
00000101
00000000
00000000
00000000
00001010
00000000
00000000
00010100
,
00000000
00010000
00001000
00100000
00000000
00001000
00100000
00000000
,
00110000
00000000
00000000
00000000
11000000
00000000
00000000
10010000
,
00000000
10000000
00000000
00100000
01000000
00000000
00010000
00000000
,
20000000
01000000
01000000
01000000
,
30020000
00000000
01000000
00000000
01030000
00010000
01000000
00000000
,
10010000
00000000
10010000
00000000
10000000
00010000
00000000
01000000
,
00000000
00001000
00000000
00010000
00000000
00000100
00010000
00000000
,
00002000
00100000
00100000
00100000
,
00023000
00000000
00000010
00000000
00030010
00010000
00001000
00000000
,
00011000
00000000
00011000
00000000
00010000
00000100
00000000
00001000
,
00000000
00000010
00000000
00000100
00000001
00000000
00001000
00000000
,
00000010
00000000
00001000
00000010
00000000
00000010
00001000
00000000
,
00000100
00010000
00001000
01000000
,
00010000
00000000
00100000
00010000
00000000
00010000
01000000
00100000
,
00000000
10000000
00010000
00000000
01000000
00010000
01000000
00000000
,
00010000
00000000
00100000
00010000
00100000
00000000
00001000
00000000
,
00010000
00000000
00000010
00001000
00000010
00000000
00000100
00000000
,
00000010
00001000
00000100
00001000
00000002
00000000
00000010
00000000
,
00000000
00000000
00000013
00000000
00000001
00001000
00000100
00000000
,
00002000
00000000
00000000
00000100
00000000
00000000
00003100
00000000
,
00001000
00000000
00000010
00000000
00010000
00001000
00010000
00001000
,
00020000
00000000
00000000
00000100
00000000
00000000
00030100
00000000
,
00010000
00000000
00001000
00000000
00100000
00010000
00100000
00000000
,
00110000
00000000
00000000
00000000
01001000
00000000
00000000
00011000
,
00000000
00001000
00010000
00000010
00000000
00001000
00000010
00000000
,
00001010
00000000
00000000
00000000
00010100
00000000
00000000
00011000
,
00000000
00010000
00000000
00000100
00001000
00000000
00000001
00000000
,
00002000
00000010
00000010
00000010
,
00003002
00000000
00000000
00000203
00000000
00000000
00000310
00001000
,
00000100
00000000
00001100
00000000
00001000
00000100
00000000
00010000
,
00000000
00001000
00000000
01000000
00000000
01000000
00001000
00000000
,
00020000
00000010
00000010
00000010
,
00032000
00000000
00000000
02003000
00000000
00000000
03010000
10000000
,
00010000
00000000
10010000
00000000
10000000
00100000
00000000
00010000
,
00000000
00100000
10000000
01000000
00100000
00000000
00010000
00000000
,
02010000
00000000
03002000
00010000
,
00103000
00000000
00001000
00100000
00000000
00100000
00010000
00000000
,
01000000
00010000
01000000
00000000
00001000
00010000
00001000
00000000
,
00010000
00000100
00000000
00001000
00000000
00000010
00001000
00000000
,
00001020
00000000
00020030
00001000
,
00030100
00000000
00010000
00000100
00000000
00000100
00001000
00000000
,
00000010
00001000
00000010
00000000
00010000
00001000
00010000
00000000
,
00001000
00100000
00000000
00010000
00000000
01000000
00010000
00000000
,
02010000
00000000
03200000
10000000
,
10300000
00000000
10000000
00010000
00000000
00010000
10000000
00000000
,
00010000
01000000
00010000
00000000
00100000
00010000
00100000
00000000
,
00001000
00010000
00000100
00000000
00001000
00000010
00001000
00000000
,
00002010
00000000
00003002
00000100
,
00001003
00000000
00001000
00000100
00000000
00000100
00010000
00000000
,
00012000
00000000
00203000
00010000
,
00310000
00000000
01000000
00001000
00010000
00001000
01000000
00000000
,
00020000
00230000
20300000
30200000
,
00000000
00320000
02030000
03002000
,
00000000
00023000
02030000
03020000
,
00032000
00023000
00030020
00002030
,
00003002
00000023
00002030
00003020
,
00000000
00000032
00000103
00000000
,
00000110
00000000
00000010
00001000
,
00000100
00001000
00000000
00001000
00000010
00000100
00000001
00000000
,
00002000
00003020
00000032
00000023
,
00000000
00002030
00003200
00020300
,
00000000
00032000
00003200
00002300
,
00023000
00032000
00203000
00320000
,
20030000
00000000
30010000
01010000
,
00000000
00010000
01000000
00001000
,
00020000
00000000
00030100
00001100
,
00000000
00000000
00000100
00000000
00001000
00000010
00000000
00000000
,
00001010
00000000
00000000
00000000
;

//--------------- dance-double - OrangeRight ----------------
#NOTES:
     dance-double:
     OrangeRight:
     Hard:
     12:
     0,0,0,0,0:
00000000
00000000
00000000
00000000
,
00000000
00000000
00000000
00000000
,
00000000
00000000
00000000
00000000
,
00000000
00000000
00000000
00000000
,
00000000
00000000
00000000
00000000
,
00100000
00000000
00010000
01000000
00000000
00001000
00010000
00000000
,
00000100
00001000
00000000
00000010
00000000
00001000
00001000
00000000
,
00000100
00000000
00001000
00000010
00000000
00010000
00001000
00000000
,
00100000
00010000
00000000
01000000
01000000
00000000
00100000
00000000
,
10000000
01000000
00100000
00000000
00010000
01000000
00001000
00000000
,
00011000
00000000
00010100
00000000
00000100
00001000
00000010
00000000
,
00001000
00000100
00000010
00000000
00000100
00010000
00001000
01000000
,
00000000
00010000
00000000
00100000
01000000
00100000
00010000
01000000
,
00010000
00000000
01000000
00001000
00010000
00000100
00001000
00000100
,
00000000
00000000
00000100
00001000
00000100
00010000
00001000
00100000
,
00010000
10000000
00100000
10000000
02000000
00000000
00010000
00000000
,
00000000
00000000
13000000
00010000
00000000
00010000
01000000
00001000
,
00020000
00000100
00000000
00000010
,
00031000
00000000
00010000
00001000
00000000
00100000
00010000
01000000
,
00002000
01000000
00000000
00100000
,
00013000
00000000
00010000
00000100
00001000
00000010
00000100
00000000
,
00000101
00000000
00000010
00000000
00001100
00000000
00000000
00001010
,
00000000
00000100
00000000
00010100
00000000
00010000
00001000
00000000
,
00011000
00000000
00100000
00000000
01010000
00000000
00000000
10100000
,
00000000
10000000
00000000
01000000
00100000
00010000
10000000
00100000
,
02000000
00000000
00010000
00000000
03010000
00000000
01000000
00001000
,
00010000
00000000
00010100
00000000
00000100
00001000
00000001
00001000
,
00000010
00000000
00000110
00000000
00000100
00000001
00000000
00000001
,
00000010
00000100
00000000
00000100
00001000
00000001
00001000
00000010
,
00000200
00000000
00000001
00000000
00000301
00000100
00000010
00001000
,
00000100
00000000
00010000
00001000
00100000
00001000
00010000
00000010
,
00001000
00000000
00001010
00000000
00001000
00000010
00000000
00000010
,
00000100
00000001
00000010
00000100
00001000
00000100
00010000
00000000
,
00001000
00010000
00001000
00010000
00001000
00100000
00001000
00100000
,
00010000
00000000
01010000
00000000
00010000
01000000
00001000
00000000
,
00010000
00001000
00010000
00001000
00010000
00000010
00010000
00000010
,
00000000
00001000
00000100
00000000
00000010
00000001
00000100
00000010
,
00001000
00000000
00000010
00010000
00001000
00100000
00010000
00100000
,
00000000
00000000
00100000
00010000
00100000
00001000
00010000
00000100
,
00001000
00000100
00010000
00000100
00000020
00000000
00001000
00000000
,
00000000
00000000
00000031
00000100
00000000
00000010
00001000
00000100
,
00020000
00000000
00000000
00000010
00000000
00000000
00000100
00000000
,
00030100
00010000
00000000
00010000
00001000
00100000
00001000
00010000
,
00002000
00000000
00000000
01000000
00000000
00000000
00100000
00000000
,
00103000
00010000
00000000
01000000
00100000
10000000
00010000
00000000
,
01010000
00000000
00100000
00000000
11000000
00000000
00000000
10100000
,
00000000
01000000
00000000
00110000
00000000
00010000
01000000
00000000
,
01010000
00000000
00100000
00000000
00101000
00000000
00001000
00010000
,
00000000
00010000
00000100
00001000
00000010
00000100
00000001
00000010
,
00000200
00002300
00003020
00000032
,
00000023
00000000
00000000
00002030
00000000
00000000
00003100
00010000
,
00001000
00000000
00011000
00000000
00001000
00100000
00000000
00100000
,
00010000
10000000
00000000
10000000
00100000
01000000
00010000
00100000
,
02000000
23000000
30200000
00320000
,
00230000
00000000
00000000
02300000
00000000
00000000
03001000
00010000
,
00001000
00000000
00011000
00000000
00010000
00000100
00000000
00000100
,
00001000
00000010
00010000
00001000
00100000
00010000
01000000
00001000
,
00021000
00030100
00012000
01003000
,
00021000
00000000
00030100
00002000
00000000
00003010
00000100
00000001
,
00000010
00000100
00000010
00000001
00000100
00001000
00000100
00000010
,
00001000
00000000
00001100
00000000
00001000
00000100
00010000
00000000
,
00012000
00103000
00021000
00030010
,
00012000
00000000
00103000
00020000
00000000
01030000
00010000
00100000
,
01000000
10000000
01000000
00100000
10000000
00100000
00010000
01000000
,
00000000
00001000
00000000
00010000
00000000
00000100
00010000
00001000
,
00012000
01003000
02010000
03001000
,
00021000
00000000
00030100
00002000
00000000
00003010
00000100
00000010
,
00001000
00000100
00010000
00001000
00100000
00010000
01000000
00001000
,
00011000
00000000
00010010
00000000
00000010
00001000
00000100
00000000
,
00020100
00031000
01002000
00013000
,
00020010
00000000
00031000
00102000
00000000
00013000
00001000
00100000
,
00120000
01030000
02010000
03001000
,
00021000
00000000
00030010
00002010
00000000
00003001
00000010
00000100
,
00002000
00003002
00000203
00002300
,
00003200
00000302
00000023
00000230
,
00002300
00000000
00003020
00000000
00020030
00000000
00031000
00100000
,
00020000
02030000
03200000
20300000
,
32000000
00000000
03020000
00000000
00032000
00000000
00103000
00010000
,
02000000
00000000
03002000
00000000
00013000
00001000
00010000
00000000
,
00010100
00000000
00000100
00010000
00001000
00000000
00010000
00001000
,
00100000
00010000
01000000
10000000
01000000
00010000
00100000
00000000
,
00020000
20030000
30200000
00320000
,
00230000
20300000
32000000
03200000
,
00320000
00000000
02030000
00000000
03002000
00000000
00013000
00000100
,
00002000
00003020
00000032
00000023
,
00001030
00000100
00001000
00000100
00010000
00000000
00012000
00000000
,
00000000
00103000
00110000
00010000
,
01000000
00010000
01000000
00010000
00100000
00000000
00120000
00000000
,
00000000
00000000
10030000
00000000
00010000
01000000
00000000
00000000
,
10100000
00000000
00000000
00000000
;

//--------------- dance-double - OrangeRight ----------------
#NOTES:
     dance-double:
     OrangeRight:
     Challenge:
     13:
     0,0,0,0,0:
00000000
00000000
00000000
00000000
,
00000000
00000000
00000000
00000000
,
00000000
00000000
00000000
00000000
,
00000000
00000000
00000000
00000000
,
00000000
00000000
00000000
00000000
,
00010000
00000000
10000000
00100000
00000000
00010000
00100000
00000000
,
10000000
01000000
00000000
00010000
00000000
00001000
00000100
00000000
,
00000001
00000000
00000010
00001000
00000000
00000010
00000001
00000000
,
00000100
00001000
00000000
00010000
01000000
10000000
00100000
01000000
,
00010000
00100000
10000000
00100000
00010000
01000000
00001000
00010000
,
00010100
00000000
00001100
00000000
00000100
00010000
00001000
00010000
,
00000010
00001000
00000100
00000010
00000100
00001000
00000010
00010010
,
00000000
00011000
00000000
00010000
00001000
00000010
00001000
00010000
,
00000100
00000000
00001000
00000010
00000100
00001000
00000100
00000010
,
00001000
00000000
00000100
00010000
00001000
00000100
00001000
00010000
,
00000100
00010000
00001000
01000000
00020000
00000000
00100000
00000000
,
10000000
00000000
01030000
00002000
00000000
00013000
00000100
00001000
,
00000020
00000001
00000100
00001000
,
00000100
00000000
00000031
00000010
00001000
00000100
00010000
00001000
,
00200000
00010000
01000000
10000000
,
01000000
00000000
00310000
01000000
00100000
01000000
00001000
00010000
,
00010100
00000000
00000100
00010000
00011000
00000000
00001000
00101000
,
00000000
00100000
00010000
01010000
00000000
00010000
00110000
00000000
,
01001000
00000000
01000000
00001000
00011000
00000000
00010000
00010010
,
00000000
00000010
00001000
00000100
00000001
00000100
00001000
00000010
,
00001020
00000000
00000001
00000000
00001030
00000100
00000010
00000100
,
00020100
00000000
00001000
00000000
00030010
00010000
00001000
00100000
,
00110000
00000000
01010000
00000000
00010000
00100000
00000000
10000000
,
00100000
00010000
00000000
00010000
01000000
00100000
10000000
01000000
,
01200000
00000000
10000000
00000000
00310000
01000000
00001000
00010000
,
00012000
00000000
00103000
00001000
01000000
00010000
01000000
00001000
,
00011000
00000000
00010100
00000000
00000100
00010000
00001000
00000100
,
00001000
00010000
00000010
00001000
00000100
00000010
00000001
00000100
,
00000010
00000100
00001000
00000100
00010000
00000100
00001000
00000100
,
00000110
00000000
00001010
00000000
00001000
00000100
00010000
00001000
,
00100000
00010000
00100000
01000000
00100000
10000000
00100000
00110000
,
00000000
00010000
01000000
00001000
00010000
01000000
00010000
00001000
,
00010000
00000000
00010000
00001000
00000010
00001000
00010000
00100000
,
00010000
00000000
00001000
00010000
01000000
00010000
00001000
00000100
,
00000010
00001000
00000100
00000001
00000200
00000000
00001000
00000000
,
00000010
00000000
00000301
00000100
00001000
00000100
00010000
00000010
,
00002000
00000000
00010000
00010000
00000000
00000010
00000010
00000000
,
00003100
00001000
00000000
00001000
00000100
00010000
00001000
00100000
,
00020000
00000000
00001000
00001000
00000000
01000000
01000000
00000000
,
00130000
00010000
00000000
00010000
01000000
00001000
00100000
00010000
,
01010000
00000000
01000000
00001000
00011000
00000000
00010000
00010010
,
00000000
00000010
00001000
00001100
00000000
00001000
00001010
00000000
,
00001001
00000000
00000001
00001000
00001100
00000000
00000100
00010100
,
00000000
00010000
00001000
00100000
00010000
00001000
00010000
00100000
,
00120000
02030000
03002000
00023000
,
00030100
00000000
00000010
00000000
00000100
00000000
00001000
00000000
00000010
00000000
00000100
00000000
00000001
00000000
00001000
00000001
,
00001000
00000000
00001100
00000000
00000100
00010000
00001000
00010000
,
00100000
00010000
00001000
00010000
00000010
00001000
00000100
00001000
,
00002010
00000000
00003200
00000000
00010300
00001000
00100000
00010000
,
01000000
00000000
00100000
00000000
01000000
00000000
00010000
00000000
00100000
00000000
01000000
00000000
10000000
00000000
00010000
10000000
,
00010000
00000000
01010000
00000000
01000000
00001000
00010000
00001000
,
00000010
00001000
00010000
00100000
01000000
00010000
10000000
01000000
,
12000000
00000000
03100000
00010000
01020000
00000000
00130000
00001000
,
00021000
00000000
00030100
00002100
00000000
00003010
00010000
00001000
,
00000010
00001000
00010000
00000010
00001000
00000100
00000001
00000100
,
00001000
00001010
00000000
00000110
00000000
00000101
00000001
00000010
,
00000021
00000000
00000130
00001000
00002010
00000000
00003100
00010000
,
00012000
00000000
00103000
00120000
00000000
01030000
00001000
00010000
,
01000000
00010000
00001000
01000000
00010000
00100000
00010000
01010000
,
00000000
00110000
00000000
10100000
00000000
11000000
10000000
00100000
,
10200000
00000000
01300000
00010000
00210000
00000000
00301000
00010000
,
00010200
00000000
00001300
00001020
00000000
00000130
00000001
00000010
,
00001000
00010000
00000010
00001000
00000100
00000001
00000100
00001000
,
00001100
00000000
00001010
00000000
00000010
00000001
00000010
00001000
,
00002010
00000000
00003100
00010000
00012000
00000000
00103000
00010000
,
02010000
00000000
13000000
12000000
00000000
03010000
00100000
00001000
,
00021000
00000000
00030100
00001000
00001020
00000000
00000130
00000001
,
00000021
00000000
00001030
00001020
00000000
00000031
00000100
00000010
,
00001010
00001100
00010100
00012000
,
00103000
00110000
01010000
12000000
,
03010000
00000000
00110000
00000000
00101000
00000000
00001000
00010000
,
00000100
00001100
00001010
00000011
,
00001010
00000000
00001001
00000000
00001100
00000000
00001000
00000100
,
00010000
00000000
00011000
00000000
00001000
00100000
00010000
00000000
,
01010000
00000000
01000000
00010000
00100000
00000000
00010000
00100000
,
01000000
00100000
00010000
01000000
00001000
00010000
01000000
00010000
,
00002000
00003200
00000302
00000023
,
00001000
00000032
00000203
00002300
,
00010000
00000000
00003200
00000000
00000320
00000000
00001030
00000100
,
00010000
00001000
00200000
00000000
00320000
00000000
02030000
00000000
,
03010000
00100000
00010000
00100000
00001000
00000000
00021000
00000000
,
00000100
00030010
00001010
00000010
,
00001000
00000100
00001000
00000100
00010000
00000000
00012000
00000000
,
01000000
00000000
00103000
00000000
00001000
00100000
00010000
00000000
,
01010000
00000000
00000000
00000000
;
