#TITLE:ミライどんなだろう;
#SUBTITLE:;
#ARTIST:Mitchie M;
#TITLETRANSLIT:What Kind of Future;
#SUBTITLETRANSLIT:;
#ARTISTTRANSLIT:;
#GENRE:PROJECT VOLTAGE;
#CREDIT:;
#BANNER:What Kind of Future.png;
#BACKGROUND:What Kind of Future-bg.png;
#LYRICSPATH:;
#CDTITLE:;
#MUSIC:What Kind of Future.ogg;
#OFFSET:0.849931;
#SAMPLESTART:42.815662;
#SAMPLELENGTH:16.420000;
#SELECTABLE:YES;
#BPMS:0.000000=178.000000
;
#STOPS:
;
#BGCHANGES:2.000=What Kind of Future.mp4=1.000=1=0=1===CrossFade==,
99999=-nosongbg-=1.000=0=0=0 // don't automatically add -songbackground-
;
#KEYSOUNDS:;
#ATTACKS:;

//---------------dance-single - ----------------
#NOTES:
     dance-single:
     :
     Hard:
     13:
     0.592663,0.706408,0.309023,0.664400,0.104295,537.000000,497.000000,40.000000,86.000000,19.000000,0.000000,0.592663,0.706408,0.309023,0.664400,0.104295,537.000000,497.000000,40.000000,86.000000,19.000000,0.000000:
0000
0000
0000
0000
,
0000
0000
0000
0000
,
0000
0000
0000
0000
,
0000
0000
0000
0000
,
0000
0000
0000
1001
,
0001
0100
0010
1000
0000
0010
0000
0100
,
0001
0000
1000
0000
0100
0000
0000
0000
0010
0001
0010
0000
0001
0000
0000
0000
,
1000
0010
0100
0001
0000
0100
0000
0010
,
1000
0001
0010
0100
1000
0001
0100
0010
,
1000
0100
0010
0001
0000
0010
0000
0100
,
1000
0000
0001
0000
0100
0000
0000
0000
0010
1000
0010
0000
1000
0000
0000
0000
,
0001
0010
0100
1000
0000
0001
0000
0100
,
0010
0100
0010
1001
,
0001
0000
1000
0000
0100
1000
0000
0010
,
0000
0100
0001
0100
0010
0000
1000
0001
,
1000
0000
0010
1000
0000
0001
0100
0000
,
0001
0000
0010
1000
0000
0010
0001
0000
,
1000
0000
0001
0000
1000
0100
0000
0010
,
0000
0100
1000
0100
0010
0000
0001
1000
,
0001
0000
0100
0001
0000
1000
0001
0000
,
1000
0000
0010
0002
0000
0013
1000
0010
,
1000
0010
0000
0100
0000
0001
0010
0001
,
0010
0001
0000
1000
0000
0001
0100
0001
,
1000
0100
0010
0100
2000
0000
0001
3001
,
0000
0010
0100
2000
0000
0000
3000
0000
,
0102
1003
2100
3001
,
0012
0023
2030
3010
,
0012
0103
2010
3100
,
0102
0013
2100
3010
,
1000
0010
0100
0010
000M
0010
0001
0000
,
0001
0100
0010
0100
M000
0100
1000
0000
,
2002
3003
0000
0000
,
0000
0000
0000
1000
0001
1000
0002
0100
,
0000
2003
0100
0000
3001
0010
0100
1000
,
0000
1100
0000
1000
0001
1000
0002
0010
,
0000
2003
0010
0000
3001
0010
0100
1000
,
0000
1001
0000
0001
0100
0001
2000
0100
,
0000
3020
1000
0000
0130
0010
1000
0002
,
0000
0023
0000
2030
0000
3020
0000
0032
,
0000
0000
0100
0000
0010
0000
1000
1003
,
0001
0010
0100
1000
0100
0010
0002
0100
,
0000
2003
0010
0000
3001
0010
0100
1000
,
0000
0000
0000
0010
0000
0000
0100
0000
0001
0000
0100
0000
0010
0000
0000
0100
0000
0000
0002
0000
0000
0010
0000
0000
,
0000
2003
0100
0000
3001
0100
0010
0002
,
0000
0013
0000
0011
0000
1010
0000
1000
,
0001
0000
0011
0000
1100
0000
0000
1000
,
0100
0001
0100
1000
0000
0001
1000
0001
,
1000
0010
1000
0000
0000
0000
0001
0010
0001
0000
0000
0000
1000
0001
1000
0001
,
0100
0000
2020
0000
3030
1000
0001
0000
,
2002
3003
0000
0000
,
M000
MM00
MMM0
MMMM
,
2002
0000
0000
0000
,
0000
0000
3003
0101
,
2010
0000
3001
1000
0010
0100
0010
0100
,
0001
0010
0100
0000
2000
0010
0000
3010
,
1000
0000
0001
0000
0010
0000
0001
0000
0100
00M0
0100
0000
1000
0000
0001
0000
,
0010
0M00
0010
0000
1000
0000
0001
0000
0200
0000
0010
0000
0310
0000
0000
0000
,
1000
0010
0100
0001
1000
0001
0010
0100
,
1000
0010
0001
0000
0020
1000
1030
0010
,
1000
0100
0010
0100
0001
0100
0000
1000
,
0010
0000
0000
0100
0000
0000
0202
0000
0000
0000
0303
0000
0000
0000
0001
0000
,
0100
0000
0101
0001
1000
0000
1100
0100
,
0010
0000
0000
0000
0011
0000
0001
0000
1000
0000
0010
0M00
0010
0000
0001
0000
,
0010
0000
0011
0001
1000
0000
1010
0010
,
0200
0000
0000
0000
0302
0000
0000
0000
1003
0000
0100
1000
0100
0000
0000
0000
,
1000
0000
0010
0000
0M00
0000
0010
0000
0001
0010
0000
0001
1000
0000
0100
00M0
,
0100
0000
0001
0000
0100
0000
0010
1000
0010
1000
0010
0000
1000
0000
0002
0000
,
0013
0100
0000
0000
1100
0000
0011
0000
,
0001
0000
1000
0000
0100
0000
0010
0001
1000
0000
0010
0000
0100
0000
0001
0000
,
1001
0000
0000
0000
0200
0300
0000
0000
,
0220
0330
0000
0000
0000
0000
0000
0000
,
2002
3003
0000
0000
0000
0000
0000
0000
0000
0000
0000
0000
0000
0000
0000
0000
,
0002
0000
0203
0000
,
0320
0000
2030
3200
,
0320
0000
0000
0030
0020
0000
2030
0000
,
3020
0032
2003
3020
,
0230
0000
0300
0001
0010
0001
2000
0010
,
0000
3200
1000
0000
0310
0100
1000
0002
,
0000
0203
0000
2300
0000
3200
0000
0302
,
0000
0000
0010
0000
0100
0000
1000
1003
,
0001
0100
0010
1000
0010
0100
0002
0010
,
0000
2003
0100
0000
3001
0100
0010
1000
,
0000
0000
0000
0100
0000
0000
0010
0000
0001
0000
0010
0000
0100
0000
0000
0010
0000
0000
0002
0000
0000
0100
0000
0000
,
0000
2003
0010
0000
3001
0010
0100
0002
,
0000
0103
0000
0101
0000
1100
0000
1000
,
0001
0000
0101
0000
1010
0000
0000
1000
,
0010
0001
0010
1000
0000
0001
1000
0001
,
2000
0100
0000
3002
0010
0000
1003
0010
,
0100
0000
0100
0000
0100
0010
0001
0010
,
2000
0100
0000
3002
0010
0000
1003
0010
,
1000
0100
0010
0100
0001
0100
1000
0001
,
1000
0010
1000
0000
0000
0000
0001
0010
0001
0000
0000
0000
1000
0001
1000
0001
,
0100
0000
0022
0000
0033
0001
1000
0000
,
0101
0000
00M0
0100
2000
0000
0000
0000
3010
0000
0000
0000
1000
0000
0001
0000
,
0011
0000
0M00
0010
2000
0000
0000
0000
3100
0000
0000
0000
2000
0000
0000
0000
,
3001
0100
0010
0100
1000
0100
0010
0100
,
2002
3003
0000
0000
;

//---------------dance-single - ----------------
#NOTES:
     dance-single:
     :
     Medium:
     11:
     0.464639,0.520511,0.247219,0.409456,0.003863,421.000000,389.000000,32.000000,53.000000,0.000000,0.000000,0.464639,0.520511,0.247219,0.409456,0.003863,421.000000,389.000000,32.000000,53.000000,0.000000,0.000000:
0000
0000
0000
0000
,
0000
0000
0000
0000
,
0000
0000
0000
0000
,
0000
0000
0000
0000
,
0000
0000
0000
0000
,
1000
0000
0010
0100
0000
0100
0000
0001
,
1000
0100
1000
0000
0001
0000
0010
0000
,
0001
0000
0100
0010
0000
0010
0000
1000
,
0001
0010
0001
0000
1000
0000
0100
0000
,
1000
0000
0010
0001
0000
0010
0000
0100
,
0001
1000
0001
0000
0010
0000
0100
0000
,
1000
0000
0100
0001
0000
0100
0000
1000
,
0010
0100
0010
1001
,
0001
0000
0100
0000
0010
0100
0000
0001
,
0000
0001
0010
0000
0100
0000
1000
0000
,
0002
0000
0000
0203
0000
0000
2300
0000
,
3002
0000
0000
0023
0000
0000
2030
0000
,
3001
0000
0010
0000
0100
0010
0000
0001
,
0000
0001
0100
0000
0010
0000
1000
0000
,
0002
0000
0000
0023
0000
0000
2030
0000
,
3002
0000
0000
0203
0000
0000
0300
0000
,
1000
0000
1010
0000
,
0001
0000
0011
0000
,
1000
0000
1100
0000
,
0001
0000
0101
0000
,
1000
1000
0010
0010
,
0001
0010
1000
0002
,
1003
1000
0100
0100
,
0001
0100
1000
0002
,
0103
0000
0100
0010
0000
0010
1000
0000
,
0100
0000
0100
0010
0000
0010
0001
0000
,
2002
3003
0000
0000
,
0000
0000
0000
0000
1001
0000
0001
0100
,
0000
0001
0100
0000
0010
0000
0100
0001
,
0000
1001
0000
0001
1000
0000
0100
0010
,
0000
0100
0010
0000
0001
0000
0100
0010
,
0000
1010
0000
1000
0001
0000
0010
1000
,
0000
0010
1000
0000
0010
0000
0001
0001
,
0000
0100
0000
1000
0000
0100
0000
0020
,
0000
1000
0001
1030
,
0010
1000
0100
0010
0001
0100
0001
0010
,
0000
0001
0100
0000
0001
0000
1000
0100
,
0000
1010
0000
1000
0001
0000
1000
0010
,
0000
1000
0100
0000
1000
0000
0001
0010
,
0000
0101
0000
0001
0000
0010
0000
1000
,
0010
0000
0001
0000
0100
0000
0000
0010
,
1000
0010
1000
0100
0000
1000
0001
1000
,
0001
0100
0000
1000
0010
0000
0001
1000
,
0001
0000
2002
0000
3003
0001
1000
0000
,
2002
3003
0000
0000
,
0000
0000
0000
0000
,
2002
0000
0000
0000
,
0000
0000
3003
0101
,
2010
0000
3001
0000
1000
0100
0010
0000
,
0001
0100
1000
0000
0200
0000
0310
0000
,
1000
0100
0010
0000
0001
0010
0100
0000
,
1000
0010
0001
0010
2000
0000
3001
0000
,
0010
0001
0100
0010
,
1000
0100
0001
0000
0200
0000
0310
0000
,
0001
0000
0100
0000
0010
1000
0000
1000
,
0001
0000
0000
1000
0000
0000
2002
0000
0000
0000
3003
0000
0000
0000
0001
0000
,
0100
0101
0100
0110
,
0010
0000
1000
0100
0001
0000
0101
0000
,
0100
1100
1000
1001
,
0002
0203
0320
0031
,
0010
0000
1000
0000
0001
1000
0100
0010
,
0010
0000
0100
0000
1000
0001
0100
0010
,
1000
0001
0000
0000
0011
0000
1100
0000
,
1002
0000
0103
0000
0001
0010
1000
0010
,
0001
0000
1000
0000
,
2002
3003
0000
0000
0000
0000
0000
0000
,
0110
0000
0000
0000
,
0002
0000
0203
0000
,
0320
0000
2030
3200
,
0320
0000
0000
0030
0020
0000
2030
0000
,
3020
0032
2003
3020
,
0230
0000
0300
0000
0000
0000
0100
0001
,
0000
1000
0100
0000
0100
0000
1000
1000
,
0000
0010
0000
0001
0000
0010
0000
0200
,
0000
0001
1000
0301
,
0100
0001
0010
0100
1000
0010
1000
0100
,
0000
1000
0010
0000
1000
0000
0001
0010
,
0000
0101
0000
0001
1000
0000
0001
0100
,
0000
0001
0010
0000
0001
0000
1000
0100
,
0000
1010
0000
1000
0000
0100
0000
0001
,
0100
0000
1000
0000
0010
0000
0000
0100
,
0001
0100
0001
0010
0000
0001
1000
0001
,
1000
0010
0000
0001
0100
0000
1000
0001
,
1000
0000
1000
0000
1000
0100
0010
0000
,
0001
0100
0000
1000
0010
0000
1000
0001
,
1000
0100
0001
0000
0100
1000
0001
0010
,
0001
0100
0000
1000
0100
0000
0001
0010
,
0100
0000
2002
0000
3003
1000
0001
0000
,
0102
0000
1000
0000
0013
0000
0001
1000
,
2100
0001
3010
1000
,
0001
0010
0100
0010
1000
0010
0100
0010
,
0002
0003
0000
0000
;

//---------------dance-single - ----------------
#NOTES:
     dance-single:
     :
     Easy:
     7:
     0.350962,0.446153,0.177688,0.177688,0.000000,318.000000,295.000000,23.000000,23.000000,0.000000,0.000000,0.350962,0.446153,0.177688,0.177688,0.000000,318.000000,295.000000,23.000000,23.000000,0.000000,0.000000:
0000
0000
0000
0000
,
0000
0000
0000
0000
,
0000
0000
0000
0000
,
0000
0000
0000
0000
,
0000
0000
0000
0000
,
1000
0010
0100
0010
,
1000
0000
0001
0000
,
0010
0100
0010
0001
,
1000
0000
0001
0000
,
1000
0100
0010
0100
,
1000
0000
0001
0000
,
0100
0010
0100
0001
,
0010
0010
0010
1001
,
0001
0000
1000
0000
,
0010
0100
1000
0100
,
0010
0000
1000
0001
,
1000
0000
0100
0010
,
0100
0000
1000
0000
,
0001
0010
1000
0010
,
0001
0000
0100
0010
,
1000
0000
0001
0000
,
1000
0000
0100
0000
,
0010
0000
0001
0000
,
1000
0010
1000
0000
,
0001
0010
0001
0000
,
0100
0100
0010
0010
,
1000
1000
0001
1000
,
0100
0100
0010
0010
,
0001
0001
1000
0001
,
0100
0000
0000
0010
0000
0000
1000
0000
,
0001
0000
0000
0010
0000
0000
0100
0000
,
2002
3003
0000
0000
,
0000
0000
0000
1001
,
0001
0100
0010
0100
,
0001
0001
1000
0100
,
1000
0010
0100
0010
,
1000
1000
0001
0100
,
0001
0010
1000
0010
,
0001
0100
1000
0100
,
0020
1000
1000
1030
,
0001
0010
0100
1001
,
1000
0010
0100
1000
,
0100
0100
0010
1000
,
0001
0010
0100
0001
,
0100
0100
0010
0001
,
1000
0010
0001
0000
,
1000
0100
0001
0000
,
0010
0000
0000
0010
0000
0000
0100
0000
,
1000
2002
3003
0001
,
2002
3003
0000
0000
,
0000
0000
0000
0000
,
2002
0000
0000
0000
,
0000
0000
3003
0000
,
0001
0100
0010
0100
,
1000
0100
0001
1001
,
1000
0100
0010
0100
,
0001
0100
1000
1001
,
0001
0010
0100
0010
,
1000
0010
0001
1001
,
1000
0010
0100
0010
,
0001
0010
1000
1001
,
0001
0001
1000
1000
,
0100
0000
0010
0000
0001
0001
0001
0000
,
1000
1000
0001
0001
,
0100
0000
0010
0000
1000
1000
1000
0000
,
0001
0000
0010
0000
0100
0100
0100
0000
,
0010
0000
0001
0000
1000
1000
1000
0000
,
0010
0000
0101
1010
,
2002
3003
0220
0330
,
2002
3003
0000
0000
,
0000
0000
0000
0000
,
0000
0000
0000
0000
,
0001
0000
0100
0000
,
0010
0000
1000
0100
,
0010
0000
0010
1000
,
0010
0001
1000
0010
,
0200
0000
0000
0300
,
0001
0001
1000
1000
,
0100
0001
0100
1000
,
0020
0100
0100
0130
,
0010
1000
0001
1001
,
0001
0010
1000
0001
,
0100
0010
0001
0001
,
1000
0010
0001
1000
,
0100
0010
1000
0001
,
1001
0001
0100
0000
,
0010
1000
0100
0000
,
1000
0000
0000
0100
0000
0000
0010
0000
,
0001
0001
0001
1001
,
0001
0000
0000
0100
0000
0000
0010
0000
,
1000
1000
0001
0001
,
0010
0010
0000
0010
0010
0000
0010
0010
,
0000
2002
3003
0001
,
2100
0010
3000
1000
,
0102
0010
0003
1000
,
0001
0010
1000
0010
,
2002
3003
0000
0000
;

//---------------dance-single - ----------------
#NOTES:
     dance-single:
     :
     Beginner:
     4:
     0.225146,0.296663,0.023177,0.000000,0.000000,204.000000,201.000000,3.000000,0.000000,0.000000,0.000000,0.225146,0.296663,0.023177,0.000000,0.000000,204.000000,201.000000,3.000000,0.000000,0.000000,0.000000:
0000
0000
0000
0000
,
0000
0000
0000
0000
,
0000
0000
0000
0000
,
0000
0000
0000
0000
,
0000
0000
0000
0000
,
1000
0000
0010
0010
,
0010
0000
0100
0000
,
0001
0000
0010
0010
,
0010
0000
0100
0000
,
1000
0000
0001
0001
,
0001
0000
0100
0000
,
0010
0000
1000
1000
,
1000
0000
0000
1001
,
0000
0001
0000
0010
,
0000
0100
0000
1000
,
1000
0000
0010
0010
,
0010
0000
0100
0100
,
0100
0000
0001
0000
,
1000
0000
0100
0100
,
0100
0000
0010
0010
,
0010
0000
0001
0000
,
1000
0000
0000
0000
,
0010
0000
0000
0000
,
0100
0000
0000
0000
,
0001
0000
0000
0000
,
1000
0000
1000
0000
,
0010
0010
0010
0000
,
0100
0000
0100
0000
,
0001
0001
0001
0000
,
0010
0000
0000
0100
,
0100
0000
0000
1000
,
1000
0000
0000
0000
,
0000
0000
0000
0000
,
0010
0010
0010
0000
,
0100
0000
0001
0000
,
1000
1000
1000
0000
,
0100
0000
0010
0000
,
0001
0001
0001
0000
,
1000
1000
1000
1000
,
1000
0000
0010
0000
,
0100
0000
0001
0000
,
1000
0000
0100
0100
,
0100
0000
0010
0000
,
0001
0000
1000
1000
,
1000
0000
0001
0001
,
0001
0000
0100
0000
,
0010
0010
0010
0000
,
0100
0000
0001
0001
,
0000
0010
0000
0100
,
0100
0000
0000
0000
,
0000
0000
0000
0000
,
0000
0000
0000
0000
,
0000
0000
0000
0000
,
1000
0000
0010
0000
,
0100
0100
0100
0000
,
1000
0000
0100
0000
,
0010
0010
0010
0000
,
1000
0000
0100
0000
,
0010
0010
0010
0000
,
0001
0001
0001
0000
,
1000
1000
1000
0000
,
0010
0000
0100
0000
,
0001
0001
0001
0000
,
0010
0000
0100
0000
,
1000
1000
1000
0000
,
0001
0001
0001
0000
,
0100
0100
0100
0000
,
0010
0000
1000
1000
,
1000
0000
0001
0000
,
1001
0000
0000
0000
,
0000
0000
0000
0000
,
0000
0000
0000
0000
,
0000
0000
0000
0000
,
1000
0000
0000
0000
,
0100
0000
0000
0000
,
0010
0000
0010
0000
,
0010
0000
0000
0000
,
0001
0000
0100
0000
,
0010
0010
0010
0010
,
0010
0000
0100
0000
,
0001
0000
1000
0000
,
0100
0000
0010
0010
,
0010
0000
0100
0000
,
1000
0000
0001
0001
,
0001
0000
1000
1000
,
1000
0000
0010
0000
,
0100
0100
0100
0000
,
0010
0010
0000
1000
,
1000
0000
0001
0000
,
0010
0010
0000
0100
,
0100
0000
1000
0000
,
0001
0001
0000
1000
,
1000
0000
0010
0010
,
0010
0010
0000
0100
,
0100
0100
0000
0001
,
0001
0000
1000
0000
,
1001
0000
0000
0000
;
