#TITLE:WORD@RT;
#SUBTITLE:;
#ARTIST:ZIv SOUND TEAM "Kaystar";
#TITLETRANSLIT:;
#SUBTITLETRANSLIT:;
#ARTISTTRANSLIT:;
#GENRE:VIP-Core;
#CREDIT:;
#MUSIC:WORDART.ogg;
#BANNER:WORDART.png;
#BACKGROUND:WORDART-bg.png;
#CDTITLE:cdtitle.jpg;
#SAMPLESTART:0.000;
#SAMPLELENGTH:7.037;
#SELECTABLE:YES;
#OFFSET:0.000;
#BPMS:0.000=162.000
,127.000=81.000
,159.000=121.500
,165.000=162.000
;
#STOPS:;
#DISPLAYBPM:162.000;
#BGCHANGES:0.000=WORDART.avi=1.000=1=0=0=StretchNoLoop==CrossFade==;
#FGCHANGES:;

//--------------- dance-single - KAYSTAR ----------------
#NOTES:
     dance-single:
     KAYSTAR:
     Beginner:
     3:
     0,0,0,0,0:
0000
0000
0000
0000
,
0000
0000
0000
0000
,
0000
0000
0000
0000
,
0000
0000
0000
0000
,
0000
0000
0000
0000
,
0000
0000
0000
0000
,
0000
0000
0000
0000
,
1000
0000
1000
0000
,
1000
0000
0000
0000
,
0001
0000
0001
0000
,
0001
0000
0000
0000
,
0200
0000
0300
0000
,
0200
0000
0300
0000
,
0020
0000
0030
0000
,
0020
0000
0030
0000
,
1000
1000
1000
0000
,
1000
0000
0000
0000
,
0001
0001
0001
0000
,
0001
0000
0000
0000
,
0010
0000
0010
0000
,
0010
0000
0000
0000
,
0100
0000
0100
0000
,
0100
0000
0000
0000
,
1000
0000
1000
0000
,
1000
0000
0000
0000
,
0010
0000
0010
0000
,
0010
0000
0000
0000
,
0100
0000
0100
0000
,
0100
0000
0000
0000
,
0001
0000
0001
0000
,
0000
0001
0000
0010
,
0000
0100
0000
2000
,
0000
3000
0000
1000
,
0000
0001
0000
0100
,
0100
0100
0000
0010
,
0010
0010
0000
2000
,
3000
0200
0300
0020
,
0030
0002
0003
1000
,
1000
1000
0000
0001
,
0001
0001
0000
0200
,
0000
0000
0000
0300
,
0000
0020
0000
0000
,
0000
0000
0000
0030
,
0000
1001
0000
0000
,
0000
0000
0000
0000
,
0000
1000
1000
1000
,
0000
0010
0000
0010
,
0000
0100
0100
0100
,
0000
0001
0000
0001
,
0000
0010
0010
0010
,
0000
0100
0000
0100
,
0000
1000
1000
1000
,
0000
0001
0000
0001
,
0000
0100
0000
0010
,
0010
0010
0000
0000
,
0000
1000
0000
0001
,
0001
0001
0000
0000
,
0000
0010
0000
0100
,
0100
0100
0000
0000
,
0000
1000
0000
1000
,
0000
0001
0000
0001
,
0000
0100
0100
0100
,
0100
0100
0100
0100
,
0000
0010
0010
0010
,
0010
0010
0010
0010
,
0000
2000
3000
0000
,
0000
0002
0003
0000
,
0000
0010
0010
0010
,
0000
0100
0100
0100
,
0000
2002
0000
0000
0000
0000
0000
0000
,
0000
0000
3003
0000
;

//--------------- dance-single - KAYSTAR ----------------
#NOTES:
     dance-single:
     KAYSTAR:
     Easy:
     8:
     0,0,0,0,0:
0000
0000
0000
0000
,
0000
0000
0000
0000
,
0000
0000
0000
0000
,
0000
0000
0000
0000
,
0000
0000
0000
0000
,
0000
0000
0000
0000
,
0000
0000
0000
0000
,
1000
0000
0001
0000
,
0100
0000
0010
0010
,
0010
0000
1000
0000
,
0001
0000
0010
0010
,
0020
0000
0030
0000
,
0200
0000
0300
0000
,
2000
0000
0001
3001
,
0010
0100
1000
0000
,
1001
1001
1001
0000
,
1000
0010
0100
0001
,
1001
1001
1001
0000
,
1000
0100
0010
0001
,
0200
0010
0310
0000
,
2000
0001
3001
0000
,
1000
0010
0100
0001
,
0020
0000
0000
0030
,
0001
1000
0100
0000
,
1000
0010
0100
0000
,
0001
0010
0100
0000
,
1000
0001
0100
0000
,
0010
1000
0001
0000
,
0010
0100
1000
0000
,
0010
0010
0010
0000
,
0100
0000
0000
0001
0010
0000
0010
0100
,
0000
0100
1000
0000
1000
0000
0020
0000
,
0000
0000
0030
0000
0000
0000
0100
0100
,
0001
0000
0100
0100
0001
0000
0010
0000
,
0100
0000
1000
0000
0010
0010
0100
0000
,
0001
0000
0010
0000
0100
0100
2000
0000
,
3000
0020
0030
0200
,
0300
0000
0002
0000
0003
0000
0010
0100
,
1000
0100
0010
0100
1000
0000
0001
0100
,
0010
0100
0001
0100
0010
0000
2000
0000
,
0000
3200
0000
0000
0320
0000
0000
0032
,
0000
0203
0000
0000
,
0000
0000
0000
0000
,
0000
0310
0000
0000
,
0000
0000
0000
0000
,
1001
1000
0010
0100
,
0001
0010
0000
0001
,
0001
1000
0100
0010
,
0001
0100
0000
0010
,
0010
1000
0001
0100
,
0010
1000
0000
0100
,
0100
0010
0001
1000
,
0010
0010
0100
0002
,
0000
1003
0000
0001
,
0100
0010
0000
1000
,
1000
1000
0000
0100
,
0010
0001
0000
0200
,
0000
0310
1000
0100
,
0010
0001
0001
0001
,
0000
0100
0010
0100
,
0010
0000
1000
0000
0000
0001
0000
0000
,
1001
1000
1000
0010
,
0010
0100
0100
0002
,
1003
0001
0001
0010
,
0010
0100
0100
2000
,
3001
1001
0000
0000
,
0000
1001
0000
0000
,
0000
1000
0010
0010
,
0100
0000
0001
0000
0001
0000
0010
0001
,
2000
0002
0000
0000
0000
0000
0000
0000
,
0000
0000
3003
0000
;

//--------------- dance-single - KAYSTAR ----------------
#NOTES:
     dance-single:
     KAYSTAR:
     Medium:
     13:
     0,0,0,0,0:
0000
0000
0000
0000
,
0000
0000
0000
0000
,
0000
0000
0000
0000
,
0000
0000
0000
0000
,
0000
0000
0000
0000
,
0000
0000
0000
0000
,
0000
0000
0000
0000
0000
0000
2002
3003
,
0001
0000
0000
0100
0000
0000
0001
0000
1000
0000
0000
0100
0000
0000
1000
0000
,
0010
0000
0000
0100
0000
0000
0010
0000
1000
0000
0100
0000
0010
0000
0001
0000
,
1000
0000
0000
0010
0000
0000
1000
0000
0001
0000
0000
0010
0000
0000
0001
0000
,
0100
0000
0000
0010
0000
0000
0100
0000
0001
0000
0010
0000
0100
0000
1000
0000
,
0020
0100
1000
0130
,
0002
0100
1000
0013
,
0200
0010
1000
0310
,
0001
0100
0010
1000
0100
0000
0000
0000
,
1000
0001
0000
0000
0001
1000
0000
0000
1000
0001
0000
0000
0001
1000
0000
0000
,
1000
0010
0100
0002
0000
0013
0100
1000
,
0010
0100
0000
0000
0100
0010
0000
0000
0010
0100
0000
0000
0100
0010
0000
0000
,
0010
0100
0001
2000
0000
3100
0010
0001
,
1000
0000
0010
0010
0010
0000
0100
0001
,
0010
0000
0100
0100
0100
0000
1000
0010
,
0100
0001
0100
0001
1000
0100
1000
0100
,
0020
0000
0000
0000
0030
0000
2002
3003
,
0001
0100
0010
1000
0100
0001
0100
1000
,
0010
0100
0001
0020
0000
0100
0000
0031
,
1000
0010
0100
0001
0010
1000
0010
0100
,
0100
0000
1000
0001
0100
0100
0010
1000
,
0001
0000
1000
0100
0010
0001
0100
1000
,
0100
0001
0010
0200
0000
1000
0000
0310
,
0001
1000
0100
0000
1000
0001
0100
0010
,
0010
0000
1000
1000
0000
0100
0100
0000
,
0001
0001
0000
0010
0010
0000
2000
0000
,
0000
0000
3000
0000
0000
0000
0001
0001
,
0010
0000
0100
0100
1000
0000
0001
0100
,
0110
0000
1000
0100
0110
0000
0001
0100
,
0010
1000
0100
0001
0100
1000
0020
0000
,
0030
0200
0300
0002
,
0003
0000
2000
0000
3000
0000
0001
0010
,
0100
0001
0100
0010
0001
0000
1000
0010
,
0100
0000
1000
0000
0100
0000
0010
0000
1000
0000
0000
0000
0001
0000
0000
0100
,
0000
0000
0010
0000
0000
1000
0000
0000
0100
0000
0000
0001
0000
0000
0100
0000
,
0000
1000
0000
0000
0001
0000
0000
0000
0100
0000
0000
0000
0010
0000
0000
0000
,
1000
0100
0010
0001
,
0100
0020
0000
0000
,
0000
0030
0000
0000
,
2002
0000
3003
0000
1000
0000
0010
0000
0100
0000
0000
0100
0001
0000
1000
0000
,
0100
0000
0000
0100
1000
0000
0001
0000
0100
0000
0010
0000
1000
0000
0100
0000
,
0001
0000
0100
0000
1000
0000
0001
0000
0010
0000
0000
0010
0001
0000
1000
0000
,
0010
0010
0100
0001
0001
0100
0010
0000
,
1001
0000
0000
0000
0001
0000
0100
0000
0010
0000
0000
0010
1000
0000
0001
0000
,
0010
0000
0000
0010
0001
0000
1000
0000
0010
0000
0100
0000
0001
0000
0010
0000
,
1000
0000
0010
0000
0001
0000
1000
0000
0100
0000
0000
0100
1000
0000
0001
0000
,
0100
0100
0010
1000
1000
0010
0100
0000
,
2002
3003
0001
0100
0010
0010
1000
0000
,
0100
0100
1000
0001
0010
0100
0001
0100
,
0010
0001
1000
0010
0100
0100
0001
0000
,
0010
0010
0001
0100
0010
0110
0000
0000
,
1001
0000
0002
0000
0013
0010
0100
0000
,
1000
1000
0010
0100
1000
0100
0010
1000
,
0010
0100
0001
0010
0100
1000
0001
0001
,
1001
0000
0000
0000
1000
0000
0010
0100
0010
0000
1000
0000
0001
0000
0100
0000
,
0020
0000
0000
1030
0000
1000
0100
0000
0100
0001
0000
0001
,
0100
0000
0000
0000
0100
0000
1000
0000
0000
0000
1000
0000
0001
0000
0000
0000
0001
0000
0100
0000
0000
0010
0000
0000
,
2000
0000
0000
3001
0000
0001
0100
0000
0100
1000
0000
1000
,
0100
0000
0000
0000
0100
0000
0001
0000
0000
0000
0001
0000
0010
0000
0000
0000
0010
0000
0100
0000
0000
1000
0000
0000
,
0002
0000
0013
0000
0001
0100
0001
1000
,
0100
1000
0001
0010
0001
0100
0010
1000
,
0100
0010
0001
0100
1000
0100
0010
1000
,
0100
0001
0100
0010
0001
1000
0010
0010
,
0100
0220
0000
0000
0000
0000
0000
0000
,
0000
0330
0000
0000
;

//--------------- dance-single - KAYSTAR ----------------
#NOTES:
     dance-single:
     KAYSTAR:
     Hard:
     16:
     0,0,0,0,0:
0000
0000
0000
0000
,
0000
0000
0000
0000
,
0000
0000
0000
0000
,
0000
0000
0000
0000
,
0000
0000
0000
0000
0000
0000
0000
0000
0000
0000
0000
0000
0000
0000
0000
0001
,
1000
0000
0000
1000
0001
0000
0000
0001
1000
0000
0000
1000
0001
0000
0000
0001
,
1000
0000
0000
1000
0001
0000
0000
0001
1000
0000
0000
0000
1001
0000
0000
0000
,
0001
0000
0000
0100
0010
0000
1000
0000
0100
0000
0000
0100
0010
0000
0001
0000
,
0100
0000
0000
0100
0010
0000
1000
0000
0100
0000
0001
0000
0100
0000
0010
0000
,
0001
0000
0000
0010
0100
0000
1000
0000
0010
0000
0000
0010
0100
0000
0001
0000
,
0010
0000
0000
0010
0100
0000
1000
0000
0010
0000
0001
0000
0010
0000
0100
0000
,
0001
0000
1000
0000
0010
0000
1000
0000
0100
0000
1000
0001
0000
0000
0100
0000
,
0001
0000
1000
0000
0001
0000
0010
0000
0001
0000
0100
0010
0000
0000
1000
0000
,
0001
0000
0010
0100
0000
0000
1000
0000
0010
0000
0010
0000
0100
0000
0100
0000
,
0001
0010
0100
1000
0020
0000
0030
0000
,
0100
0001
1000
0000
0100
0001
1000
0000
0100
0001
1000
0000
0100
0001
1000
0000
,
0010
1000
0100
0002
0000
0103
1000
0000
,
0010
1000
0001
0000
0010
1000
0001
0000
0010
1000
0001
0000
0010
1000
0001
0000
,
0100
0001
0010
2000
0000
3010
0100
1000
,
0001
0000
0000
0000
1000
0010
0100
0000
1000
0010
0100
0000
0001
0000
1000
0001
,
0010
0000
0000
0000
0001
0100
0010
0000
0001
0100
0010
0000
1000
0000
0001
1000
,
0100
0000
1000
0000
1000
0000
0001
0000
0001
0000
0100
0010
0100
0010
1000
0000
,
0010
0100
0010
0100
0001
0000
0010
0000
0100
0000
1000
0000
1001
0000
0000
0000
,
0001
0000
0100
0000
0010
1000
0010
1000
0001
0000
0000
0000
0100
1000
0100
1000
,
0001
0000
0100
0000
0010
0000
1000
0100
0010
0000
1000
0100
0010
0000
0001
0000
,
1000
0000
0010
0000
0100
0001
0100
0001
1000
0000
0000
0000
0010
0001
0010
0001
,
1000
0000
0010
1000
0001
0000
0100
0000
1000
0000
0100
0000
0010
0000
1000
0000
,
0002
0000
0003
0000
0010
0001
0010
0001
1000
0000
0000
0000
0100
0001
0100
0001
,
1000
0000
0010
0000
0100
0000
0001
0010
0100
0000
0001
0010
0100
0000
1000
0000
,
0010
0100
0101
0001
1000
1100
0100
1000
,
0010
0000
0100
0001
0100
0001
1000
0000
0010
0001
0010
0001
1000
0000
0010
1000
,
0010
1000
0001
0000
0100
1000
0100
1000
0001
0000
1000
0000
2002
0000
0000
0000
,
0000
0000
3003
0000
0000
0000
1000
1000
,
1010
0000
0000
0000
0001
0000
0001
0000
0101
0000
0000
0000
1000
0100
0010
0000
,
0001
0000
0100
0001
1000
0000
1010
0000
0010
1000
0001
0000
0100
0000
0001
0010
,
0100
0000
1000
0000
0010
1000
0001
0000
0011
0000
0110
0000
1100
0000
1000
0000
,
1000
1000
0001
0001
0001
0001
0100
0100
,
0100
0000
0100
0000
0010
0000
0010
0000
0010
0000
0010
0000
1000
0100
0010
1000
,
0100
0010
1000
0100
0010
1000
0100
0010
1000
0001
0010
0000
0001
0100
0010
0001
,
0100
0010
0001
0100
0010
0001
0100
0010
0001
1000
0010
0000
2000
0000
0000
3200
,
0000
0000
0320
0000
0000
0032
0000
0000
0203
0000
0000
0320
0000
0000
2030
0000
,
0000
3200
0000
0000
0020
0000
0000
0000
0000
0000
0000
0000
0000
0000
0000
0000
,
0000
0000
0000
0000
,
0330
0000
0000
0000
0010
0000
0001
1000
0001
1000
0100
0000
0001
1000
0001
1000
,
0100
0000
0000
0000
0000
0000
1000
0000
0000
0000
0010
0000
0000
0000
0100
0000
0000
0000
0001
0000
0000
0000
0010
0000
0000
0000
0100
0000
0000
0000
1000
0000
0000
0001
0000
0000
1000
0000
0000
0001
0000
0000
0100
0000
0000
0000
0000
0000
,
0220
0000
0330
0000
0010
1000
0001
0000
0100
0000
1000
0100
0000
0010
0100
0000
,
0010
1000
0001
0000
0100
0000
1000
0100
0000
0010
0100
0000
0001
1000
0100
0000
,
0001
1000
0100
0000
0010
0001
1000
0000
0100
0000
0001
0100
0000
0010
0100
0000
,
1000
0001
1000
0001
0010
0000
1000
0001
1000
0001
0010
0000
0100
0000
0001
0000
,
0100
0000
1000
0000
0010
1000
0001
0000
0100
0000
0010
0001
0000
0010
0100
0000
,
0010
1000
0001
0000
0100
0000
0010
0001
0000
0010
0100
0000
0001
1000
0010
0000
,
0001
1000
0010
0000
0100
0001
1000
0000
0100
0000
0010
1000
0000
0010
0100
0000
,
1000
0001
1000
0001
0010
0000
1000
0001
1000
0001
0010
0000
0001
0000
1000
0000
,
1001
0000
0000
0000
0001
0000
1000
0000
0010
1000
0010
1000
0001
0000
0010
1000
,
0010
1000
0100
0000
1000
0000
0001
0000
0010
0000
2000
0000
3010
0000
0200
0000
,
0301
0000
0100
0000
0110
0000
0000
0000
0010
0001
0010
0001
1000
0000
0010
0001
,
0010
0000
0000
0001
0000
0000
0100
0000
0000
0000
0000
0000
0001
0000
0000
0000
0000
0000
1000
0000
0000
0000
0100
0000
0000
0000
0010
0000
0000
0000
0001
0000
0000
1000
0000
0000
0010
0000
0000
0100
0000
0000
0010
0000
0000
1000
0000
0000
,
0001
0000
0000
0000
2002
0000
3003
0000
1000
0100
1000
0100
0010
0000
1000
0100
,
1000
0100
0001
0000
0100
0000
1000
0000
0010
0000
0002
0000
0013
0000
0200
0000
,
1300
0000
0100
0000
0110
0000
0000
0000
0001
0100
0001
0100
0010
0000
0001
0100
,
0001
0100
1000
0000
0100
0000
0010
1000
0010
0100
0001
0000
0010
0000
0100
0000
,
2000
0000
0000
3000
0000
0000
0001
0000
0100
0000
0010
0000
0001
0000
0100
0000
0010
0000
0001
0000
0100
0000
0010
0000
,
0001
0000
0100
0000
0010
0000
0001
0000
0100
0000
0010
0000
0001
0000
0100
0000
0010
0000
0001
0000
0000
1000
0000
0000
,
1001
0000
0000
1000
0100
0010
1000
0100
0010
1000
0100
0010
,
1000
0000
0100
0000
0010
0000
1000
0000
0100
0000
0010
0000
1000
0000
0100
0000
0010
0000
1000
0000
0000
0001
0000
0000
,
1001
0000
0000
0000
1000
0010
1000
0010
0100
0000
1000
0010
1000
0010
0001
0000
,
0010
0000
1000
0000
0001
0010
0001
0010
0100
0000
0001
0010
0001
0010
1000
0000
,
0010
0000
0001
0000
1000
0000
0001
0100
0001
0100
1000
0000
0001
0100
0001
0100
,
0010
0000
1000
0100
1000
0100
0001
0000
1000
0100
1000
0100
0010
0000
0001
0000
,
0100
0220
0000
0000
0000
0000
0000
0000
,
0000
0000
0330
0000
;

//--------------- dance-double - KAYSTAR ----------------
#NOTES:
     dance-double:
     KAYSTAR:
     Easy:
     8:
     0,0,0,0,0:
00000000
00000000
00000000
00000000
,
00000000
00000000
00000000
00000000
,
00000000
00000000
00000000
00000000
,
00000000
00000000
00000000
00000000
,
00000000
00000000
00000000
00000000
,
00000000
00000000
00000000
00000000
,
00000000
00000000
00000000
00000000
,
10000000
00000000
00010000
00000000
,
00100000
00000000
00001000
00001000
,
00010000
00000000
00000010
00000000
,
00001000
00000000
00000001
00000001
,
00000020
00000000
00000030
00000000
,
00000200
00000000
00000300
00000000
,
00002000
00000000
00000001
00003001
,
00000100
00001000
00010000
00000000
,
00011000
00011000
00011000
00000000
,
00100000
00010000
01000000
00000000
,
00011000
00011000
00011000
00000000
,
00000010
00001000
00000100
00000000
,
00020000
00000000
00000000
00000000
,
02030000
00000000
00000000
00000000
,
23000000
00000000
00000000
00000000
,
30200000
00000000
00000000
00000000
,
00310000
00000000
00000010
00001000
,
00000001
00000000
00000010
00000100
,
00001000
00000000
00000001
00000100
,
00000010
00000000
00001000
00000100
,
00010000
00000000
00001000
00100000
,
00010000
00000000
10000000
00100000
,
01000000
00000000
00010000
00100000
,
01000000
00000000
10000000
00000000
,
00010000
00000000
01000000
00002000
,
00000000
00000000
00003000
00000000
00000000
00000000
00010000
00010000
,
00000010
00000000
00001000
00001000
00000001
00000000
00000010
00000000
,
00000100
00001000
00000010
00010000
,
00001000
00000000
00100000
00000000
00010000
00010000
10000000
00000000
,
10000000
00100000
00000000
01000000
,
01000000
00010000
00000000
00000200
,
00000000
00000302
00000000
00000023
,
00000000
00002030
00000000
00020000
,
00000000
00000000
00000000
00000000
,
00000000
00000000
00000000
00000000
,
00000000
00000000
00000000
00000000
,
00000000
00033000
00000000
00000000
,
00000000
00000000
00000000
00000000
,
00011000
00001000
00100000
00010000
,
10000000
00100000
00000000
01000000
,
01000000
00010000
00100000
00001000
,
00010000
00000010
00000000
00000100
,
00000100
00000001
00000010
00000100
,
00001000
00000010
00000000
00010000
,
00010000
00001000
00100000
01000000
,
10000000
00010000
01000000
00001000
,
00001000
00010000
00000000
00000010
,
00001000
00000001
00000000
00000100
,
00000000
00000001
00000000
00000010
,
00001000
00010000
00000000
00022000
,
00033000
00000000
00100000
00010000
,
10000000
01000000
00000000
10000000
,
00000000
00100000
00010000
00001000
,
00000000
00010000
00001000
00000100
,
00000000
00000001
00000001
00000010
,
00000010
00001000
00001000
00020000
,
00030000
00001000
00001000
00010000
,
00010000
01000000
01000000
20000000
,
30000000
00010000
01000000
00001000
,
00000000
00010000
00000100
00001000
,
00000000
00000001
00000001
00000100
,
00000100
00001000
00001000
00010000
,
00000000
00022000
00000000
00000000
00000000
00000000
00000000
00000000
,
00000000
00000000
00033000
00000000
;

//--------------- dance-double - KAYSTAR ----------------
#NOTES:
     dance-double:
     KAYSTAR:
     Medium:
     13:
     0,0,0,0,0:
00000000
00000000
00000000
00000000
,
00000000
00000000
00000000
00000000
,
00000000
00000000
00000000
00000000
,
00000000
00000000
00000000
00000000
,
00000000
00000000
00000000
00000000
,
00000000
00000000
00000000
00000000
,
00000000
00000000
00000000
00011000
,
00010000
00000000
00000000
00001000
00000000
00000000
00100000
00000000
00010000
00000000
00000000
10000000
00000000
00000000
01000000
00000000
,
10000000
00000000
00000000
00010000
00000000
00000000
01000000
00000000
00100000
00000000
00010000
00000000
00001000
00000000
00000000
00000000
,
00010000
00000000
00000000
00000100
00000000
00000000
00001000
00000000
00000001
00000000
00000000
00000010
00000000
00000000
00000001
00000000
,
00001000
00000000
00000000
00000100
00000000
00000000
00001000
00000000
00000010
00000000
00000100
00000000
00001000
00000000
00010000
00000000
,
00011000
00000000
00000000
00000000
00001000
00000000
00100000
00000000
00010000
00000000
00000000
00010000
10000000
00000000
00000000
00000000
,
10010000
00000000
00000000
00000000
00010000
00000000
00100000
00000000
00001000
00000000
00000000
00001000
00010000
00000000
00000000
00000000
,
00011000
00000000
00010000
00000010
00002000
00000000
00003001
00000000
,
00000001
00000010
00000100
00001000
00000000
00000000
00000000
00000000
,
00000010
00000100
00000000
00000000
00000100
00000010
00000000
00000000
00000010
00000100
00000000
00000000
00000100
00000010
00000000
00000000
,
00000010
00001000
00000100
00020000
00000000
00031000
00100000
00010000
,
01000000
00100000
00000000
00000000
00100000
01000000
00000000
00000000
01000000
00100000
00000000
00000000
00100000
01000000
00000000
00000000
,
00010000
10000000
01000000
00020000
00000000
00031000
00100000
00010000
,
20000000
30100000
00200000
00310000
,
00020000
00031000
00002000
00003100
,
00000100
00000001
00001000
00000200
00000000
00000310
00000001
00000100
,
00000010
00000010
00001000
00000100
00000100
00010000
00011000
00000000
,
00001000
00000000
00100000
00010000
10000000
00000000
00100000
00010000
,
10000000
00100000
01000000
00020000
00000000
00130000
00001000
00010000
,
00010000
00000000
00000010
00001000
00000001
00000000
00000010
00001000
,
00000001
00000100
00000010
00002000
00000000
00003100
00010000
00000000
,
00011000
00000000
01000000
00010000
10000000
00000000
01000000
00010000
,
10000000
00100000
01000000
00020000
00000000
00130000
00001000
00010000
,
00010000
00000000
00000100
00001000
00000001
00000010
00000100
00001000
,
00000020
00000000
00010030
00002000
00000000
01003000
00020000
00000000
,
10030000
02000000
00000000
03010000
00001000
00000000
00022000
00000000
,
00000000
00000000
00033000
00000000
00000000
00000000
00010000
00000010
,
00001000
00000000
00000001
00000001
00000001
00000000
00000010
00001000
,
00010000
00000000
01000000
10000000
00010000
01000000
00100000
00010000
,
00001000
00000000
00000100
00000001
00001000
00001000
00001002
00000000
,
00000003
00002000
00003000
00020000
,
00030000
00000000
20000000
00000000
30000000
00000000
00010000
01000000
,
00001000
00010000
00001000
00100000
00020000
00000000
00031000
00000100
,
00010000
00000000
00001000
00000000
00010000
00000000
00000010
00000000
00002000
00000000
00000000
00000000
00003001
00000000
00000000
00000002
,
00000000
00000000
00000103
00000000
00000000
00000200
00000000
00000000
00001300
00000000
00000000
00002000
00000000
00000000
00013000
00000000
,
00000000
00020000
00000000
00000000
00130000
00000000
00000000
00000000
10000000
00000000
00000000
00000000
01000000
00000000
00000000
00000000
,
00010000
00001000
00000010
00000001
,
00000100
00002000
00000000
00000000
,
00000000
00000000
00000000
00000000
,
00013000
00000000
00001000
00100000
00010000
00100000
00001000
00000000
,
00010000
10000000
01000000
10000000
00010000
00000000
00100000
00000000
,
00011000
00000000
00010000
00000010
00001000
00000010
00010000
00000000
,
00001000
00000001
00000100
00000001
00001000
00000100
00000020
00000000
,
00001030
00000000
00011000
00000000
00100000
00001000
00010000
00001000
,
01000000
00000000
10000000
00010000
00100000
00010000
10000000
01000000
,
00010000
00001000
00011000
00000000
00000100
00010000
00001000
00010000
,
00000010
00000000
00000001
00001000
00000010
00001000
00000001
00000100
,
00002000
00000000
00013000
00000000
01000000
10000000
00010000
01000000
,
10000000
01000000
00010000
10000000
01000000
00020000
00000000
00031000
,
00000000
00010000
00001000
00000000
00000100
00000001
00001000
00000100
,
00000001
00000100
00001000
00000001
00000100
00002000
00000000
00000000
,
00013000
00000000
00000000
00000000
00100000
00010000
00001000
00000100
,
00000010
00000000
00001000
00000100
00000010
00001000
00010000
01000000
,
00100000
00010000
20000000
00000000
30100000
00000000
00200000
00000000
,
00310000
00000000
00010000
00001000
01000000
00001000
00010000
00000010
,
00002000
00000000
00000000
00003001
00000000
00000001
00000010
00000000
00000010
00001000
00000000
00001000
,
00010000
00000000
00000000
00000000
00010000
00000000
00000100
00000000
00000000
00000000
00000100
00000000
00010000
00000000
00000000
00000000
00010000
00000000
00001000
00000000
00000000
00100000
00000000
00000000
,
00020000
00000000
00000000
10030000
00000000
10000000
00100000
00000000
00100000
00010000
00000000
00010000
,
00001000
00000000
00000000
00000000
00001000
00000000
01000000
00000000
00000000
00000000
01000000
00000000
00001000
00000000
00000000
00000000
00001000
00000000
00010000
00000000
00000000
00000010
00000000
00000000
,
00002000
00000000
00003001
00000000
00001000
00000010
00010000
00001000
,
00100000
00000000
00010000
00000000
01000000
00001000
00010000
00000100
,
00001000
00000000
00000001
00001000
00000010
00010000
00001000
00100000
,
00010000
10000000
01000000
00010000
00001000
00000100
00000001
00000010
,
00000100
00002000
00000000
00000000
00000000
00000000
00000000
00000000
,
00000000
00000000
00003000
00000000
;

//--------------- dance-double - KAYSTAR ----------------
#NOTES:
     dance-double:
     KAYSTAR:
     Hard:
     16:
     0,0,0,0,0:
00000000
00000000
00000000
00000000
,
00000000
00000000
00000000
00000000
,
00000000
00000000
00000000
00000000
,
00000000
00000000
00000000
00000000
,
00000000
00000000
00000000
00000000
00000000
00000000
00000000
00000000
00000000
00000000
00000000
00000000
00000000
00000000
00000000
00001000
,
00010000
00000000
00000000
00010000
00001000
00000000
00000000
00001000
00010000
00000000
00000000
00010000
00001000
00000000
00000000
00001000
,
00010000
00000000
00000000
00010000
00001000
00000000
00000000
00001000
00010000
00000000
00000000
00000000
00011000
00000000
00000000
00000000
,
00001000
00000000
00000000
00001000
00010000
00000000
00000010
00000000
00001000
00000000
00000000
00001000
00000001
00000000
00000010
00000000
,
00000001
00000000
00000000
00000001
00001000
00000000
00000010
00000000
00000100
00000000
00000001
00000000
00000010
00000000
00001000
00000000
,
00010000
00000000
00000000
00010000
00001000
00000000
00100000
00000000
00010000
00000000
00000000
00010000
10000000
00000000
00100000
00000000
,
10000000
00000000
00000000
10000000
00010000
00000000
01000000
00000000
00100000
00000000
10000000
00000000
01000000
00000000
00010000
00000000
,
00002000
00100000
00010000
01003000
,
00021000
00000010
00001000
00030100
,
00001002
00000013
00002001
00003010
,
00001000
00000001
00000010
00000100
00001000
00000000
00000000
00000000
,
00000010
00010000
00001000
00000000
00000010
00010000
00001000
00000000
00010000
00001000
00100000
00000000
00010000
00001000
00100000
00000000
,
00010000
10000000
00100000
02000000
00000000
03010000
00100000
00001000
,
00010000
00001000
01000000
00000000
00010000
00001000
01000000
00000000
00001000
00010000
00000100
00000000
00001000
00010000
00000100
00000000
,
00001000
00000001
00000100
00000020
00000000
00001030
00000100
00000010
,
00000001
00000000
00000000
00000000
00001000
00000010
00010000
00000000
00001000
00000010
00010000
00000000
00001000
00000000
01000000
00000000
,
00010000
00000000
00000000
00000000
00100000
00001000
00010000
00000000
00100000
00001000
00010000
00000000
00000100
00000000
00001000
00000000
,
00000001
00000000
00000010
00000000
00000100
00000000
00001000
00000000
00000010
00010000
00001000
00000000
00001000
00000000
00100000
00001000
,
00010000
00000000
00010000
00000000
01000000
00000000
10000000
00010000
00100000
00000000
00010000
00000000
10010000
00000000
00000000
00000000
,
10000000
00000000
00010000
00000000
01000000
00010000
01000000
00010000
10000000
00000000
00000000
00000000
00100000
00010000
00100000
00010000
,
10000000
00010000
01000000
00001000
00010000
00100000
00010000
00001000
,
00011000
00000000
00000000
00000000
00010000
00001000
00010000
00001000
00100000
00000000
00000000
00000000
00010000
00001000
00010000
00001000
,
01000000
00001000
00010000
00000020
00000000
00001030
00000100
00000010
,
00000001
00000000
00001000
00000000
00000010
00001000
00000010
00001000
00000001
00000000
00000000
00000000
00000100
00001000
00000100
00001000
,
00000001
00001000
00000010
00010000
00001000
00000100
00001000
00010000
,
00011000
00000000
00001000
00100000
00010000
00001000
00010000
00100000
,
00001000
00000000
00010000
00001000
00010000
00001000
01000000
00000000
00010000
00001000
00010000
00001000
00100000
00000000
00001000
00010000
,
00001000
00010000
00000100
00000000
00001000
00010000
00001000
00010000
00000010
00000000
00001000
00000000
00020000
00000000
00000000
00000000
,
00000000
00000000
00000000
00000000
00030000
00000000
10000000
00100000
,
10100000
00000000
00000000
00000000
00010000
00000000
01000000
00000000
01010000
00000000
00000000
00000000
10000000
01000000
00100000
00000000
,
00010000
00000000
01000000
00001000
00010000
00000000
00000010
00000000
00001010
00000000
00001000
00000000
00000001
00000000
00000010
00000100
,
00001000
00000000
00000100
00000000
00010000
00001000
00100000
00000000
00110000
00000000
10010000
00000000
10100000
00000000
00000000
00000000
,
01000000
00010000
00100000
00000000
00002000
00000000
00013000
00000000
,
00000010
00000000
00001000
00000000
00000100
00000000
00000000
00000000
00020000
00000000
00000000
00000000
00031000
00010000
00001000
00010000
,
01000000
00010000
01000000
10000000
01000000
10000000
00100000
10000000
00100000
00010000
00001000
00000000
00010000
00001000
00010000
00001000
,
00000100
00001000
00000100
00000001
00000100
00000001
00000010
00000001
00000010
00001000
00010000
00000000
00002000
00000000
00000000
00100000
,
00000000
00000000
00010000
00000000
00000000
01000000
00000000
00000000
00023000
00000000
00000000
00000010
00000000
00000000
00001000
00000000
,
00000000
00000100
00000000
00000000
00002000
00000000
00000000
00000000
00000000
00000000
00000000
00000000
00000000
00000000
00000000
00000000
,
00000000
00000000
00000000
00000000
,
00033000
00000000
00000000
00000000
00001000
00000000
00010000
00001000
00010000
00001000
00100000
00000000
00010000
00001000
00010000
00001000
,
00100000
00000000
00000000
00000000
00000000
00000000
00010000
00000000
00000000
00000000
10000000
00000000
00000000
00000000
01000000
00000000
00000000
00000000
00010000
00000000
00000000
00000000
00001000
00000000
00000000
00000000
00100000
00000000
00000000
00000000
00001000
00000000
00000000
00010000
00000000
00000000
00001000
00000000
00000000
00010000
00000000
00000000
00000010
00000000
00000000
00000000
00000000
00000000
,
00022000
00000000
00033000
00000000
00001000
00010000
00001000
00000000
00010000
00000000
01000000
10000000
00000000
00010000
00100000
00000000
,
00001000
00010000
00001000
00000000
00010000
00000000
00100000
10000000
00000000
00010000
01000000
00000000
00001000
00010000
00000010
00000000
,
00001000
00010000
00000010
00000000
00010000
00001000
00010000
00000000
00001000
00000000
00000010
00000001
00000000
00001000
00000100
00000000
,
00010000
00001000
00010000
00001000
00100000
00000000
00010000
00001000
00010000
00001000
01000000
00000000
00100000
00000000
10000000
00000000
,
01000000
00000000
00010000
00000000
00001000
00010000
00001000
00000000
00000010
00000000
00000001
00001000
00000000
00000100
00010000
00000000
,
00001000
00010000
00001000
00000000
00000100
00000000
00000001
00001000
00000000
00000010
00010000
00000000
00001000
00010000
00000100
00000000
,
00001000
00010000
00000100
00000000
00010000
00001000
00010000
00000000
01000000
00000000
10000000
00010000
00000000
00100000
00001000
00000000
,
00010000
00001000
00010000
00001000
01000000
00000000
00010000
00001000
00010000
00001000
00100000
00000000
00001000
00000000
00010000
00000000
,
00010020
00000000
00000000
00000000
00001030
00000000
00000001
00000000
00000010
00000001
00000010
00000001
00001000
00000000
00000100
00000001
,
00000100
00000001
00001000
00000000
00000100
00000000
00010000
00000000
00001000
00000000
00000020
00000000
00000000
00000000
00001030
00000000
,
00010000
00000000
00001000
00000000
01001000
00000000
00000000
00000000
00100000
10000000
00100000
10000000
00010000
00000000
01000000
10000000
,
01000000
00000000
00000000
10000000
00000000
00000000
00010000
00000000
00000000
00000000
00000000
00000000
01000000
00000000
00000000
00000000
00000000
00000000
00001000
00000000
00000000
00000000
00010000
00000000
00000000
00000000
00100000
00000000
00000000
00000000
00010000
00000000
00000000
00000000
00000000
00000000
00001000
00000000
00000000
00000000
00000000
00000000
00000010
00000000
00000000
00000000
00000000
00000000
,
00000100
00000000
00001000
00000000
00001002
00000000
00000003
00000000
00000100
00000001
00000100
00000001
00001000
00000000
00000010
00000001
,
00000010
00000001
00001000
00000000
00000010
00000000
00010000
00000000
00001000
00000000
00000200
00000000
00000000
00000000
00001300
00000000
,
00010000
00000000
00001000
00000000
00101000
00000000
00000000
00000000
01000000
10000000
01000000
10000000
00010000
00000000
00100000
10000000
,
00100000
10000000
00010000
00000000
00100000
00000000
00001000
00010000
00001000
00000100
00000020
00000000
00000000
00000000
00001030
00000000
,
00000001
00000000
00000000
00000010
00000000
00000000
00001000
00000000
00010000
00000000
00001000
00000000
00010000
00000000
01000000
00000000
00010000
00000000
01000000
00000000
10000000
00000000
01000000
00000000
,
10000000
00000000
00100000
00000000
10000000
00000000
00100000
00000000
00010000
00000000
00100000
00000000
00010000
00000000
00001000
00000000
00010000
00000000
00001000
00000000
00000000
01000000
00000000
00000000
,
02010000
00000000
00000000
03001000
00010000
00001000
00010000
00000010
00000100
00000001
00000100
00000001
,
00000010
00000000
00000001
00000000
00000010
00000000
00001000
00000000
00000010
00000000
00001000
00000000
00010000
00000000
00001000
00000000
00010000
00000000
00000100
00000000
00000000
00001000
00000000
00000000
,
00001200
00000000
00000000
00000000
00010300
00001000
00010000
00001000
00100000
00000000
00010000
00001000
00010000
00001000
01000000
00000000
,
00010000
00000000
10000000
00000000
00100000
10000000
00100000
10000000
00010000
00000000
01000000
10000000
01000000
10000000
00010000
00000000
,
00100000
00000000
00001000
00000000
00010000
00000000
00001000
00010000
00001000
00010000
00000100
00000000
00001000
00010000
00001000
00010000
,
00000010
00000000
00000100
00000001
00000100
00000001
00001000
00000000
00000010
00000001
00000010
00000001
00001000
00000000
00000100
00000000
,
00010000
00022000
00000000
00000000
00000000
00000000
00000000
00000000
,
00000000
00000000
00033000
00000000
;
