#TITLE:Water Horizon;
#SUBTITLE:;
#ARTIST:seiryu;
#TITLETRANSLIT:;
#SUBTITLETRANSLIT:;
#ARTISTTRANSLIT:;
#GENRE:;
#CREDIT:;
#BANNER:Water Horizon.png;
#BACKGROUND:Water Horizon-bg.png;
#LYRICSPATH:;
#CDTITLE:;
#MUSIC:Water Horizon.ogg;
#OFFSET:-0.002600;
#SAMPLESTART:20.107000;
#SAMPLELENGTH:10.053000;
#SELECTABLE:YES;
#BPMS:0.000000=191.000000
;
#STOPS:
;
#BGCHANGES:;
#KEYSOUNDS:;
#ATTACKS:;

//---------------dance-single - ----------------
#NOTES:
     dance-single:
     :
     Hard:
     16:
     0.755925,0.857645,0.150931,0.275228,0.288545,596.000000,579.000000,17.000000,31.000000,5.000000,0.000000,0.755925,0.857645,0.150931,0.275228,0.288545,596.000000,579.000000,17.000000,31.000000,5.000000,0.000000:
// measure 0
0000
0000
0000
0000
,  // measure 1
0000
0000
0000
0000
,  // measure 2
0000
0000
0000
0000
,  // measure 3
0000
0000
0000
0000
,  // measure 4
1010
0000
0001
0100
0001
0000
1000
0100
,  // measure 5
0010
0000
0001
1000
0010
0100
0001
0000
,  // measure 6
0101
1001
0000
0000
,  // measure 7
1100
1001
0000
0000
,  // measure 8
0001
0010
0001
0010
0001
1000
0001
1000
,  // measure 9
0001
0100
0001
0100
0001
1000
0100
0010
,  // measure 10
0001
0010
0001
0010
0001
0000
0000
0000
1000
0010
1000
0010
1000
0000
0000
0000
,  // measure 11
0001
0100
0010
0100
0001
0100
0010
0100
0002
0000
0000
0000
1000
0000
0000
0000
,  // measure 12
1003
0010
0001
0010
1000
0100
0010
0001
,  // measure 13
0100
0000
1000
0000
0100
0000
0001
0000
1000
0001
0000
0000
0001
1000
0000
0000
,  // measure 14
0100
0001
0100
1000
0001
0100
1000
0001
,  // measure 15
0010
0000
1000
0000
0001
0000
0010
0000
0001
1000
0000
0000
0100
0010
0000
0000
,  // measure 16
0001
0100
1000
0100
0001
0010
0100
1000
,  // measure 17
0100
0000
0001
0000
0100
0000
1000
0000
0001
1000
0000
0000
1000
0001
0000
0000
,  // measure 18
0100
1000
0100
0001
1000
0100
0001
1000
,  // measure 19
0020
0000
0001
0031
,  // measure 20
0001
0000
0010
0000
0001
0000
0010
0000
0M10
0000
1000
0000
0001
0100
0000
1000
,  // measure 21
0100
0000
0001
0000
0100
0010
0000
1000
0010
1000
0000
0001
0010
0000
0001
0000
,  // measure 22
1000
0000
0010
0000
1000
0000
0010
0000
0M10
0000
0001
0000
1000
0100
0000
0001
,  // measure 23
0100
0000
1000
0000
0100
0010
0000
0001
0010
0001
0000
1000
0010
0000
1000
0000
,  // measure 24
0001
0000
0010
0000
0001
0000
0010
0000
0M10
0000
1000
0000
0010
0000
1000
0001
,  // measure 25
0100
0001
0100
0001
1000
0001
1000
0001
,  // measure 26
2000
0010
0010
3010
,  // measure 27
1000
0001
1000
0001
1000
0001
1000
0001
1000
0000
0000
0000
1001
0000
0000
0000
,  // measure 28
1000
0100
0010
0100
1000
0100
0010
0001
,  // measure 29
0100
0010
0100
0001
0100
0010
1000
0001
,  // measure 30
0010
0100
0010
0001
0010
0100
1000
0010
,  // measure 31
0100
0010
1000
0010
0100
0001
1000
0100
,  // measure 32
0020
0000
0000
0000
0001
0000
0000
0000
1000
0000
0000
0000
0031
0000
0001
1000
,  // measure 33
0020
0000
0001
0000
1030
0010
0100
0001
,  // measure 34
0200
0000
0000
0000
0001
0000
0000
0000
0301
0000
1000
0100
0010
0000
0001
0000
,  // measure 35
1000
0001
1000
0001
1000
0001
1000
0001
1000
0000
0000
0000
1001
0000
0000
0000
,  // measure 36
2000
0000
0010
0000
0000
0010
0000
0000
3020
0000
0000
0100
0000
0000
0100
0000
,  // measure 37
0230
0000
0001
0000
0000
0001
0000
0000
0302
0000
0000
0010
0000
0000
0013
0000
,  // measure 38
0200
0000
1000
0000
0000
1000
0000
0000
2300
0000
0000
0001
0000
0000
0001
0000
,  // measure 39
3002
0000
0100
0000
0000
0100
0000
0000
0203
0000
0000
0010
0000
0000
0310
0000
,  // measure 40
2000
0000
0100
0000
0000
0100
0000
0000
3200
0000
0000
0001
0000
0000
0001
0000
,  // measure 41
0302
0000
0100
0000
0000
0100
0000
0000
0203
0000
0000
0010
0000
0000
0310
0000
,  // measure 42
0002
0000
0100
0000
0000
0100
0000
0000
0203
0000
0000
1000
0000
0000
1000
0000
,  // measure 43
2300
0000
0100
0000
0000
0100
0000
0000
3200
0000
0000
0001
0000
0000
0301
0000
,  // measure 44
1000
0000
0100
0000
1000
0000
0010
0000
1000
0100
1000
0000
0100
0000
0010
0000
,  // measure 45
0001
0100
0010
0100
0001
1000
0100
0010
,  // measure 46
0001
0000
0100
0000
0001
0000
0010
0000
0001
0100
0001
0000
0100
0000
0010
0000
,  // measure 47
1000
0100
0010
0100
1000
0001
0100
0010
,  // measure 48
1000
0000
0010
0000
0001
0000
0010
0000
1000
0010
1000
0000
0010
0000
0100
0000
,  // measure 49
0001
1000
0100
0001
1000
0010
0001
1000
,  // measure 50
0001
0000
0100
0000
1000
0000
0100
0000
0001
0100
0001
0000
0100
0000
0010
0000
,  // measure 51
2000
0000
0000
0000
,  // measure 52
3000
1010
0000
1010
0000
0011
0000
0011
,  // measure 53
0000
1100
0000
1100
1000
0001
0010
0000
,  // measure 54
0001
0000
0100
0000
0010
0000
0100
0000
0001
0100
0010
0000
1000
0000
0001
0000
,  // measure 55
1000
0100
0010
0100
1000
0100
0010
0001
,  // measure 56
1000
0000
0010
0000
0100
0000
0010
0000
1000
0010
0100
0000
0001
0000
1000
0000
,  // measure 57
0001
0010
0100
0010
0001
0010
0100
1000
,  // measure 58
0001
0000
0100
0000
0010
0000
1000
0000
0100
0010
0001
0000
0010
0000
0001
0000
,  // measure 59
0200
0000
0000
0310
,  // measure 60
1000
0000
0010
0000
0001
0000
0010
0000
0100
0001
0010
0000
0001
0000
0100
0000
,  // measure 61
1000
0100
0001
0100
0010
1000
0100
1000
,  // measure 62
0001
0000
0010
0000
1000
0000
0010
0000
0100
1000
0010
0000
1000
0000
0100
0000
,  // measure 63
0001
0100
1000
0100
0010
0001
1000
0001
,  // measure 64
0100
0000
0010
0000
0100
0000
0001
0000
1000
0100
0010
0000
0001
0000
1000
0000
,  // measure 65
0010
0100
0010
1000
0100
0010
0001
1000
,  // measure 66
0100
0000
0010
0000
0100
0000
1000
0000
0001
0100
0010
0000
1000
0000
0001
0000
,  // measure 67
0020
0000
0000
0030
,  // measure 68
0001
0010
0M10
1000
0001
0100
0010
2000
,  // measure 69
0000
0010
0010
0010
3010
0000
1001
0000
,  // measure 70
0001
0100
1000
0100
0010
1000
0100
2000
,  // measure 71
0000
3001
1000
0001
0010
1000
0010
0001
,  // measure 72
1000
0010
0M10
0001
1000
0100
0010
0002
,  // measure 73
0000
0010
0010
0010
0013
0001
0100
0010
,  // measure 74
2000
0000
3001
0010
0000
0001
0100
0001
,  // measure 75
1000
0100
0010
0002
0000
0000
0003
0000
,  // measure 76
1000
0010
1000
0001
1000
0100
1000
0001
,  // measure 77
1000
0010
0100
0001
1000
0100
0010
0001
,  // measure 78
0100
0001
1000
0001
0010
0001
1000
0001
,  // measure 79
0100
1000
0001
0010
1000
0001
0010
0100
,  // measure 80
1000
0000
0001
0000
1000
0000
0010
0000
1000
0000
0001
0000
1000
0000
0100
0010
,  // measure 81
0001
1000
0001
0100
0001
1000
0001
0010
,  // measure 82
0100
0000
1100
1100
0000
0001
0100
0010
,  // measure 83
0000
1000
0001
1000
0200
0000
0310
0000
,  // measure 84
1001
0000
0000
0000
;

//---------------dance-single - ----------------
#NOTES:
     dance-single:
     :
     Medium:
     13:
     0.468014,0.633912,0.106540,0.221958,0.071027,369.000000,357.000000,12.000000,25.000000,2.000000,0.000000,0.468014,0.633912,0.106540,0.221958,0.071027,369.000000,357.000000,12.000000,25.000000,2.000000,0.000000:
0000
0000
0000
0000
,
0000
0000
0000
0000
,
0000
0000
0000
0000
,
0000
0000
0000
0000
,
1010
2020
0000
0000
,
3030
0000
0000
0000
,
0101
1001
0000
0000
,
1100
1001
0000
0000
,
0001
0010
0001
0010
0001
1000
0001
1000
,
0001
0100
0001
0100
0001
1000
0001
1000
,
0002
0003
2000
3000
,
0020
0000
0130
0110
,
0001
0100
0001
0010
,
0001
0000
1000
0000
0100
0010
0001
0000
,
1000
0100
1000
0010
,
1000
0000
0001
0000
0100
0010
1000
0000
,
0001
0010
1000
0010
,
0001
0000
1000
0000
0100
0010
0100
0000
,
1000
0010
0001
0010
,
0200
0000
0310
0110
,
0001
0000
0010
0000
0M10
0000
1000
0001
,
0100
0000
0001
0010
0100
1000
0001
0000
,
1000
0000
0010
0000
0M10
0000
0001
1000
,
0100
0000
1000
0010
0100
0001
1000
0000
,
0001
0010
0001
0010
0001
0010
0001
1000
,
0010
1000
0010
1000
0010
1000
0010
1000
,
0200
0000
0000
0000
,
0320
0000
0031
0011
,
2000
0000
3020
0000
,
0230
0000
0302
0000
,
2003
0000
3200
0000
,
0320
0000
0032
0000
,
1003
0000
0010
0000
1000
0000
0010
0100
,
0001
0000
0010
0000
0001
0010
0100
1000
,
0001
0000
0100
0000
0001
0000
0100
0010
,
2000
0000
3001
1001
,
0000
0000
1000
0000
0000
0010
0000
0000
1000
0000
0000
0010
0000
0000
1000
0000
,
0000
0000
0001
0000
0000
0100
0000
0000
0001
0000
0000
0100
0000
0000
0001
0000
,
0000
0000
1000
0000
0000
0100
0000
0000
0010
0000
0000
0100
0000
0000
1000
0000
,
0000
0000
0001
0000
0000
0010
0000
0000
0100
0000
0000
0010
0000
0000
0001
0000
,
0000
0000
1000
0000
0000
0010
0000
0000
0001
0000
0000
0010
0000
0000
1000
0000
,
0000
0000
0001
0000
0000
0100
0000
0000
1000
0000
0000
0100
0000
0000
0001
0000
,
0000
0000
1000
0000
0000
0100
0000
0000
0010
0000
0000
0001
0000
0000
1000
0000
,
0000
0000
0001
0000
0000
0100
0000
0000
0010
0000
0000
1000
0000
0000
0001
0000
,
0010
0001
0100
0001
,
0010
0001
1000
1000
,
0010
1000
0100
1000
,
0010
1000
0001
0001
,
0100
1000
0100
0001
,
0100
0010
1000
1000
,
0100
0001
0100
1000
,
0200
0000
0000
0300
,
0000
0010
0000
0010
0000
0001
0000
0001
,
0000
1000
0000
1000
0000
0000
1001
0000
,
0001
0000
0001
0000
1000
0010
0100
0001
,
1000
0100
0001
0100
,
1000
0000
1000
0000
0001
0010
0100
1000
,
0001
0100
1000
0100
,
0001
0000
0001
0000
1000
0100
0010
0001
,
0020
0000
0000
0030
,
0001
0000
0001
0000
1000
0100
0010
0100
,
1000
0001
0010
0001
,
1000
0000
1000
0000
0001
0100
0010
0100
,
0001
1000
0010
1000
,
0001
0000
0001
0000
1000
0100
0001
0100
,
1000
0100
0010
0001
,
1000
0000
1000
0000
0001
0100
1000
0100
,
0020
0000
0000
0030
,
1000
0100
1000
0100
0010
0001
0010
0001
,
0000
1000
0010
0100
0001
0000
0000
0000
,
0001
0010
0001
0010
0100
1000
0100
1000
,
0000
0001
0100
0010
1000
0000
1000
0000
,
0001
0010
0100
0010
0001
0010
0100
1000
,
0000
0010
0100
0010
1000
0010
0100
0001
,
1000
0000
0001
0001
0000
0100
0010
1000
,
0001
0010
0100
1000
0000
0000
0000
0000
,
0002
0010
0010
0013
,
0001
0100
0001
0010
,
0200
1000
1000
1300
,
1000
0010
1000
0100
,
2000
0000
0010
0000
3010
0000
0100
0001
,
0020
0000
0001
0000
0031
0000
1000
0100
,
0010
0000
0001
0001
0000
1000
0001
1000
,
0000
0010
0100
0010
0200
0000
0300
0000
,
1001
0000
0000
0000
;

//---------------dance-single - ----------------
#NOTES:
     dance-single:
     :
     Easy:
     8:
     0.351328,0.522045,0.071027,0.079905,0.000000,277.000000,269.000000,8.000000,9.000000,0.000000,0.000000,0.351328,0.522045,0.071027,0.079905,0.000000,277.000000,269.000000,8.000000,9.000000,0.000000,0.000000:
0000
0000
0000
0000
,
0000
0000
0000
0000
,
0000
0000
0000
0000
,
0000
0000
0000
0000
,
0020
0000
0000
0000
,
0030
0000
0000
0000
,
1010
1001
0000
0000
,
0011
1001
0000
0000
,
1000
1000
0001
0001
,
1000
1000
0010
0010
,
1000
0100
1000
0000
0001
0100
0001
0000
,
0100
0010
0100
0010
0200
0000
0300
0000
,
0001
0001
1000
1000
,
0001
0010
0100
1000
,
0010
0010
0100
0100
,
0010
0000
1000
0000
0001
0001
0001
0000
,
1000
1000
0001
0001
,
1000
0010
0100
0001
,
0010
0010
0100
0100
,
2000
0000
0000
3000
,
0001
0100
1000
0100
,
0001
0000
0100
0000
0010
0100
0010
0000
,
1000
0100
0001
0100
,
1000
0000
0100
0000
0010
0100
0010
0000
,
0001
0001
0001
0001
,
1000
1000
1000
1000
,
0020
0000
0000
0000
,
0230
0000
0000
0300
,
1001
0000
1000
0000
,
0100
0000
1000
0000
,
0001
0000
0010
0000
,
0001
0000
0100
0000
,
0010
0000
0010
0000
0010
0000
0010
1000
,
0100
0000
0100
0000
1000
0100
0010
0001
,
1000
0000
1000
0000
1000
0000
1000
0001
,
0020
0000
0030
0000
,
0001
0000
0010
0000
,
0001
0000
0100
0000
,
0001
0000
0010
0000
,
0100
0000
1000
0000
,
1000
0000
0010
0000
,
1000
0000
0100
0000
,
1000
0000
0010
0000
,
0100
0000
0001
0000
,
1000
0100
1000
0010
,
1000
0100
0010
0010
,
0001
0100
0001
0010
,
0001
0100
0010
0010
,
1000
0100
0001
0100
,
1000
0100
0010
0010
,
0001
0100
1000
0100
,
0002
0000
0000
0003
,
0000
0001
0000
0000
0000
1000
0000
0000
,
0000
0001
0000
0000
0000
0000
0110
0000
,
1000
0100
0010
0001
,
0100
0010
0100
0100
,
0001
0100
0010
1000
,
0100
0010
0100
0100
,
1000
0001
1000
0010
,
0200
0000
0000
0300
,
0001
0010
1000
0010
,
0001
0010
0100
0100
,
1000
0010
0001
0010
,
1000
0010
0100
0100
,
0001
0010
0001
0100
,
0001
0010
0100
0100
,
1000
0010
1000
0100
,
0020
0000
0000
0030
,
0001
0100
0010
1000
,
0000
0001
0001
0000
,
1000
0100
0010
0001
,
0000
1000
0010
1000
,
0001
0010
0100
1000
,
0000
0001
0100
0001
,
0010
0000
0100
0000
,
1000
0001
1001
0000
,
1000
1000
1000
1000
,
0001
0001
0001
0001
,
0100
0001
0010
0001
,
1000
0100
1000
0010
,
1000
0000
0001
0000
1000
0000
0100
0010
,
0001
0000
1000
0000
0001
0100
0010
1000
,
0010
0000
1000
1000
0000
0001
0001
0001
,
0000
1000
0100
0010
0001
0000
0000
0000
,
1001
0000
0000
0000
;
