#TITLE:Vigilante;
#SUBTITLE:;
#ARTIST:AX10MA.DECADE (rareguy & Mr. Weq);
#TITLETRANSLIT:;
#SUBTITLETRANSLIT:;
#ARTISTTRANSLIT:;
#GENRE:WORLD MUSIC;
#CREDIT:MUINELIM;
#BANNER:Vigilante.png;
#BACKGROUND:Vigilante-bg.png;
#LYRICSPATH:;
#CDTITLE:;
#MUSIC:Vigilante.ogg;
#OFFSET:-0.000000;
#SAMPLESTART:31.952000;
#SAMPLELENGTH:14.646667;
#SELECTABLE:YES;
#DISPLAYBPM:180.000000;
#BPMS:0.000000=90.000000
,16.000000=180.000000
,176.000000=90.000000
,232.000000=180.000000
,296.000000=90.000000
;
#STOPS:
;
#BGCHANGES:;
#KEYSOUNDS:;
#ATTACKS:;

//---------------dance-single - ----------------
#NOTES:
     dance-single:
     :
     Easy:
     10:
     0.362220,0.462945,0.159899,0.380712,0.003807,333.000000,312.000000,21.000000,50.000000,0.000000,0.000000,0.362220,0.462945,0.159899,0.380712,0.003807,333.000000,312.000000,21.000000,50.000000,0.000000,0.000000:
0000
0000
0000
0000
,
0000
0000
0000
0000
,
2000
3000
0020
0030
,
0200
0300
0002
0003
,
1000
0100
1000
0000
,
0010
1000
0010
0000
,
0100
0001
0100
0000
,
0001
0010
0001
0000
,
1000
0001
1000
0000
,
0010
0100
0010
0000
,
1000
0100
1000
0000
,
0001
0010
0001
0000
,
0100
0010
0100
0010
,
1000
0001
0100
0110
,
0010
0100
0010
0100
,
0001
1000
0010
0110
,
0100
0001
0010
0001
,
1000
0100
1000
0010
,
0100
0001
0100
0000
0010
1000
0010
0000
,
0220
0000
0000
0330
,
2000
3001
0010
0100
,
0010
0001
0010
0200
,
0320
0130
1000
0100
,
0010
0100
2000
3002
,
0203
0310
1000
0010
,
0100
0010
1000
0200
,
0320
0031
0100
0010
,
2000
3000
1010
0101
,
0002
1003
0010
0100
,
0010
1000
0010
0200
,
0320
0130
0001
0100
,
0010
0100
0002
2003
,
3200
0310
0001
0010
,
0100
0010
0001
0200
,
0320
1030
0100
0010
,
0001
0010
0011
1100
,
1000
1000
1000
1000
,
0010
0010
0010
0010
,
0100
0100
0100
0100
,
0001
0001
0001
0001
,
0010
0001
0010
0000
0001
0100
0001
0000
,
1000
0010
1000
0000
0200
0000
0300
0000
,
0100
0010
0001
0000
1000
0100
0010
0000
,
0220
0000
0330
1001
,
0002
0000
0003
0000
0100
0010
0100
0000
,
0020
0000
0030
0000
1000
0100
1000
0000
,
0200
0000
0300
0000
0010
0001
0010
0000
,
0002
0000
0003
0000
1000
0010
1000
0010
,
0100
0000
0101
0000
0001
0010
0100
0000
,
1000
0000
1100
0000
0100
0010
0001
0000
,
0100
0000
0110
0000
0010
1000
0100
0000
,
1000
0000
1001
0000
0001
0100
0010
1000
,
0002
0000
0103
0000
0100
0100
0110
0000
,
0010
1000
0100
0000
0010
0001
0100
0000
,
0020
0000
1030
0000
1000
1000
1100
0000
,
0100
0010
0001
0000
1000
0100
0010
0000
,
0001
0100
0010
1000
0010
0100
0001
0000
,
1000
0100
0010
0001
2002
0000
3003
0000
,
0200
0000
0310
0000
0010
0100
0000
0100
,
0010
0200
0000
0000
0302
0000
2003
0000
,
3020
0000
0030
0000
0100
0010
0100
0000
,
0001
1000
0010
0000
1000
0001
1000
0001
,
2000
3100
0010
0001
,
0100
1000
0100
0002
,
0013
0100
1000
0001
,
0100
0000
0000
0010
0000
0000
0100
0000
0100
0000
0000
0000
0010
0000
1000
0000
,
0002
0103
0010
1000
,
0100
0001
0100
2000
,
3020
0130
0001
1000
,
0010
0100
0101
1010
,
0020
0130
0001
0010
,
1000
0010
0001
0200
,
0310
1000
0100
0000
0010
0001
0100
0000
,
0110
0000
1001
0000
1000
0010
0100
0001
,
2000
3100
0200
0301
,
0002
0000
0013
0000
0020
0000
1030
0001
,
1001
0000
0000
0000
;

//---------------dance-single - ----------------
#NOTES:
     dance-single:
     :
     Medium:
     14:
     0.631981,0.896957,0.296955,0.350255,0.262691,581.000000,542.000000,39.000000,46.000000,0.000000,0.000000,0.631981,0.896957,0.296955,0.350255,0.262691,581.000000,542.000000,39.000000,46.000000,0.000000,0.000000:
0000
0000
0000
0000
,
0000
0000
0000
0000
,
2001
0001
0001
3001
,
0210
0010
0010
0310
,
1001
1000
0001
0100
,
0010
0000
1000
0000
0001
0100
0010
0100
,
0001
0001
1000
0010
,
0100
0000
0001
0000
1000
0010
0100
0010
,
1000
1000
0100
0010
,
0001
0000
0100
0000
0010
1000
0100
1000
,
0001
0001
0010
0100
,
1000
0000
0010
0000
0100
0001
0010
0001
,
1000
0000
0000
0000
0010
0000
0110
0000
0000
0000
0000
0000
0100
0010
0000
0000
,
0200
0000
0000
0000
0301
0000
0001
0000
0000
1000
0000
0000
0010
0100
0000
0000
,
0020
0000
0000
0000
1030
0000
1000
0000
0000
0000
0000
0001
1000
0000
0010
0000
,
1010
0000
1000
0200
0000
0310
0011
0000
,
0001
0100
0001
0000
0010
0001
0010
0000
,
0100
1000
0100
0000
1000
0010
1000
0000
,
0001
0100
0010
1000
0010
0100
0001
0010
,
0200
0000
0000
0000
1300
0000
0010
0000
0100
0000
0000
0001
0100
0000
0000
0000
,
0110
0000
0010
0010
1000
0100
0010
0010
,
0001
0100
0010
0010
1000
0100
0020
0000
,
0130
0010
0100
0100
1000
0010
0100
0100
,
0001
0010
0100
0100
1100
0000
0011
0000
,
0010
0100
1000
1000
0010
0100
1000
1000
,
0100
0010
1000
1000
0010
0100
0002
0000
,
0103
0010
0001
0001
0010
0100
0001
0001
,
0100
0000
0000
0010
0000
0000
1000
0000
0002
0000
0013
0000
0200
0000
1300
0000
,
1000
0010
0001
0001
0010
1000
0100
0100
,
1000
0010
0001
0001
0010
1000
0002
0000
,
0013
0100
0010
0010
0001
0100
1000
1000
,
0100
0001
0010
0010
0011
0000
1100
0000
,
1000
0010
0001
0001
1000
0100
0001
0001
,
1000
0010
0001
0001
1000
0100
0020
0000
,
1030
0001
0100
0100
1000
0001
0010
0010
,
1000
0001
0100
0100
0020
1030
0002
0103
,
0100
0100
0001
0001
,
0010
0010
1000
1000
,
0001
0001
0100
0100
,
1000
1000
0010
0010
,
0100
0001
0010
0001
1000
0100
1000
0010
,
0100
0001
1000
0100
0020
0000
0000
0000
,
0031
0100
1000
0100
0001
0010
0100
1000
,
0020
0000
0000
0000
0130
0001
0100
0000
0010
0000
1000
0000
1001
0000
0000
0000
,
0110
0000
0010
1000
0000
0100
1000
0100
1000
0000
0100
0000
0010
0000
0011
0000
,
0001
0000
0100
0010
0000
1000
0010
1000
0010
0000
0100
0000
0001
0000
1001
0000
,
1000
0000
0001
0010
0000
0100
0010
0100
0010
0000
0100
0000
1000
0000
1010
0000
,
0010
0000
0100
0001
0000
0010
0001
0010
0001
0000
1000
0000
0010
0100
0010
0100
,
0001
1000
0100
0000
0100
0010
0001
0000
0100
0000
0010
0000
1000
0000
1100
0000
,
0100
0010
0001
0000
0001
1000
0010
0000
0100
0000
0001
0000
0010
0000
0011
0000
,
0001
1000
0010
0000
0010
0100
0001
0000
0010
0000
0100
0000
1000
0000
1010
0000
,
0010
0100
0001
0000
0001
1000
0100
0000
0010
0000
0001
0000
0100
0010
0100
0001
,
2000
0000
0000
0000
3002
0000
0000
0103
0100
0010
1000
0000
1100
0000
0000
0000
,
0011
0000
0100
0000
0110
0000
0000
1001
0000
0001
0100
1000
0100
0010
0100
0000
,
0002
0000
0000
0000
2003
0000
0000
3100
0100
0010
0001
0000
0101
0000
0000
0000
,
1010
0000
0100
0000
0110
0000
0000
1001
0000
0001
0010
1000
0010
0100
0010
0000
,
0011
0000
1100
0000
1001
0000
1000
0100
0010
0001
0100
0000
0110
0000
0010
0100
,
0001
1000
0100
0010
1000
0010
0001
0100
0010
0010
0010
0010
2000
0000
3002
0000
,
0203
0000
1000
0000
0310
0101
0000
0010
,
1010
0000
2000
0000
0000
0000
0000
0000
3002
0000
0000
0000
0013
0100
0010
0100
,
2000
0000
0000
0000
0000
0000
0000
0000
0000
0000
0000
0000
3001
0000
0100
0000
0001
0000
0010
0000
0000
0001
0000
0000
,
0101
0000
0100
0000
0020
0000
0000
0000
0001
0000
0000
0000
1030
0100
1000
0100
,
1000
0000
0000
0000
0001
0000
0000
0000
0200
0300
0000
0000
0200
0300
0000
0000
1000
0000
0000
0000
0001
0000
0000
0000
0200
0300
0000
0000
0200
0300
0000
0000
,
1000
0000
0000
0000
0001
0000
0000
0000
0200
0300
0000
0000
0200
0300
0000
0000
1000
0000
0000
0000
0001
0000
0000
0000
0200
0000
0000
0000
0000
0000
0000
0000
,
0301
0000
0000
0000
1000
0000
0000
0000
0020
0030
0000
0000
0020
0030
0000
0000
0001
0000
0000
0000
1000
0000
0000
0000
0020
0030
0000
0000
0020
0030
0000
0000
,
0001
0000
0000
0101
0000
0000
1010
0000
1200
0000
0000
0000
0310
0001
0010
0000
,
0001
0100
0010
0100
0100
0100
1000
0100
,
0100
0100
0010
0100
0100
0100
0002
0000
,
0013
0100
1000
0010
0010
0010
0001
0010
,
0010
0010
1000
0001
0101
0000
1010
0000
,
0010
0100
0001
0001
0001
0001
0010
0010
,
0010
0010
0100
0100
0100
0100
2000
0000
,
3001
0001
0010
0010
1000
1000
0001
0001
,
0100
0000
0100
0000
1000
0000
1000
0000
0020
0030
0200
0300
0002
0003
2000
3000
,
0001
0100
0001
0000
0010
1000
0010
0000
1000
0100
1000
0000
0100
0001
0100
0000
,
0010
1000
0010
0000
0001
0010
0001
0000
0100
0001
0100
0000
1000
0100
1000
0020
,
0030
0000
0000
0000
;

//---------------dance-single - ----------------
#NOTES:
     dance-single:
     :
     Hard:
     17:
     0.888690,1.128429,0.586296,0.456854,0.845180,817.000000,740.000000,77.000000,60.000000,0.000000,0.000000,0.888690,1.128429,0.586296,0.456854,0.845180,817.000000,740.000000,77.000000,60.000000,0.000000,0.000000:
// measure 0
0000
0000
0000
0000
,  // measure 1
0000
0000
0000
0000
,  // measure 2
2010
3010
0102
0103
,  // measure 3
0021
0031
1200
1300
,  // measure 4
1000
0010
0100
0000
0010
1000
0100
0000
,  // measure 5
1000
0010
0100
0010
1000
0100
0010
0000
,  // measure 6
0001
0100
0010
0000
0100
0001
0010
0000
,  // measure 7
0001
0100
0010
0100
0001
0010
0100
0000
,  // measure 8
1000
0001
0010
0000
0001
1000
0100
0000
,  // measure 9
1000
0001
0010
0100
0010
0001
1000
0000
,  // measure 10
0001
1000
0010
0000
1000
0001
0100
0000
,  // measure 11
0001
1000
0010
0100
0010
1000
0001
0000
,  // measure 12
2001
0000
0000
0000
3010
0000
0210
0000
0000
0000
0000
0000
0301
0010
0000
0000
,  // measure 13
0012
0000
0000
0000
0103
0000
0120
0000
0000
1000
0000
0000
0130
0001
0100
0000
,  // measure 14
0120
0000
0000
0000
1030
0000
1002
0000
0000
0000
0000
0103
0010
1000
0010
0000
,  // measure 15
2010
0000
3100
0012
0000
0000
1003
0000
,  // measure 16
1000
1000
0010
0010
0100
0100
0001
0001
,  // measure 17
1000
1000
0100
0100
0010
0010
0001
0001
,  // measure 18
0100
0010
0100
0010
1000
0001
1000
0001
0010
0100
0010
0100
1000
0001
1000
0001
,  // measure 19
2000
0000
0000
0000
3010
0000
0110
0000
0102
0000
0003
1000
0020
0000
0030
0000
,  // measure 20
0110
0000
0100
0000
0001
0010
0001
0000
0100
0000
0100
0000
0010
1000
0010
0000
,  // measure 21
0100
0000
0100
0000
0001
0010
0001
0000
0100
0000
0010
0000
2010
0000
0000
0000
,  // measure 22
3100
0000
1000
0000
0100
1000
0100
0000
0010
0000
0010
0000
0001
0100
0001
0000
,  // measure 23
0010
0000
0010
0000
0100
1000
0100
0000
2000
0000
0010
0000
3002
0000
0100
0000
,  // measure 24
1003
0000
0001
0000
0100
0010
1000
0000
0010
0000
0010
0000
1000
0100
0010
0000
,  // measure 25
0100
0000
0100
0000
1000
0010
0100
0000
0001
0000
0010
0000
0012
0000
0000
0000
,  // measure 26
0103
0000
0001
0000
0010
0001
0100
0000
0010
0000
0010
0000
0100
0001
0010
0000
,  // measure 27
0100
0000
1000
0010
0000
0100
0001
0000
0020
0000
0001
0000
0230
0000
1000
0000
,  // measure 28
0310
0000
0100
0000
1000
0010
1000
0010
1000
0000
0010
0000
0100
0001
0100
0001
,  // measure 29
0100
0000
0010
0000
1000
0001
1000
0001
1000
0000
0010
0000
0210
0000
0000
0000
,  // measure 30
0301
0000
0100
0000
0010
1000
0010
1000
0010
0000
0100
0000
0001
0010
0001
0010
,  // measure 31
0001
0000
1000
0000
0100
0010
0100
0010
0200
0000
1000
0000
0320
0000
0001
0000
,  // measure 32
0130
0000
0010
0000
0001
0100
0001
0100
0010
0000
1000
0000
0001
0010
0001
0010
,  // measure 33
0100
0000
1000
0000
0010
0100
0010
0100
0001
0000
1000
0000
1002
0000
0000
0000
,  // measure 34
0103
0000
0001
0000
1000
0010
0100
0001
1000
0000
0001
0000
0010
0100
1000
0001
,  // measure 35
0100
0000
0010
0000
1000
0001
0010
0100
2000
0000
0010
0000
3002
0000
0103
0010
,  // measure 36
1000
0100
0010
0100
1000
0100
0010
0100
,  // measure 37
1000
0010
0001
0010
1000
0010
0001
0010
,  // measure 38
1000
0100
0001
0100
1000
0100
0001
0100
,  // measure 39
0010
0001
0010
0100
0010
0001
0010
0100
,  // measure 40
0010
0001
0010
0000
0001
0100
0001
0000
1000
0010
1000
0000
0100
1000
0100
0000
,  // measure 41
1000
0000
0000
0001
0000
0000
1000
0000
0000
0000
0000
0000
0100
0000
0000
0010
0000
0000
0100
0000
0000
0000
0000
0000
0010
0000
0000
0000
0001
0000
0000
0000
0010
0000
0000
0000
0100
0000
0000
0000
1000
0000
0000
0000
0100
0000
0000
0000
,  // measure 42
0010
0001
0010
0001
0100
0001
0100
0001
1000
0010
1000
0010
1000
0100
1000
0100
,  // measure 43
2000
0000
0000
0000
0000
0000
3002
0000
0000
0000
0000
0000
0103
0000
0010
0000
0100
0000
0010
0000
0000
0000
0000
0000
1000
0000
0000
0001
0000
0000
0010
0000
0000
0100
0000
0000
2000
0000
0000
0000
0000
0000
0000
0000
0000
0000
0000
0000
,  // measure 44
3010
0100
0010
0001
0000
0010
0100
0010
1000
0000
1100
0000
0011
0000
0110
0000
,  // measure 45
0010
0100
0010
1000
0000
0010
0100
0010
0001
0000
0101
0000
1010
0000
1001
0000
,  // measure 46
0001
0010
0100
0010
0000
1000
0010
0001
0010
0000
0011
0000
1100
0000
1001
0000
,  // measure 47
1000
0010
0100
0010
0000
0001
0010
1000
0010
0000
0110
0000
0100
0001
0010
0100
,  // measure 48
1000
0010
0001
0010
1000
0100
0001
0100
1100
0000
1010
0000
0011
0000
0101
0000
,  // measure 49
0001
0010
1000
0010
0001
0100
1000
0100
0101
0000
0011
0000
1010
0000
1100
0000
,  // measure 50
0100
0010
0001
0100
1000
0001
0010
1000
1100
0000
0101
0000
0011
0000
1010
0000
,  // measure 51
1000
0001
0100
1000
0001
0010
1000
0001
1001
0000
0110
0000
0010
0100
0001
1000
,  // measure 52
0200
0000
0000
0000
0000
0000
0000
0000
0320
0000
0000
0000
0000
0000
0031
0100
0010
0000
0010
0000
1000
0000
0000
0000
1100
0000
0000
0000
0000
0000
0000
0000
,  // measure 53
0011
0000
0000
0000
1010
0000
0000
0000
1100
0000
0000
0000
0000
0000
0101
0000
0000
0000
0001
1000
0010
0000
0100
0000
0101
0000
0010
0000
1010
0000
0000
0000
,  // measure 54
2000
0000
0000
0000
0000
0000
0000
0000
3002
0000
0000
0000
0000
0000
0013
0100
1000
0000
1000
0000
0001
0000
0000
0000
0011
0000
0000
0000
0000
0000
0000
0000
,  // measure 55
1100
0000
0000
0000
1010
0000
0000
0000
0011
0000
0000
0000
0000
0000
0101
0000
0000
0000
0100
0010
1000
0000
0100
0000
1100
0000
0010
0000
0011
0000
0000
0000
,  // measure 56
0201
0000
0000
0000
0310
0000
0000
0000
1020
0000
0000
0000
0130
0000
0100
0001
0010
0000
0010
0000
0110
0000
0000
0000
2100
0000
0000
0000
3001
0000
0000
0000
,  // measure 57
0011
0000
0000
0000
0000
0000
0000
0000
0000
0000
0000
0000
0010
0000
0000
0000
0000
0000
0000
0000
0000
0000
0000
0000
0001
0000
0000
0000
0000
0000
0000
0000
0000
0000
0000
0000
0100
0000
0000
0000
0000
0000
0000
0000
0000
0000
0000
0000
0010
0000
0000
0000
0000
0000
0000
0000
0000
0000
0000
0000
1000
0000
0000
0000
0000
0000
0000
0000
0000
0000
0000
0000
0100
0000
0000
0000
0000
0000
0000
0000
0000
0000
0000
0000
0010
0000
0000
0000
0000
0000
0000
0000
0000
0000
0000
0000
0001
0000
0000
0000
0000
0000
0100
0000
0000
0000
0000
0000
0010
0000
0000
0000
0000
0000
0100
0000
0000
0000
0000
0000
0001
0000
0000
0000
0000
0000
0100
0000
0000
0000
0000
0000
0010
0000
0000
0000
0000
0000
0100
0000
0000
0000
0000
0000
0001
0000
0000
0000
0000
0000
0000
0000
0010
0000
0000
0000
0000
0000
0000
0000
0100
0000
0000
0000
0000
0000
0000
0000
1000
0000
0000
0000
0000
0000
0000
0000
0010
0000
0000
0000
0000
0000
0000
0000
0100
0000
0000
0000
0000
0000
0000
0000
,  // measure 58
0002
0000
0000
0000
0023
0000
0000
0000
0031
0100
2000
0000
3000
0000
0001
0010
,  // measure 59
1000
0000
1200
0000
0000
0000
0000
0000
0320
0000
0000
0000
0031
0100
1000
0100
,  // measure 60
0002
0000
0000
0000
0000
0000
0000
0000
0000
0000
0000
0000
0013
0000
0100
0000
1000
0000
0010
0000
0000
0210
0000
0000
,  // measure 61
0001
0000
0301
0000
0120
0000
0000
0000
2030
0000
3001
0000
1000
0010
0001
0010
,  // measure 62
2000
0000
3100
0000
0110
0000
0010
0001
0010
0001
0010
0001
0100
0000
0010
1000
,  // measure 63
0010
1000
0010
1000
0100
0000
0010
0001
0010
0001
0010
0001
2000
0000
0000
0000
,  // measure 64
3020
0000
0130
0000
0101
0000
0001
0010
0001
0010
0001
0010
0100
0000
1000
0100
,  // measure 65
0010
0000
0001
0010
0000
1000
0010
0000
0001
0100
0020
0000
1030
0100
0001
0100
,  // measure 66
2000
0000
3010
0000
0101
0000
0001
0010
0100
0010
0001
0010
0100
0000
1000
0010
,  // measure 67
0100
0010
1000
0010
0100
0000
0001
0010
0100
1000
0100
0010
0200
0000
0000
0000
,  // measure 68
0320
0000
0031
0000
1100
0000
1000
0010
0100
0010
0001
0010
0100
0000
0001
0100
,  // measure 69
0010
0100
1000
0100
0010
0000
0100
0000
0102
0000
0013
0000
2100
0000
3010
0000
,  // measure 70
0110
0000
1001
0000
0001
0100
0010
0100
0010
0100
0010
1000
0001
0010
0100
0010
,  // measure 71
0100
0010
0100
1000
0001
0100
0010
0100
0010
0100
0010
2000
0002
0000
3003
0000
,  // measure 72
1010
0000
0101
0000
0001
0010
0100
1000
0010
0100
0010
1000
0001
0100
0010
1000
,  // measure 73
0100
0010
0100
1000
0001
0100
0010
1000
0200
0000
0001
0000
0010
0000
1300
0000
,  // measure 74
1000
0100
0010
0100
1000
0010
0001
0010
1000
0100
0001
1000
0010
0001
0100
0110
,  // measure 75
0001
0100
0010
0100
0001
0010
1000
0010
0001
0100
1000
0001
0010
1000
0100
0220
,  // measure 76
0330
0000
0000
0000
;

//---------------dance-single - ----------------
#NOTES:
     dance-single:
     :
     Beginner:
     5:
     0.177303,0.202539,0.000000,0.060914,0.000000,163.000000,163.000000,0.000000,8.000000,0.000000,0.000000,0.177303,0.202539,0.000000,0.060914,0.000000,163.000000,163.000000,0.000000,8.000000,0.000000,0.000000:
0000
0000
0000
0000
,
0000
0000
0000
0000
,
1000
0000
1000
0000
,
0001
0000
0001
0000
,
1000
0000
0000
0000
,
0010
0000
0000
0000
,
0100
0000
0000
0000
,
0001
0000
0000
0000
,
1000
0000
0000
0000
,
0010
0000
0000
0000
,
0100
0000
0000
0000
,
0001
0000
0000
0000
,
1000
0000
1000
0000
,
0001
0000
0001
0000
,
1000
0000
1000
0000
,
0001
0000
0001
0000
,
1000
0000
0001
0000
,
1000
0000
0001
0000
,
0100
0100
0100
0100
,
0020
0000
0030
0000
,
1000
0000
1000
0000
,
1000
0000
1000
1000
,
0001
0000
0001
0000
,
0001
0000
0001
0001
,
0100
0000
0100
0000
,
0100
0000
0100
0100
,
0010
0000
0010
0000
,
0020
0000
0030
0000
,
0100
0000
0100
0000
,
0100
0000
0100
0100
,
0001
0000
0001
0000
,
0001
0000
0001
0001
,
1000
0000
1000
0000
,
1000
0000
1000
1000
,
0010
0000
0010
0000
,
0010
0000
0010
0010
,
0100
0000
0001
0000
,
0100
0000
0001
0000
,
1000
0000
0010
0000
,
1000
0000
0010
0000
,
0100
0000
0001
0000
,
1000
0000
0020
0030
,
0010
0010
0010
0010
,
0200
0000
0300
0000
,
0010
0000
1000
0000
,
0100
0000
0010
0000
,
0001
0000
0100
0000
,
0010
0000
1000
0000
,
0001
0001
0001
0000
,
1000
1000
1000
0000
,
0010
0010
0010
0000
,
0100
0100
0200
0300
,
0010
0100
0010
0000
,
1000
0000
0001
0000
,
0100
0010
0100
0000
,
0001
0000
1000
0000
,
0010
0100
0010
0000
,
1000
0001
2000
3000
,
0001
0000
0001
0000
,
0200
0000
0300
0000
,
1000
0000
1000
0000
,
0020
0000
0030
0000
,
0001
0000
0001
0000
,
0001
0000
0001
0100
,
0100
0000
0100
0000
,
0100
0000
0100
0010
,
0010
0000
0010
0000
,
0010
0000
0010
1000
,
1000
0000
1000
0000
,
1000
0000
1000
0001
,
0001
0000
0010
0000
,
0100
0000
1000
0010
,
1000
0000
0100
0000
,
0010
0000
0001
0100
,
0001
0000
1000
0000
,
0010
0000
0000
0000
0100
0000
0010
0010
,
0010
0000
0000
0000
;

//---------------dance-double - ----------------
#NOTES:
     dance-double:
     :
     Easy:
     10:
     0.340465,0.491879,0.144670,0.327412,0.003807,313.000000,294.000000,19.000000,43.000000,0.000000,0.000000,0.340465,0.491879,0.144670,0.327412,0.003807,313.000000,294.000000,19.000000,43.000000,0.000000,0.000000:
00000000
00000000
00000000
00000000
,
00000000
00000000
00000000
00000000
,
02000000
03000000
00002000
00003000
,
00020000
00030000
00000020
00000030
,
00001000
00000000
00001000
00000000
,
00000100
00000000
00000100
00000000
,
00000010
00000000
00000010
00000000
,
00001000
00000000
00001000
00000000
,
00010000
00000000
00010000
00000000
,
01000000
00000000
01000000
00000000
,
00100000
00000000
00100000
00000000
,
00010000
00000000
00010000
00000000
,
10000000
00100000
01000000
00100000
,
00010000
00000000
00000000
00001000
00000000
00000000
00000010
00000000
,
00000001
00000100
00000010
00000100
,
00001000
00000000
00000000
00010000
00000000
00000000
01000000
00000000
,
10000000
00100000
00010000
00001000
,
00000100
00000001
00000010
00001000
,
00010000
00001000
00010000
00000000
00001000
00010000
00001000
00000000
,
00022000
00000000
00000000
00033000
,
00200000
00310000
01000000
00100000
,
10000000
01000000
00100000
00020000
,
02030000
03001000
00010000
00000100
,
00001000
00000010
00000200
00000001
,
00000320
00001030
00000100
00000010
,
00000001
00000100
00000010
00020000
,
00032000
00103000
01000000
10000000
,
00200000
00300000
00010000
00011000
,
00000020
00001030
00000100
00000010
,
00000001
00000100
00000010
00002000
,
00003200
00010300
00001000
01000000
,
00010000
00100000
02000000
10000000
,
03200000
00310000
01000000
00100000
,
10000000
01000000
00100000
00002000
,
00023000
00030010
00000100
00000001
,
00000010
00001000
00020000
00032000
,
01003000
00010000
01000000
00010000
,
00100000
00001000
00100000
00001000
,
00010000
00000010
00010000
00000010
,
00001000
00000100
00001000
00000100
,
00000010
00000001
00000100
00001000
,
00010000
00100000
20000000
30000000
,
01000000
00100000
00010000
00000000
00100000
00001000
00010000
00000000
,
00022000
00000000
00033000
00011000
,
00000200
00000000
00000300
00000000
00001000
00000001
00001000
00000000
,
00000020
00000000
00000030
00000000
00010000
00001000
00010000
00000000
,
00200000
00000000
00300000
00000000
10000000
00010000
10000000
00000000
,
02000000
00000000
03000000
00000000
00010000
00001000
00010000
00001000
,
00100000
00000000
00110000
00000000
00010000
01000000
00001000
00000000
,
00010000
00000000
00011000
00000000
00001000
00010000
00000010
00000000
,
00001000
00000000
00001100
00000000
00000100
00000010
00000001
00000000
,
00000100
00000000
00000110
00000000
00000010
00010000
00001000
00100000
,
00020000
00000000
01030000
00000000
01000000
00100000
10000000
00000000
,
11000000
01000000
01010000
00010000
,
00002000
00000000
00003010
00000000
00000010
00000001
00000100
00000000
,
00000110
00000010
00010010
00010000
,
00001000
00100000
00001000
00010000
00000100
00010000
00001000
01000000
,
00001000
00010000
00000010
00010000
00022000
00000000
00033000
00000000
,
00011000
00000000
00001000
00000000
00100000
00010000
00000000
00010000
,
01000000
00002000
00000000
00000000
00013000
00000000
00020000
00000000
,
00030200
00000000
00000300
00000000
00000010
00000010
00000010
00000000
,
00000001
00000100
00001000
00000000
00010000
00100000
10000000
00000000
,
00020000
00130000
01000000
00010000
,
00001000
00000010
00000100
00002000
,
00003010
00000100
00000001
00001000
,
00000100
00000000
00000000
00000100
00000000
00000000
00000100
00000000
00000010
00000000
00000000
00000000
00000001
00000000
00000000
00000000
,
00002000
00003010
00000100
00001000
,
00010000
00100000
01000000
00020000
,
00130000
01000000
10000000
00100000
,
00010000
00001000
01001000
00010010
,
00020000
00031000
00000100
00000001
,
00000010
00001000
00010000
02000000
,
13000000
00100000
01000000
00000000
00100000
00010000
00001000
00000000
,
00101000
00000000
00010100
00000000
00000100
00000010
00000100
00000010
,
00000001
00000100
00000010
00001000
,
00010000
00000000
01000000
00000000
00100000
00000000
10000000
00010000
,
10010000
00000000
00000000
00000000
;

//---------------dance-double - ----------------
#NOTES:
     dance-double:
     :
     Hard:
     17:
     0.850619,1.099495,0.555839,0.571067,0.738581,782.000000,709.000000,73.000000,75.000000,0.000000,0.000000,0.850619,1.099495,0.555839,0.571067,0.738581,782.000000,709.000000,73.000000,75.000000,0.000000,0.000000:
00000000
00000000
00000000
00000000
,
00000000
00000000
00000000
00000000
,
01002000
01003000
00020100
00030100
,
00102000
00103000
00020010
00030010
,
00011000
00001000
00000100
00000001
,
00000010
00000100
00000010
00000001
00001000
00000100
00000010
00001000
,
00011000
00010000
00100000
10000000
,
01000000
00100000
01000000
10000000
00010000
00100000
01000000
00010000
,
00011000
00001000
00100000
01000000
,
00010000
00001000
00010000
00000100
00000010
00000001
00000100
00001000
,
00011000
00010000
00000100
00000010
,
00001000
00010000
00001000
00100000
01000000
10000000
00100000
00010000
,
00012000
00000000
00000000
00000000
01003000
00000000
00021000
00000000
00000000
00000000
00000000
00000000
00030100
00001000
00000100
00000000
,
00000020
00000000
00000000
00000000
00000031
00000000
00000201
00000000
00000000
00001000
00000000
00000000
00000310
00010000
00000010
00000000
,
00020000
00000000
00000000
00000000
00031000
00000000
00201000
00000000
00000000
00000000
00000000
01300000
10000000
01000000
00100000
00000000
,
00020000
00000000
01030000
01002000
00000000
00000000
00013000
00000000
,
00010000
00001000
00000100
00001000
00010000
00001000
00000100
00001000
,
00010000
01000000
00010000
00001000
00010000
01000000
00010000
00001000
,
00000010
00000001
00000010
00000001
00000100
00000010
00000100
00000010
00001000
00000100
00001000
00000100
00010000
00001000
00010000
00001000
,
00020000
00000000
00000000
00000000
00130000
00000000
20000000
00000000
32000000
00000000
00000000
03010000
00002000
00000000
00003000
00000000
,
00011000
00000000
00010000
00000000
00000100
00001000
00000100
00000000
00010000
00000000
00001000
00000000
01000000
00010000
01000000
00000000
,
00001000
00000000
00010000
00000000
00000100
00001000
00000100
00000000
00010000
00000000
00001000
00000000
00012000
00000000
00000000
00000000
,
01003000
00000000
00001000
00000000
00100000
00010000
00100000
00000000
00001000
00000000
00010000
00000000
00000010
00001000
00000010
00000000
,
00010000
00000000
00001000
00000000
00100000
00010000
00100000
00000000
00002000
00000000
01000000
00000000
00023000
00000000
00000100
00000000
,
00031000
00000000
00010000
00000000
00000100
00000010
00000100
00000000
00010000
00000000
00001000
00000000
00100000
01000000
00100000
00000000
,
00001000
00000000
00010000
00000000
00000100
00000010
00000100
00000000
00010000
00000000
00001000
00000000
00021000
00000000
00000000
00000000
,
00030100
00000000
00010000
00000000
00000010
00000100
00000010
00000000
00010000
00000000
00001000
00000000
01000000
00100000
01000000
00000000
,
00001000
00000000
00010000
00001000
00000000
00001000
00010000
00000000
00002000
00000000
00100000
00000000
00023000
00000000
00000100
00000000
,
00031000
00000000
00010000
00000000
01000000
10000000
00100000
00000000
00010000
00000000
00001000
00000000
00100000
01000000
10000000
00000000
,
00100000
00000000
00010000
00000000
00001000
00100000
00010000
00000000
01000000
00000000
00001000
00000000
00021000
00000000
00000000
00000000
,
00030100
00000000
00010000
00000000
00001000
00000100
00000010
00000000
00001000
00000000
00000001
00000000
00000100
00001000
00010000
00000000
,
00100000
00000000
10000000
00000000
01000000
00100000
00010000
00000000
02000000
00000000
00010000
00000000
03200000
00000000
10000000
00000000
,
01300000
00000000
00100000
00000000
10000000
01000000
00100000
00000000
00001000
00000000
00010000
00000000
00000100
00000010
00000001
00000000
,
00000100
00000000
00001000
00000000
00010000
00100000
10000000
00000000
01000000
00000000
00100000
00000000
00102000
00000000
00000000
00000000
,
00013000
00000000
00000100
00000000
00000010
00000001
00001000
00000000
00000100
00000000
00010000
00000000
00001000
00100000
01000000
00000000
,
10000000
00000000
00100000
00000000
00010000
00001000
00010000
00001000
00000200
00000000
00000001
00000000
00000320
00000000
00001030
00000100
,
00001000
00000010
00000001
00000010
00001000
00000010
00000001
00000010
,
00000100
00001000
00010000
00001000
00000100
00001000
00010000
01000000
,
00010000
00001000
00010000
01000000
00010000
00001000
00010000
01000000
,
00100000
00010000
00100000
10000000
00100000
00010000
00100000
01000000
,
20000000
30100000
00200000
01300000
02000000
03010000
00020000
00031000
,
00002000
00000000
00000000
00003100
00000000
00000000
00000200
00000000
00000000
00000310
00000000
00000000
00000010
00000000
00000001
00000000
00000100
00000000
00000010
00000000
00001000
00000000
00000100
00000000
,
00010000
00001000
00010000
00001000
00100000
00010000
00100000
00010000
10000000
00100000
10000000
00100000
01000000
00010000
01000000
00010000
,
00200000
00000000
00000000
00000000
00000000
00000000
02300000
00000000
00000000
00000000
00000000
00000000
03010000
00000000
00001000
00000000
00010000
00000000
00001000
00000000
00000000
00000000
00000000
00000000
00010000
00000000
00000000
00000100
00000000
00000000
00001000
00000000
00000000
00000001
00000000
00000000
00000200
00000000
00000000
00000000
00000000
00000000
00000000
00000000
00000000
00000000
00000000
00000000
,
00000310
00001000
00000100
00000010
00000000
00000010
00000001
00000100
00001000
00000000
00011000
00000000
00010100
00000000
00101000
00000000
,
00100000
00010000
01000000
00100000
00000000
00100000
10000000
01000000
00010000
00000000
00011000
00000000
01001000
00000000
00010010
00000000
,
00010000
00001000
00000100
00000001
00000000
00000001
00000010
00000100
00001000
00000000
00001010
00000000
00010010
00000000
00101000
00000000
,
00001000
00010000
01000000
10000000
00000000
10000000
00100000
01000000
00010000
00000000
00110000
00000000
00100000
01000000
00010000
00001000
,
00000010
00000001
00000100
00001000
00010000
00001000
00000100
00000010
00010000
00000000
00010100
00000000
01001000
00000000
01100000
00000000
,
00100000
10000000
01000000
00010000
00001000
00010000
01000000
00100000
00001000
00000000
01001000
00000000
00010100
00000000
00000110
00000000
,
00000001
00000100
00001000
01000000
00010000
00100000
01000000
10000000
00010000
00000000
00110000
00000000
11000000
00000000
10100000
00000000
,
10000000
01000000
00010000
00000100
00001000
00000010
00000100
00000001
00001000
00000000
00001010
00000000
00000001
00000100
00001000
00010000
,
00200000
00000000
00000000
00000000
00000000
00000000
00000000
00000000
20300000
00000000
00000000
00000000
00000000
00000000
31000000
00100000
00010000
00000000
00010000
00000000
01000000
00000000
00000000
00000000
01001000
00000000
00000000
00000000
00000000
00000000
00000000
00000000
,
00010010
00000000
00000000
00000000
00001000
00000000
00000000
00000000
00001200
00000000
00000000
00000000
00000000
00000000
00000310
00000000
00000000
00000000
00000010
00000001
00000100
00000000
00000010
00000000
00001010
00000000
00010000
00000000
00010100
00000000
00000000
00000000
,
00000200
00000000
00000000
00000000
00000000
00000000
00000000
00000000
00000320
00000000
00000000
00000000
00000000
00000000
00000031
00000100
00001000
00000000
00010000
00000000
00010000
00000000
00000000
00000000
00010100
00000000
00000000
00000000
00000000
00000000
00000000
00000000
,
00101000
00000000
00000000
00000000
01000000
00000000
00000000
00000000
01020000
00000000
00000000
00000000
00000000
00000000
00130000
00000000
00000000
00000000
00100000
01000000
10000000
00000000
00010000
00000000
00110000
00000000
01000000
00000000
01001000
00000000
00000000
00000000
,
00021000
00000000
00000000
00000000
00030100
00000000
00000000
00000000
00012000
00000000
00000000
00000000
00103000
00000000
00100000
01000000
00010000
00000000
00001000
00000000
00010000
00000000
00000000
00000000
00012000
00000000
00000000
00000000
00003100
00000000
00000000
00000000
,
00000101
00000000
00000000
00000000
00000000
00000000
00000000
00000000
00000000
00000000
00000000
00000000
00000001
00000000
00000000
00000000
00000000
00000000
00000000
00000000
00000000
00000000
00000000
00000000
00000010
00000000
00000000
00000000
00000000
00000000
00000000
00000000
00000000
00000000
00000000
00000000
00000100
00000000
00000000
00000000
00000000
00000000
00000000
00000000
00000000
00000000
00000000
00000000
00001000
00000000
00000000
00000000
00000000
00000000
00000000
00000000
00000000
00000000
00000000
00000000
00010000
00000000
00000000
00000000
00000000
00000000
00000000
00000000
00000000
00000000
00000000
00000000
01000000
00000000
00000000
00000000
00000000
00000000
00000000
00000000
00000000
00000000
00000000
00000000
00100000
00000000
00000000
00000000
00000000
00000000
00000000
00000000
00000000
00000000
00000000
00000000
10000000
00000000
00000000
00000000
00000000
00000000
01000000
00000000
00000000
00000000
00000000
00000000
10000000
00000000
00000000
00000000
00000000
00000000
01000000
00000000
00000000
00000000
00000000
00000000
10000000
00000000
00000000
00000000
00000000
00000000
01000000
00000000
00000000
00000000
00000000
00000000
10000000
00000000
00000000
00000000
00000000
00000000
01000000
00000000
00000000
00000000
00000000
00000000
10000000
00000000
00000000
00000000
00000000
00000000
00000000
00000000
00100000
00000000
00000000
00000000
00000000
00000000
00000000
00000000
01000000
00000000
00000000
00000000
00000000
00000000
00000000
00000000
00010000
00000000
00000000
00000000
00000000
00000000
00000000
00000000
00100000
00000000
00000000
00000000
00000000
00000000
00000000
00000000
00001000
00000000
00000000
00000000
00000000
00000000
00000000
00000000
,
00020000
00000000
00000000
00000000
00030200
00000000
00000000
00000000
00001300
00000010
00000200
00000000
00000300
00000000
00000010
00001000
,
00000200
00000000
00000320
00000000
00000000
00000000
00000000
00000000
00000032
00000000
00000000
00000000
00000103
00001000
00010000
00100000
,
20000000
00000000
00000000
00000000
00000000
00000000
00000000
00000000
00000000
00000000
00000000
00000000
31000000
00000000
00100000
00000000
00010000
00000000
01000000
00000000
00000000
01002000
00000000
00000000
,
00010000
00000000
00013000
00000000
00010200
00000000
00000000
00000000
00000320
00000000
00000031
00000000
00000001
00000100
00001000
00010000
,
00200000
00000000
10300000
00000000
11000000
00000000
01000000
00100000
01000000
00100000
00010000
00000000
01010000
00000000
01000000
00001000
,
01000000
00001000
00010000
00000000
00011000
00000000
00001000
00010000
00001000
00010000
00000100
00000000
00000120
00000000
00000000
00000000
,
00000032
00000000
00001003
00000000
00001010
00000000
00000010
00010000
00000010
00010000
00001000
00000000
00101000
00000000
00100000
00010000
,
01000000
00000000
01000000
00100000
00000000
00100000
10000000
00000000
10000000
01000000
00200000
00000000
00310000
01000000
00001000
00010000
,
00000200
00000000
00000310
00000000
00000011
00000000
00000001
00000100
00000001
00000100
00000010
00000000
00010010
00000000
00010000
00001000
,
00010000
00001000
00100000
00000000
00110000
00000000
00010000
01000000
00100000
01000000
00100000
10000000
02000000
00000000
00000000
00000000
,
03200000
00000000
00310000
00000000
01010000
00000000
01000000
00001000
00010000
00000100
00001000
00000000
00001010
00000000
00000010
00010000
,
00001000
00100000
00010000
00000000
01010000
00000000
01000000
00000000
00200000
00000000
00310000
00000000
00002000
00000000
00003100
00000000
,
00000110
00000000
00001001
00000000
00000001
00000100
00000010
00000100
00000010
00001000
00000200
00000000
00010300
00001000
01000000
00010000
,
01000000
00010000
00200000
00000000
01300000
10000000
00100000
01000000
00100000
01000000
00001000
00000000
00022000
00000000
00033000
00000000
,
01001000
00000000
00010100
00000000
00000100
00001000
00000010
00001000
00000100
00001000
00000010
00010000
00001000
00010000
00000010
00010000
,
00001000
00100000
00001000
00010000
00001000
01000000
00010000
01000000
00200000
00000000
20300000
00000000
32000000
00000000
03020000
00000000
,
00031000
00100000
01000000
00010000
00001000
00000010
00000100
00001000
00000010
00000001
00001000
00000100
00000010
00010000
00001000
00011000
,
00010000
00001000
00000100
00000010
00000001
00000010
00000100
00001000
00010000
01000000
00100000
10000000
00100000
01000000
00010000
00022000
,
00033000
00000000
00000000
00000000
;

//---------------dance-double - ----------------
#NOTES:
     dance-double:
     :
     Medium:
     14:
     0.634157,0.868023,0.373097,0.335026,0.255077,583.000000,534.000000,49.000000,44.000000,0.000000,0.000000,0.634157,0.868023,0.373097,0.335026,0.255077,583.000000,534.000000,49.000000,44.000000,0.000000,0.000000:
00000000
00000000
00000000
00000000
,
00000000
00000000
00000000
00000000
,
00020010
00000010
00000100
00030100
,
00102000
00100000
01000000
01003000
,
00011000
00010000
00001000
00000100
,
00000001
00000000
00000010
00000000
00000100
00010000
00001000
00010000
,
00011000
00001000
00010000
00100000
,
10000000
00000000
01000000
00000000
00100000
00001000
00010000
00001000
,
00011000
00010000
00100000
00001000
,
00000010
00000000
00000100
00000000
00000001
00000010
00001000
00010000
,
00011000
00001000
00000100
00010000
,
01000000
00000000
00100000
00000000
10000000
01000000
00010000
00001000
,
00011000
00000000
00000000
00000000
00010000
00000000
00010010
00000000
00000000
00000000
00000000
00000000
00010000
00001000
00000000
00000000
,
02000000
00000000
00000000
00000000
03001000
00000000
00001000
00000000
00000000
00011000
00000000
00000000
00010000
00000100
00000000
00000000
,
00020000
00000000
00000000
00000000
00031000
00000000
00001000
00000000
00000000
00000000
00000000
00100000
00001000
00000000
00010000
00000000
,
00011000
00000000
00001000
00000200
00000000
00000301
00001001
00000000
,
00001000
00000100
00000010
00000000
00000010
00001000
00010000
00000000
,
00001000
00010000
01000000
00000000
01000000
00100000
00010000
00000000
,
10000000
00100000
01000000
00010000
00100000
01000000
10000000
00100000
,
00020000
00000000
00000000
00000000
00031000
00000000
00000100
00000000
00000001
00000000
00000000
00000010
00000001
00000000
00000000
00000000
,
00001001
00000000
00001000
00000010
00010000
00001000
01000000
00010000
,
00100000
00001000
00010000
00000100
00001000
00000010
00020000
00000000
,
00031000
00001000
00100000
00010000
01000000
00001000
00010000
00000100
,
00001000
00000010
00010000
00001000
01001000
00000000
00010010
00000000
,
00010000
00010000
00001000
00000100
00000010
00010000
00001000
01000000
,
00100000
00010000
00001000
00000100
00000010
00010000
00002000
00000000
,
00103000
01000000
00010000
00001000
00000010
00000100
00010000
00001000
,
00100000
00000000
00000000
00100000
00000000
00000000
00100000
00000000
02200000
03300000
00000000
00000000
20020000
00000000
30030000
00000000
,
10000000
10000000
00100000
00010000
00001000
00000100
00000001
00000010
,
00001000
00010000
01000000
10000000
00100000
00010000
00002000
00000000
,
00013000
00010000
00001000
00000010
00001000
00010000
00100000
00010000
,
00001000
00000100
00001000
00010000
00010100
00000000
00101000
00000000
,
00001000
00001000
00010000
01000000
00010000
00001000
00000100
00001000
,
00010000
00100000
00010000
00001000
00000010
00001000
00020000
00000000
,
00031000
00000010
00000001
00000100
00001000
00010000
00100000
10000000
,
01000000
00000000
00010000
00000000
00001000
00000000
00000010
00000000
00000220
00000330
00000000
00000000
00002002
00000000
00003003
00000000
,
00000001
00000010
00000100
00001000
,
00010000
00100000
01000000
10000000
,
10000000
00100000
01000000
00010000
,
00001000
00000010
00000100
00000001
,
00001000
00000100
00000010
00001000
00010000
01000000
00100000
00010000
,
01000000
00001000
00010000
00000010
00000200
00000000
00000000
00000000
,
00000301
00000010
00001000
00010000
01000000
10000000
00100000
00010000
,
00002000
00000000
00000000
00000000
00003010
00000001
00000010
00000000
00000100
00000000
00010000
00000000
00011000
00000000
00000000
00000000
,
00011000
00000000
00001000
00100000
00000000
00010000
00100000
00010000
00100000
00000000
01000000
00000000
10000000
00000000
10100000
00000000
,
00100000
00000000
01000000
00010000
00000000
00100000
00001000
00100000
00001000
00000000
00010000
00000000
00000100
00000000
00001100
00000000
,
00001000
00000000
00000001
00000100
00000000
00000010
00001000
00000010
00001000
00000000
00000100
00000000
00000010
00000000
00000011
00000000
,
00000001
00000000
00000100
00001000
00000000
00010000
01000000
00010000
01000000
00000000
10000000
00000000
00100000
01000000
00100000
01000000
,
00010000
00100000
01000000
00000000
10000000
00100000
01000000
00000000
00100000
00000000
00010000
00000000
00001000
00000000
00011000
00000000
,
00010000
00000100
00001000
00000000
00000100
00000010
00000001
00000000
00000100
00000000
00001000
00000000
00010000
00000000
00011000
00000000
,
00001000
01000000
00010000
00000000
00100000
01000000
10000000
00000000
00100000
00000000
00010000
00000000
00001000
00000000
00011000
00000000
,
00010000
00000010
00001000
00000000
00000010
00000100
00000001
00000000
00000010
00000000
00001000
00000000
00010000
00001000
00100000
00010000
,
20000000
00000000
00000000
00000000
30200000
00000000
00000000
01300000
01000000
00010000
00100000
00000000
01100000
00000000
00000000
00000000
,
10010000
00000000
00000000
00000000
01001000
00000000
00000000
00010100
00000000
00000100
00001000
00000100
00000010
00000001
00000100
00000000
,
00000002
00000000
00000000
00000000
00000023
00000000
00000000
00000130
00000100
00001000
00000010
00000000
00000110
00000000
00000000
00000000
,
00001001
00000000
00000000
00000000
00010100
00000000
00000000
01001000
00000000
01000000
00010000
01000000
00100000
10000000
01000000
00000000
,
01100000
00000000
00010000
00000000
10010000
00000000
10000000
00100000
00010000
00001000
00000100
00000000
00000101
00000000
00000001
00000010
,
00000100
00001000
00000010
00000100
00001000
00010000
00100000
10000000
01000000
00100000
00010000
01000000
00002000
00000000
00023000
00000000
,
00030200
00000000
00000010
00000000
00001300
00001010
00000000
00010000
,
00011000
00000000
00002000
00000000
00000000
00000000
00000000
00000000
00203000
00000000
00000000
00000000
00310000
01000000
00010000
01000000
,
00200000
00000000
00000000
00000000
00000000
00000000
00000000
00000000
00000000
00000000
00000000
00000000
10300000
00000000
01000000
00000000
10000000
00000000
00010000
00000000
00000000
00100000
00000000
00000000
,
00101000
00001000
00020000
00000000
01000000
00000000
00030100
00000010
,
00000001
00000100
00001000
00001000
00000001
00000010
00001000
00001000
,
00000001
00000100
00001000
00001000
00010000
00100000
20000000
00000000
,
31000000
00100000
00010000
00010000
10000000
01000000
00010000
00010000
,
00001000
00000000
00000000
01001000
00000000
00000000
00010100
00000000
00002100
00000000
00000000
00000000
00003001
00000100
00000001
00000000
,
00000010
00000100
00002000
00000010
00003010
00010000
00002000
00100000
,
00103000
01000000
20000000
00100000
30100000
00010000
00012000
00000000
,
00103000
01000000
20000000
00100000
30100000
00010000
00002000
00000100
,
00003100
00000001
00000020
00000130
00010100
00000000
00101000
00000000
,
00100000
01000000
10000000
10000000
00100000
00100000
00010000
00010000
,
00001000
00001000
00000100
00000100
00000001
00000001
00000020
00000000
,
00001030
00001000
00010000
00010000
00000100
00000100
00000010
00000010
,
00001000
00001000
00010000
00010000
02000000
10000000
10000000
13000000
,
10000000
00100000
10000000
00000000
00100000
00010000
00100000
00000000
00010000
00001000
00010000
00000000
00001000
00000010
00001000
00000000
,
00000010
00000001
00000010
00000000
00000001
00000100
00000001
00000000
00000100
00001000
00000100
00000000
00001000
00010000
00001000
00022000
,
00033000
00000000
00000000
00000000
;
