#TITLE:Versailles;
#SUBTITLE:;
#ARTIST:HyuN & MIIM;
#TITLETRANSLIT:;
#SUBTITLETRANSLIT:;
#ARTISTTRANSLIT:;
#GENRE:;
#CREDIT:;
#MUSIC:Versailles.ogg;
#BANNER:Versailles.png;
#BACKGROUND:Versailles-bg.png;
#CDTITLE:;
#SAMPLESTART:69.845;
#SAMPLELENGTH:12.000;
#SELECTABLE:YES;
#OFFSET:-1.541;
#BPMS:0.000=175.000
,96.000=160.000
,132.000=175.000
;
#STOPS:;
#BGCHANGES:;
#FGCHANGES:;

//--------------- dance-single - Maractus (DS) ----------------
#NOTES:
     dance-single:
     Maractus (DS):
     Medium:
     13:
     0.467407,0.593076,0.008588,0.858752,0.047231,381,380,1,100,0,0,0,0,0,0.467407,0.593076,0.008588,0.858752,0.047231,381,380,1,100,0,0,0,0,0:
0000
0000
0000
0000
,
0000
0000
0000
0000
,
0000
0000
0000
0000
,
0000
0000
0000
0000
,
0000
0000
0000
0000
,
0000
0000
0000
0000
,
0000
0000
0000
0000
,
2000
0000
3002
0000
0013
0100
2000
3000
,
0020
0030
2000
3000
0002
0003
2000
0100
,
0000
3001
0100
0001
0100
0010
1000
0010
,
0200
0300
0002
0003
2000
3000
0002
0100
,
0000
1003
0100
1000
0100
0010
0001
0010
,
0200
0300
2000
3000
0002
0003
2000
0010
,
0000
3001
0100
0001
0100
0010
1000
0010
,
0200
0300
0002
0003
2000
3000
0002
0010
,
0000
1003
0010
1000
0010
0100
0002
0000
,
2003
0000
3001
0000
1000
0100
1000
0100
,
0010
0100
0010
0100
0010
0001
0010
0001
,
2000
0000
3001
0000
1000
0010
1000
0010
,
0100
0010
0100
0010
0100
0001
0100
0001
,
2000
0000
3001
0000
1000
0100
1000
0100
,
0010
0100
0010
0100
0010
0001
0010
0001
,
0100
0010
0100
0010
2000
0000
0000
0000
,
3002
0000
2003
0000
3010
0100
0002
0003
,
1000
0001
0100
0001
1000
0100
0010
0001
,
2000
0100
3002
0100
1003
0000
0000
0000
,
0001
1000
0100
1000
0001
0100
0010
1000
,
0002
0100
2003
0100
3001
0000
1000
0000
,
0001
1000
0010
1000
0001
0010
0100
1000
,
0002
0010
2003
0010
3001
0000
0000
0000
,
1000
0001
0010
0001
1000
0010
0100
0001
,
2000
0010
3002
0010
2003
0000
3010
0000
,
2000
3001
2000
3100
,
0020
0000
0000
0000
,
0000
0000
0000
0000
,
0032
0000
0000
0000
,
0000
0000
0000
0000
,
2003
0000
0000
0000
,
0000
0000
0000
0000
,
3020
0000
0000
0000
,
0200
0000
0000
0000
0000
0000
0000
0000
0000
0000
0000
0000
0000
0000
0000
0330
,
0001
0100
0010
1000
,
0001
0000
0010
0000
0100
0000
1000
0001
,
1000
0100
0010
0001
,
1000
0000
0010
0000
0100
0000
0001
1000
,
0001
0000
0100
0010
1000
0000
0100
0010
,
0001
0000
0100
0010
1000
0000
0100
0010
,
0002
0000
0000
0000
,
2003
0000
3002
0000
0013
0100
2000
0000
,
3002
0010
0000
2003
0010
0000
3002
0000
,
2003
0010
0000
3002
0010
0000
2003
0000
,
3002
0000
1003
0200
0000
0310
0002
0000
,
1003
0000
0010
0000
0100
0000
0001
1000
,
0010
2000
0000
0000
0001
0000
3000
0000
1000
0000
0000
0001
0000
0000
0010
0000
,
0100
2000
0000
0000
0001
0000
3000
0000
1000
0000
0000
0010
0000
0000
0100
0000
,
0002
0000
0000
0000
2003
0000
0000
0000
3001
0000
0000
0010
0000
0000
0100
0000
,
2000
0000
3002
0000
0103
0010
2000
0000
,
3002
0100
0000
2003
0100
0000
3002
0000
,
2003
0100
0000
3002
0100
0000
2003
0000
,
3002
0000
1003
0020
0000
0130
0002
0000
,
1003
0000
0100
0000
0010
0000
0001
1000
,
0100
2000
0000
0000
0001
0000
3000
0000
1000
0000
0000
0001
0000
0000
0100
0000
,
0010
2000
0000
0000
0001
0000
3000
0000
1000
0000
0000
0100
0000
0000
0010
0000
,
0002
0000
0000
0000
2003
0000
0000
0000
3001
0000
0000
0100
0000
0000
0010
0000
,
2000
0000
3002
0000
0013
0100
2000
0000
,
3001
0100
0001
0010
0100
0200
0000
1300
,
0100
1000
0010
0100
0200
0000
0300
0001
,
1000
0100
1000
0010
0100
0200
0000
0301
,
0100
0001
0010
0100
0200
0000
2300
0000
,
3001
0010
0001
0100
0010
0020
0000
1030
,
0010
1000
0100
0010
0010
0020
0000
0031
,
1000
0100
1000
0010
0100
0200
0000
0301
,
2000
0000
3002
0000
0013
0100
2000
3000
,
0001
0001
0010
0010
0100
0000
2000
0100
,
0000
3002
0100
0000
1003
0000
0001
0000
,
1000
1000
0010
0010
0100
0000
0002
0100
,
0000
2003
0100
0000
3001
0000
1000
0000
,
0001
0001
0100
0100
0010
0000
2000
0010
,
0000
3002
0010
0000
1003
0000
0001
1000
,
0001
0100
0010
0100
0020
0000
0000
0000
,
2030
0000
0000
0000
0000
0000
0000
3000
,
2002
3003
0000
0000
;

//--------------- dance-single - Maractus (XO+ DS) ----------------
#NOTES:
     dance-single:
     Maractus (XO+ DS):
     Hard:
     15:
     0.617075,0.76751,0.017175,0.626889,0.218982,503,501,2,73,0,0,0,0,0,0.617075,0.76751,0.017175,0.626889,0.218982,503,501,2,73,0,0,0,0,0:
0000
0000
0000
0000
,
0000
0000
0000
0000
,
0000
0000
0000
0000
,
0000
0000
0000
0000
,
0000
0000
0000
0000
,
0000
0000
0000
0000
,
0000
0000
0000
0000
,
1000
0000
1000
0000
0001
0000
0100
0010
0100
0010
2000
0000
3001
0000
1000
0000
,
0020
0030
0002
0003
2000
3000
0200
0302
,
0000
0003
1000
0000
0100
0000
0001
0000
0100
0000
0010
0000
0001
0000
1000
0000
,
0200
0300
0002
0003
2000
3000
0020
0032
,
0000
0003
1000
0000
0010
0000
0001
0000
0010
0000
0100
0000
0001
0000
1000
0000
,
0020
0030
0002
0003
2000
3000
0200
0302
,
0000
0003
1000
0000
0010
0000
0001
0000
0010
0000
0100
0000
0001
0000
1000
0000
,
0200
0300
0002
0003
2000
3000
0020
0032
,
0000
0003
1000
0000
0010
0000
0001
0000
0010
0000
0100
0000
0002
0000
0003
0000
,
2000
3000
0001
0010
1000
0010
0001
0100
,
1000
0100
0001
0010
1000
0010
0001
0100
,
0020
0030
1000
0010
0001
0010
1000
0100
,
0001
0100
1000
0010
0001
0010
1000
0100
,
0020
0030
0001
0100
1000
0100
0001
0010
,
1000
0010
0001
0100
1000
0100
0001
0010
,
0100
1000
0001
0100
0020
0000
0000
0000
,
0130
0000
0100
0000
0001
0000
0010
0100
0010
0100
1000
0000
2001
0000
0000
3000
,
0002
0010
2003
0010
3001
0200
0310
1000
,
0001
0000
0010
0000
1000
0000
0010
0000
0100
0000
1000
0100
1000
0000
0001
0000
,
2000
0010
3002
0010
1003
0200
0310
0001
,
1000
0010
0001
0010
0100
0001
1000
0100
,
2000
0100
3002
0100
1003
0020
0130
0001
,
1000
0000
0100
0000
0001
0000
0100
0000
0010
0000
0001
0010
0001
0000
1000
0000
,
0002
0100
2003
0100
3001
0020
0130
1000
,
0001
0100
1000
0100
0010
1000
0002
0000
,
0013
0001
2000
0000
3001
0100
0020
0000
,
0230
0000
0000
0000
,
0000
0000
0000
0000
,
0302
0000
0000
0000
,
0000
0000
0000
0000
,
2003
0000
0000
0000
,
0000
0000
0000
0000
,
3200
0000
0000
0000
,
0020
0000
0000
0000
0000
0000
0000
0330
,
0001
0010
0001
1000
,
0001
0000
0100
0000
0001
0000
0010
0100
,
1000
0001
1000
0010
,
1000
0000
0001
0000
1000
0000
0100
0010
,
0001
0100
0001
0100
0010
1000
0010
1000
,
0001
0010
0001
0010
0100
1000
0100
1000
,
0002
0000
0000
0000
,
1003
0000
1000
0000
0001
0000
0100
0010
0100
0010
2000
0000
3001
0000
0010
0000
,
0002
0000
0100
0000
1003
0000
0002
0000
0010
0000
1003
0000
0010
0100
0001
0000
,
1000
0100
0020
0000
0001
0000
0130
0000
2000
0000
0100
0000
3001
0000
0100
0000
,
1000
0100
0010
1000
0010
0001
0010
0100
,
0001
1000
0010
0000
1000
0001
0010
0000
0001
1000
0100
0000
1000
0001
0100
0000
,
0010
2000
0001
0000
0000
0000
3100
0000
1000
0000
0000
0001
0000
0000
0100
0000
,
0010
2000
0001
0000
0000
0000
3100
0000
1000
0000
0000
0010
0000
0000
0100
0000
,
0001
0000
1000
0000
0001
0000
0100
0000
0010
0100
0000
0100
0001
0000
1000
0000
,
0001
0000
0001
0000
1000
0000
0100
0010
0100
0010
0002
0000
0103
0000
0001
0000
,
2000
0000
0100
0000
3001
0000
2000
0000
0010
0000
3001
0000
0010
0100
1000
0000
,
0001
0100
0020
0000
1000
0000
0130
0000
0002
0000
0100
0000
1003
0000
0100
0000
,
0001
0100
0010
0001
0010
1000
0010
0100
,
1000
0001
0010
0000
0001
1000
0010
0000
1000
0001
0100
0000
0001
1000
0100
0000
,
0010
0002
1000
0000
0000
0000
0103
0000
0001
0000
0000
1000
0000
0000
0100
0000
,
0010
0002
1000
0000
0000
0000
0103
0000
0001
0000
0000
0010
0000
0000
0100
0000
,
1000
0000
0001
0000
1000
0000
0010
0000
0100
0010
0000
0010
1000
0000
0001
0000
,
1000
0000
1000
0000
0001
0000
0010
0100
0010
0100
2000
0000
3002
0000
0000
0003
,
1000
0010
1000
0010
0100
0000
0001
0000
1000
0000
1000
0000
0010
0000
1000
0000
,
0001
0010
0001
0010
0100
0000
1000
0000
2000
0000
0000
0000
3100
0000
0010
0000
,
0001
0100
0001
0100
0010
0000
1000
0000
0001
0000
0001
0000
0100
0000
0001
0000
,
1000
0100
1000
0100
0010
0000
0001
0000
1000
0001
0200
0000
0310
1000
0002
0000
,
1003
0010
1000
0010
0100
0000
0001
0000
1000
0000
1000
0000
0010
0000
0100
0000
,
0001
0010
0001
0010
0100
0000
1000
0000
0001
0000
0001
0000
0010
0000
0100
0000
,
1000
0100
1000
0100
0010
0000
0001
0000
1000
0000
1000
0000
0010
0000
0100
0000
,
0001
0000
0001
0000
1000
0000
0100
0010
0100
0010
0002
0000
2003
0000
3000
0000
,
0001
0001
1000
0010
0001
0010
1000
0100
,
0001
0100
1000
0010
0001
0010
1000
0100
,
0010
0010
0001
0010
1000
0010
0001
0100
,
1000
0100
0001
0010
1000
0010
0001
0100
,
0010
0010
1000
0100
0001
0100
1000
0010
,
0001
0010
1000
0100
0001
0100
1000
0010
,
0100
0001
1000
0100
0020
0000
0000
0000
,
0230
0000
0000
0000
0000
0000
0000
0000
0000
0000
0000
0000
0000
0000
0000
0300
,
2002
3003
0000
0000
;

//--------------- dance-single - Maractus (FS+ DR JU- DS- XO- BRFS- BU-) ----------------
#NOTES:
     dance-single:
     Maractus (FS+ DR JU- DS- XO- BRFS- BU-):
     Challenge:
     17:
     0.911504,1.151265,0.403614,0.309151,1.017622,743,696,47,36,25,0,3,0,0,0.911504,1.151265,0.403614,0.309151,1.017622,743,696,47,36,25,0,3,0,0:
0000
0000
0000
0000
,
0000
0000
0000
0000
,
0000
0000
0000
0000
,
0000
0000
0000
0000
,
0000
0000
0000
0000
,
0000
0000
0000
0000
,
0000
0000
0000
0000
,
1000
0000
0000
0000
1000
0000
0000
0000
0100
0000
0000
0000
0010
0000
0001
0000
0010
0000
0001
0000
4000
0000
0000
0000
3001
0000
0000
0000
0100
00M0
0100
0000
,
1000
0000
0001
0000
1000
0000
0010
0000
2000
0000
0000
3000
1100
0000
0002
0000
,
0000
0003
1000
0000
0101
00M0
0100
0000
0001
0000
0010
0000
0101
M000
0100
0000
,
0001
0000
1000
0000
0001
0000
0010
0000
0002
0000
0000
0003
0101
0000
2000
0000
,
0000
3000
0001
0000
1100
00M0
0100
0000
1000
0000
0010
0000
1100
00M0
0100
0000
,
1000
0000
0001
0000
1000
0000
0100
0000
2000
0000
0000
3000
1010
0000
0002
0000
,
0000
0003
1000
0000
0011
0M00
0010
0000
0001
0000
0100
0000
0011
0M00
0010
0000
,
0001
0000
1000
0000
0001
0000
0100
0000
0002
0000
0000
0003
0011
0000
2000
0000
,
0000
3000
0001
0000
1010
0M00
0010
0000
1000
0100
1000
0100
0010
000M
0010
0000
,
2000
0000
3000
0000
0001
0000
0010
0000
0001
1000
0001
0010
0001
0100
0010
1000
,
0001
0010
0100
1000
0001
0100
0010
1000
0001
0010
0100
1000
0001
1000
0010
0100
,
0002
0000
0003
0000
1000
0000
0010
0000
1000
0001
1000
0010
1000
0100
0010
0001
,
1000
0010
0100
0001
1000
0100
0010
0001
1000
0010
0100
0001
1000
0001
0010
0100
,
2000
0000
3000
0000
0001
0000
0100
0000
0001
1000
0001
0100
0001
0010
0100
1000
,
0001
0100
0010
1000
0001
0010
0100
1000
0001
0100
0010
1000
0001
1000
0100
0010
,
0001
0000
0001
0000
1000
0000
1000
0000
0010
0100
0010
0100
0010
0100
0010
0100
,
0001
0000
0000
0000
0001
0000
0000
0000
0010
0000
0000
0000
0100
0000
1000
0000
0100
0000
1000
0000
0001
0000
0000
0000
2001
0000
0000
0000
3100
00M0
0100
0000
,
0001
0000
0000
1000
0000
0000
0010
0000
0000
0001
0000
0000
0010
0000
0000
0100
0001
0100
0010
0000
0000
1000
0000
0000
,
0001
0000
0010
0000
1000
0000
0010
0000
0100
0000
1000
0100
1000
0000
0001
0000
,
1000
0000
0000
0001
0000
0000
0010
0000
0000
1000
0000
0000
0010
0000
0000
0100
1000
0100
0010
0000
0000
0001
0000
0000
,
1000
0000
0010
0000
0001
0000
0010
0000
0100
0001
0100
0001
1000
0000
0100
0000
,
1000
0000
0000
0001
0000
0000
0010
0000
0000
1000
0000
0000
0010
0000
0000
0100
1000
0100
0010
0000
0000
0001
0000
0000
,
1000
0000
0010
0000
0001
0000
0010
0000
0100
0000
0001
0100
0001
0100
0010
1000
,
0001
0000
0000
1000
0000
0000
0010
0000
0000
0001
0000
0000
0010
0000
0000
0100
0001
0100
0010
0000
0000
1000
0000
0000
,
0001
0000
0010
0000
1000
0000
0010
0000
0100
1000
0100
1000
0010
0000
0M00
0000
,
0010
0000
0000
0001
0000
0000
0010
0000
0000
0001
0000
0000
0100
0000
0000
0000
0000
0000
00M0
0000
0000
0000
0000
0000
0100
0000
0000
0010
0000
0000
0100
0000
0000
0010
0000
0000
0001
0000
0000
0000
1000
0000
0000
0000
0001
0000
0000
0000
,
0200
0000
0000
0000
,
0000
0000
0000
0000
,
0302
0000
0000
0000
,
0000
0000
0000
0000
,
2003
0000
0000
0000
,
0000
0000
0000
0000
,
3200
0000
0000
0000
,
0040
0000
0000
0000
0000
0000
0000
0330
,
1100
1001
0101
1001
,
1010
0000
1001
0000
0011
0000
0101
0001
,
1001
0101
1001
1100
,
1001
0000
0011
0000
1001
0000
1010
1000
,
0001
0001
0100
0100
0010
0010
1000
1000
,
0001
0001
0010
0010
0100
0100
1000
1000
,
0010
0100
0010
0100
0010
0100
0010
0100
0010
0100
0010
0100
0010
0100
0010
0100
,
0001
0000
0000
0000
0001
0000
0000
0000
0010
0000
0000
0000
0100
0000
1000
0000
0100
0000
1000
0000
0002
0000
0000
0000
0103
00M0
0100
0000
0100
0000
0100
0000
,
1000
0001
0010
0000
0001
0000
1000
0001
0010
0000
0001
0000
1000
0001
0100
0000
,
0001
1000
0100
0000
1000
0000
0001
0100
0002
0000
1000
0000
0103
0000
0001
0000
,
1000
0100
1000
0100
0010
0M00
0010
1000
0010
1000
0001
0000
0100
0000
0010
0000
,
1000
0001
0010
0000
0010
0001
0100
0000
0100
0010
1000
0000
0001
0100
0001
0100
,
0010
2000
0100
0000
3002
0000
0010
0000
1003
0100
1000
0100
0010
0002
0100
0000
,
2003
0000
0010
0000
3001
0000
0100
0000
0010
1000
0000
1000
0001
0010
0M00
0010
,
1000
0000
1000
0000
0001
0000
0001
0000
1000
0100
1000
0100
0010
0001
0010
0001
,
1000
0000
0000
0000
1000
0000
0000
0000
0010
0000
0000
0000
0100
0000
0001
0000
0100
0000
0001
0000
2000
0000
0000
0000
3100
00M0
0100
0000
0100
0000
0100
0000
,
0001
1000
0010
0000
1000
0000
0001
1000
0010
0000
1000
0000
0001
1000
0100
0000
,
1000
0001
0100
0000
0001
0000
1000
0100
2000
0000
0001
0000
3100
0000
1000
0000
,
0001
0100
0001
0100
0010
0M00
0010
0001
0010
0001
1000
0000
0100
0000
0010
0000
,
0001
1000
0010
0000
0010
1000
0100
0000
0100
0010
0001
0000
1000
0100
1000
0100
,
0010
0002
0100
0000
2003
0000
0010
0000
3001
0100
0001
0100
0010
2000
0100
0000
,
3002
0000
0010
0000
1003
0000
0100
0000
0010
0001
0000
0001
1000
0010
0M00
0010
,
0001
0000
0001
0000
1000
0000
1000
0000
0001
0100
0001
0100
0010
1000
0010
1000
,
0001
0000
0001
0000
0010
0000
0100
1000
0100
1000
0002
0003
2002
0000
0000
3003
,
0001
0010
0001
0010
0100
00M0
0100
0000
0101
0000
0101
0000
0010
0000
0001
0000
,
1000
0010
1000
0010
0100
000M
0100
0000
2200
0000
0000
3300
0001
0000
1000
0000
,
1000
0010
1000
0010
0100
00M0
0100
0000
1100
0000
1100
0000
0010
0000
1000
0000
,
0001
0010
0001
0010
0100
M000
0100
0000
0001
0010
0001
0010
0100
1000
0100
1000
,
0001
0100
0001
0100
0010
0M00
0010
0000
0011
0000
0011
0000
0100
0000
0001
0000
,
1000
0100
1000
0100
0010
000M
0010
0000
1010
0000
1010
0000
0001
0000
1000
0000
,
0001
0100
0001
0100
0010
0M00
0010
0000
0011
0000
0011
0000
0100
0000
0001
0000
,
1000
0000
1000
0000
0100
0000
0010
0001
0010
0001
0100
0010
2000
0000
3000
0000
,
1001
0000
1001
0000
1000
0001
1000
0010
1000
0100
0010
0001
1000
0010
0100
0001
,
1000
0100
0010
0001
1000
0010
0100
0001
1000
0001
0010
0100
1000
0010
0100
0000
,
1001
0000
1001
0000
0001
1000
0001
0010
0001
0100
0010
1000
0001
0010
0100
1000
,
0001
0100
0010
1000
0001
0010
0100
1000
0001
1000
0010
0100
0001
0010
0100
0000
,
1001
0000
1001
0000
1000
0001
1000
0100
1000
0010
0100
0001
1000
0100
0010
0001
,
1000
0010
0100
0001
1000
0100
0010
0001
1000
0001
0100
0010
1000
0100
0010
0000
,
0001
0000
0001
0000
1000
0000
1000
0000
0010
0100
0010
0100
0010
0100
0010
0100
,
0004
0000
0000
0000
0000
0000
0000
0000
0000
0000
0000
0000
0000
0000
0000
0003
,
2002
3003
0000
0000
;
