#TITLE:VORACITY;
#SUBTITLE:;
#ARTIST:MYTH & ROID;
#TITLETRANSLIT:;
#SUBTITLETRANSLIT:;
#ARTISTTRANSLIT:;
#GENRE:;
#CREDIT:;
#BANNER:;
#BACKGROUND:;
#LYRICSPATH:;
#CDTITLE:;
#MUSIC:VORACITY.ogg;
#OFFSET:0.166000;
#SAMPLESTART:57.934002;
#SAMPLELENGTH:12.000000;
#SELECTABLE:YES;
#BPMS:0.000000=200.000000
;
#STOPS:
;
#BGCHANGES:;
#KEYSOUNDS:;
#ATTACKS:;

//---------------dance-single - ----------------
#NOTES:
     dance-single:
     :
     Hard:
     13:
     0.566394,0.731002,1.002203,0.352423,0.462555,360.000000,269.000000,91.000000,32.000000,0.000000,0.000000,0.566394,0.731002,1.002203,0.352423,0.462555,360.000000,269.000000,91.000000,32.000000,0.000000,0.000000:
0000
0000
0000
0000
,
0000
0000
0000
0000
,
0000
0000
0000
0000
,
0000
0000
0000
0000
,
0000
0000
0000
0000
,
0000
0000
0000
0000
,
0000
0000
0000
0000
,
1010
0000
0000
0000
,
0202
0000
0000
0000
0000
0000
0000
0303
,
0022
0000
0033
0000
,
1100
0010
0101
0010
,
1001
0000
0000
1000
0000
0010
0000
0000
0100
0020
0000
0000
,
1030
0000
0001
0010
0000
0000
0110
0000
0000
1100
0000
0000
,
1001
0000
0000
0001
0000
0100
0000
0000
0010
0200
0000
0000
,
0301
0000
1000
0100
0000
0000
0110
0000
0000
0011
0000
0000
,
1001
0000
0000
0001
0000
0100
0000
0000
0010
0200
0000
0000
,
1300
0000
0100
0010
0000
0000
0101
0000
0000
0011
0000
0000
,
0120
0100
0100
0130
,
2000
0000
3002
0000
,
0103
0000
0000
0010
0000
1000
0001
0000
0100
0001
0000
1000
,
0100
0010
0011
1100
,
0100
0000
0000
0010
0000
0001
1000
0000
0100
1000
0000
0001
,
0100
0010
1010
0101
,
0011
0000
0000
0000
0000
1100
0000
0000
0000
1010
0000
0000
,
0000
0000
0101
0000
0000
0000
0011
0000
0000
1100
0000
0000
,
1010
0000
0000
0000
0000
0101
0000
0000
0000
0011
0000
0000
,
0000
0000
1100
0000
0000
0000
1010
0000
0000
0110
0000
0000
,
1002
0000
0000
0000
,
0023
0000
0000
0000
,
0230
0000
0000
0000
,
2300
0000
0002
3003
,
1000
0000
0000
0001
0000
0100
0001
0000
0010
0100
0000
1000
,
0001
0000
0001
0100
0000
0000
1010
0000
0000
0110
0000
0000
,
0001
0000
0000
1000
0000
0100
1000
0000
0010
0100
0000
0001
,
1000
0100
0011
0110
,
1100
0000
0000
0000
0000
1010
0000
0000
0000
0101
0000
0000
,
0000
0000
0011
0000
0000
0000
0110
0000
0000
1100
0000
0000
,
0101
0000
0000
0000
0000
0011
0000
0000
0000
1100
0000
0000
,
0000
0000
1010
0000
0000
0000
0110
0000
0000
0101
0000
0000
,
1001
0000
0002
0000
,
0023
0000
0000
0130
,
0010
0001
0000
0100
,
0010
1000
0000
0001
,
0010
0000
0200
0000
,
2300
0000
3000
0010
,
0200
0000
0302
0000
,
1003
0100
1000
0100
0000
0000
0010
0001
0010
0001
0000
0000
,
1100
0101
0011
1010
,
1100
0000
0000
0000
0000
0000
0100
0000
0010
0000
0000
0012
,
0000
0000
1003
0001
0000
0001
0100
0000
0010
1000
0000
1000
,
0002
0000
0000
0100
0000
1000
0000
0000
1003
0000
0000
2010
,
0000
0000
3001
1000
0000
1000
0100
0000
0010
0001
0000
0001
,
2000
0000
0100
0000
0000
0001
0000
0000
3001
0000
0000
0000
,
1000
0000
0010
1000
0000
0000
0001
0000
0010
0001
0000
0000
,
1000
0000
0010
0100
0000
0001
1000
0000
0001
0010
0000
0000
,
0110
0010
1100
1000
,
0101
0000
0001
0100
0000
0110
0000
0000
1000
0001
0000
2001
,
0000
0000
3001
0100
0000
0100
0010
0000
1000
0100
0000
0100
,
0020
0000
0001
0000
0000
0100
0000
0000
0130
0000
0000
0210
,
0000
0000
1300
0010
0000
0010
0100
0000
0001
0010
0000
0010
,
0200
0000
1000
0000
1300
0000
0020
0000
0000
0130
0000
0000
,
1010
1000
1100
1000
,
0011
0001
0101
0001
,
1010
1000
0101
0001
,
0011
1010
1100
0101
,
1001
0000
0000
0001
0000
0010
0000
0000
0100
0020
0000
0000
,
1030
0000
0010
0100
0000
0000
0110
0000
0000
1100
0000
0000
,
1001
0000
0000
1000
0000
0010
0000
0000
0100
0020
0000
0000
,
0031
0000
0010
0100
0000
0000
0110
0000
0000
1010
0000
0000
,
0011
0000
0000
0000
0000
1100
0000
0000
0000
0101
0000
0000
,
0000
0000
0110
0000
0000
0000
0110
0000
0000
0000
0000
0000
,
1010
0000
0000
0000
0000
0101
0000
0000
0000
1100
0000
0000
,
0000
0000
0011
0000
0000
0000
0110
0000
0000
0000
0000
0000
,
0011
0000
0000
0000
0000
1100
0000
0000
0000
0101
0000
0000
;

//---------------dance-single - ----------------
#NOTES:
     dance-single:
     :
     Medium:
     10:
     0.456262,0.649780,0.737885,0.253304,0.258811,290.000000,223.000000,67.000000,23.000000,0.000000,0.000000,0.456262,0.649780,0.737885,0.253304,0.258811,290.000000,223.000000,67.000000,23.000000,0.000000,0.000000:
0000
0000
0000
0000
,
0000
0000
0000
0000
,
0000
0000
0000
0000
,
0000
0000
0000
0000
,
0000
0000
0000
0000
,
0000
0000
0000
0000
,
0000
0000
0000
0000
,
0110
0000
0000
0000
,
2002
0000
0000
3003
,
0011
0000
0000
0000
,
1100
1000
1001
0001
,
0101
0000
0000
0100
0000
0010
0100
0000
0000
0010
0000
0000
,
1000
0000
0001
1000
0000
0000
0100
0000
0000
0100
0000
0000
,
1100
0000
0000
0100
0000
0010
0100
0000
0000
0010
0000
0000
,
0001
0000
1000
0001
0000
0000
0100
0000
0000
0100
0000
0000
,
0101
0000
0000
0100
0000
0010
0100
0000
0000
0010
0000
0000
,
1000
0000
0001
1000
0000
0000
0100
0000
0000
0100
0000
0000
,
0110
0000
0000
0000
,
0002
0000
2003
0000
,
3100
0000
0000
0010
0000
0001
0010
0000
0001
0010
0000
0000
,
0100
1100
0001
0101
,
0100
0000
0000
0010
0000
1000
0010
0000
1000
0010
0000
0000
,
0100
0101
1000
1100
,
1001
0000
0000
0000
0000
0001
0000
0000
0000
0101
0000
0000
,
0000
0000
0100
0000
0000
0000
0010
0000
0000
1000
0000
0000
,
1001
0000
0000
0000
0000
1000
0000
0000
0000
1100
0000
0000
,
0000
0000
0100
0000
0000
0000
0010
0000
0000
0001
0000
0000
,
1002
0000
0000
0000
,
0203
0000
0000
0000
,
0320
0000
0000
0000
,
2030
0000
3001
0000
,
1000
0000
0000
0100
0000
1000
0100
0000
1000
0100
0000
0000
,
0010
0011
1000
1010
,
0001
0000
0000
0100
0000
0001
0100
0000
0001
0100
0000
0000
,
0010
1010
0001
0011
,
1001
0000
0000
0000
0000
0010
0000
0000
0000
1001
0000
0000
,
0000
0000
0010
0000
0000
0000
0100
0000
0000
0010
0000
0000
,
1001
0000
0000
0000
0000
0100
0000
0000
0000
1001
0000
0000
,
0000
0000
0100
0000
0000
0000
0010
0000
0000
0100
0000
0000
,
1001
0000
0002
0000
,
0203
0000
0300
0010
,
1000
1000
0000
0100
,
0010
0010
0000
0001
,
1000
0000
0020
0000
,
2030
0000
3000
0001
,
0020
0000
0230
0000
,
2300
0000
0002
3003
,
1000
1010
0001
0011
,
1001
0000
0000
0000
0000
0000
0000
0000
0000
0000
0000
2100
,
0000
3001
0101
1000
,
1010
0000
0000
0001
0000
0100
0000
0000
0001
0000
0000
0012
,
0000
1003
1100
0001
,
0101
0000
1000
0000
0000
0100
0000
0000
1000
0000
0000
0000
,
2000
0010
0001
3100
,
0002
0010
1000
0103
,
0101
0000
1100
0000
,
0101
0000
0000
0000
0000
0110
0000
0000
1000
0000
0000
1002
,
0000
0000
0003
1000
0000
0000
1100
0000
0000
0001
0000
0000
,
0101
0000
1000
0000
0000
0100
0000
0000
1000
0000
0000
2010
,
0000
3001
0011
1000
,
1010
0000
0010
0000
0100
0000
0002
0000
0000
1003
0000
0000
,
0101
0000
0011
0000
,
1100
0000
1010
0000
,
0101
1000
1100
0001
,
0011
0110
1100
1001
,
0101
0000
0000
0100
0000
0010
0100
0000
0000
0010
0000
0000
,
1000
0000
0001
1000
0000
0000
0100
0000
0000
0100
0000
0000
,
1100
0000
0000
0100
0000
0010
0100
0000
0000
0010
0000
0000
,
0001
0000
1000
0001
0000
0000
0100
0000
0000
0100
0000
0000
,
0101
0000
0000
0000
0000
1000
0000
0000
0000
1100
0000
0000
,
0000
0000
0001
0000
0000
0000
1001
0000
0000
0000
0000
0000
,
1010
0000
0000
0000
0000
0001
0000
0000
0000
0011
0000
0000
,
0000
0000
1000
0000
0000
0000
1001
0000
0000
0000
0000
0000
,
0110
0000
0000
0000
0000
1001
0000
0000
0000
0110
0000
0000
;

//---------------dance-single - ----------------
#NOTES:
     dance-single:
     :
     Easy:
     6:
     0.262744,0.365501,0.231278,0.154185,0.005507,167.000000,146.000000,21.000000,14.000000,0.000000,0.000000,0.262744,0.365501,0.231278,0.154185,0.005507,167.000000,146.000000,21.000000,14.000000,0.000000,0.000000:
0000
0000
0000
0000
,
0000
0000
0000
0000
,
0000
0000
0000
0000
,
0000
0000
0000
0000
,
0000
0000
0000
0000
,
0000
0000
0000
0000
,
0000
0000
0000
0000
,
1000
0000
0000
0000
,
0002
0000
0000
0000
,
0103
0000
0000
0000
,
0010
0010
1000
1000
,
0001
0000
0010
0000
,
0100
1000
0001
0001
,
1000
0000
0010
0000
,
0100
0001
1000
1000
,
0001
0000
0010
0000
,
0100
0010
0001
0001
,
2000
3000
0000
0000
,
0002
0000
0103
0000
,
0001
0100
0001
0000
,
0100
0100
0100
0000
,
0010
1000
0010
0000
,
1000
1000
1000
0000
,
1001
0000
0000
1001
,
0000
0000
0000
0000
,
0110
0000
0000
0110
,
0000
0000
0000
0000
,
2001
0000
3000
0000
,
0200
0000
0300
0000
,
0020
0000
0030
0000
,
0002
0000
0003
0000
,
1000
0100
1000
0000
,
0100
0100
0100
0000
,
0010
0001
0010
0000
,
0001
0001
0001
0000
,
1001
0000
0000
1001
,
0000
0000
0000
0000
,
0110
0000
0000
0110
,
0000
0000
0000
0000
,
1001
0000
0000
0000
,
0001
0000
0000
0000
,
0100
0001
0100
0001
,
1000
0000
0100
0000
,
0010
0000
0000
0000
,
0100
0000
0000
0000
,
1000
0000
0001
0000
,
2000
0000
0000
3000
,
0010
0010
0100
0100
,
0110
0000
0000
0000
,
0001
0100
0010
1000
,
0002
0000
1003
0000
,
1000
0100
0010
0001
,
2000
0000
3001
0000
,
0100
0010
0100
0000
,
0010
0100
0010
0000
,
0110
0000
1001
0000
,
0220
0000
0330
0000
,
1000
0010
0100
0001
,
2000
0000
3001
0000
,
0001
0010
0100
1000
,
0002
0000
1003
0000
,
0001
0000
0001
0000
,
0100
0000
0100
0000
,
0010
0000
0010
0000
,
1000
1000
0001
0001
,
1000
0000
0100
0000
,
0010
0001
1000
1000
,
0001
0000
0100
0000
,
0010
1000
0001
0001
,
1001
0000
0000
1001
,
0000
0000
1001
0000
,
0110
0000
0000
0110
,
0000
0000
0110
0000
,
0001
0000
0000
0000
0000
1000
0000
0000
0000
1001
0000
0000
;

//---------------dance-double - ----------------
#NOTES:
     dance-double:
     :
     Hard:
     13:
     0.594714,0.731002,1.002203,0.352423,0.528634,378.000000,287.000000,91.000000,32.000000,0.000000,0.000000,0.594714,0.731002,1.002203,0.352423,0.528634,378.000000,287.000000,91.000000,32.000000,0.000000,0.000000:
// measure 0
00000000
00000000
00000000
00000000
,  // measure 1
00000000
00000000
00000000
00000000
,  // measure 2
00000000
00000000
00000000
00000000
,  // measure 3
00000000
00000000
00000000
00000000
,  // measure 4
00000000
00000000
00000000
00000000
,  // measure 5
00000000
00000000
00000000
00000000
,  // measure 6
00000000
00000000
00000000
00000000
,  // measure 7
00001010
00000000
00000000
00000000
,  // measure 8
00000202
00000000
00000000
00000303
,  // measure 9
00000022
00000000
00000033
00000000
,  // measure 10
00000110
00001000
00010100
00001000
,  // measure 11
00011000
00000000
00000000
00001000
00000000
01000000
00000000
00000000
01000000
00200000
00000000
00000000
,  // measure 12
10300000
00000000
00010000
00100000
00000000
00000000
01100000
00000000
00000000
00110000
00000000
00000000
,  // measure 13
00011000
00000000
00000000
00010000
00000000
00000100
00000000
00000000
00000100
00000020
00000000
00000000
,  // measure 14
00000031
00000000
00001000
00000010
00000000
00000000
00000110
00000000
00000000
00001010
00000000
00000000
,  // measure 15
00011000
00000000
00000000
00001000
00000000
00100000
00000000
00000000
00100000
02000000
00000000
00000000
,  // measure 16
13000000
00000000
00100000
01000000
00000000
00000000
01010000
00000000
00000000
01001000
00000000
00000000
,  // measure 17
00012000
00010000
00010000
00013000
,  // measure 18
00000200
00000000
00000320
00000000
,  // measure 19
00000031
00000000
00000000
00000100
00000000
00000010
00001000
00000000
00000100
00010000
00000000
00001000
,  // measure 20
00010000
01000000
11000000
00110000
,  // measure 21
10000000
00000000
00000000
01000000
00000000
00100000
00010000
00000000
01000000
00001000
00000000
00010000
,  // measure 22
00001000
00000100
00000101
00001010
,  // measure 23
00000011
00000000
00000000
00000000
00000000
00000110
00000000
00000000
00000000
00001100
00000000
00000000
,  // measure 24
00000000
00000000
00011000
00000000
00000000
00000000
01010000
00000000
00000000
01100000
00000000
00000000
,  // measure 25
10100000
00000000
00000000
00000000
00000000
01100000
00000000
00000000
00000000
01010000
00000000
00000000
,  // measure 26
00000000
00000000
00011000
00000000
00000000
00000000
00001100
00000000
00000000
00000110
00000000
00000000
,  // measure 27
00000011
00000000
00000000
00000001
00000000
00000100
00000000
00000000
00000010
00001000
00000000
00000010
,  // measure 28
00001000
00000000
00000100
00010000
00000000
00001000
00000000
00000000
00010000
00001000
00000000
00100000
,  // measure 29
00010000
00000000
00100000
01000000
00000000
10000000
00000000
00000000
00010000
10000000
00000000
00100000
,  // measure 30
02000000
00000000
00200000
03300000
,  // measure 31
10000000
00000000
00000000
01000000
00000000
00100000
00010000
00000000
00100000
00001000
00000000
00001000
,  // measure 32
00010000
00000000
00000010
00001000
00000000
00000000
00001010
00000000
00000000
00000011
00000000
00000000
,  // measure 33
00000001
00000000
00000000
00000100
00000000
00000010
00001000
00000000
00000010
00010000
00000000
00010000
,  // measure 34
00001000
00000000
00100000
00010000
00000000
00000000
00110000
00000000
00000000
10100000
00000000
00000000
,  // measure 35
11000000
00000000
00000000
00000000
00000000
01100000
00000000
00000000
00000000
00110000
00000000
00000000
,  // measure 36
00000000
00000000
00011000
00000000
00000000
00000000
00001010
00000000
00000000
00000110
00000000
00000000
,  // measure 37
00000101
00000000
00000000
00000000
00000000
00000110
00000000
00000000
00000000
00001010
00000000
00000000
,  // measure 38
00000000
00000000
00011000
00000000
00000000
00000000
00110000
00000000
00000000
01100000
00000000
00000000
,  // measure 39
10010000
00000000
00020000
00000000
,  // measure 40
02030000
00000000
03000000
00100000
,  // measure 41
00010000
00001000
00000000
00010000
,  // measure 42
00001000
00000100
00000000
00000001
,  // measure 43
00001000
00000000
00000002
00000000
,  // measure 44
00000023
00000000
00000030
00000100
,  // measure 45
00020000
00000000
00032000
00000000
,  // measure 46
01003000
00010000
01000000
00010000
00000000
00000000
10000000
00100000
10000000
00100000
00000000
00000000
,  // measure 47
01100000
01010000
00110000
11000000
,  // measure 48
01100000
00000000
00000000
00000000
00000000
00000000
10000000
00000000
01000000
00000000
00000000
01200000
,  // measure 49
00000000
00000000
00310000
10000000
00000000
10000000
00100000
00000000
00100000
01000000
00000000
01000000
,  // measure 50
00002000
00000000
00000000
00023000
00000000
00000100
00000000
00000000
00030100
00000000
00000000
00000210
,  // measure 51
00000000
00000000
00001300
00000001
00000000
00000001
00000100
00000000
00000100
00000010
00000000
00000010
,  // measure 52
00020000
00000000
00002000
00030000
00000000
00100000
00000000
00000000
00103000
00000000
00000000
00000000
,  // measure 53
00010000
00000000
00100000
01000000
00000000
00000000
10000000
00000000
00100000
01000000
00000000
00000000
,  // measure 54
00100000
00000000
10000000
00010000
00000000
01000000
00001000
00000000
00010000
00001000
00000000
00000000
,  // measure 55
00010100
00010000
01001000
01000000
,  // measure 56
10010000
00000000
00010000
00100000
00000000
01100000
00000000
00000000
10000000
00100000
00000000
02100000
,  // measure 57
00000000
00000000
03010000
10000000
00000000
10000000
01000000
00000000
01000000
00100000
00000000
00100000
,  // measure 58
00002000
00000000
00020000
00003000
00000000
00000010
00000000
00000000
00030010
00000000
00000000
00000120
,  // measure 59
00000000
00000000
00001030
00000001
00000000
00000001
00000010
00000000
00000010
00000100
00000000
00000100
,  // measure 60
00020000
00000000
00001000
00000000
00031000
00000000
02000000
00000000
00000000
03100000
00000000
00000000
,  // measure 61
10100000
10000000
11000000
01000000
,  // measure 62
00101000
00001000
01001000
00001000
,  // measure 63
00010100
00010000
00010010
00000010
,  // measure 64
00000101
00000110
00001010
00010010
,  // measure 65
00011000
00000000
00000000
00001000
00000000
00100000
00000000
00000000
00100000
02000000
00000000
00000000
,  // measure 66
13000000
00000000
00010000
01000000
00000000
00000000
01100000
00000000
00000000
01010000
00000000
00000000
,  // measure 67
00011000
00000000
00000000
00010000
00000000
00000010
00000000
00000000
00000010
00000200
00000000
00000000
,  // measure 68
00000301
00000000
00001000
00000100
00000000
00000000
00000110
00000000
00000000
00001100
00000000
00000000
,  // measure 69
00000101
00000000
00000000
00000000
00000000
00001010
00000000
00000000
00000000
00011000
00000000
00000000
,  // measure 70
00000000
00000000
01010000
00000000
00000000
00000000
10100000
00000000
00000000
00000000
00000000
00000000
,  // measure 71
11000000
00000000
00000000
00000000
00000000
00110000
00000000
00000000
00000000
00011000
00000000
00000000
,  // measure 72
00000000
00000000
00001100
00000000
00000000
00000000
00000011
00000000
00000000
00000000
00000000
00000000
,  // measure 73
00000110
00000000
00000000
00000000
00000000
00011000
00000000
00000000
00000000
01100000
00000000
00000000
;
