#VERSION:0.83;
#TITLE:VĂ˜ID;
#SUBTITLE:;
#ARTIST:Darker Vs. JUSTICE;
#TITLETRANSLIT:;
#SUBTITLETRANSLIT:;
#ARTISTTRANSLIT:;
#GENRE:Extreme Experimental;
#ORIGIN:;
#CREDIT:;
#BANNER:VOID.png;
#BACKGROUND:VOID-bg.png;
#PREVIEWVID:;
#JACKET:VOID-jacket.png;
#CDIMAGE:;
#DISCIMAGE:;
#LYRICSPATH:;
#CDTITLE:cdtitle.png;
#MUSIC:VOID.ogg;
#OFFSET:-1.028820;
#SAMPLESTART:15.662967;
#SAMPLELENGTH:11.707316;
#SELECTABLE:YES;
#BPMS:0.000=164.000,
102.000=110.000,
104.000=100.000,
136.000=102.000,
138.000=104.000,
140.000=106.000,
142.000=108.000,
144.000=110.000,
146.000=112.000,
148.000=114.000,
150.000=116.000,
152.000=118.000,
154.000=120.000,
156.000=122.000,
158.000=124.000,
160.000=126.000,
162.000=128.000,
164.000=130.000,
166.000=132.000,
168.000=134.000,
170.000=136.000,
172.000=138.000,
174.000=140.000,
176.000=142.000,
178.000=144.000,
180.000=146.000,
182.000=148.000,
184.000=150.000,
186.000=152.000,
188.000=154.000,
190.000=156.000,
192.000=158.000,
194.000=160.000,
196.000=162.000,
196.500=152.000,
197.000=142.000,
197.500=132.000,
198.000=122.000,
198.250=112.000,
198.500=102.000,
198.750=92.000,
199.000=80.000,
200.250=170.000;
#STOPS:;
#DELAYS:;
#WARPS:;
#TIMESIGNATURES:0.000=4=4;
#TICKCOUNTS:0.000=4;
#COMBOS:0.000=1;
#SPEEDS:0.000=1.000=0.000=0;
#SCROLLS:0.000=1.000,
200.250=0.471,
208.000=1.000,
272.000=0.890,
272.500=0.780,
273.000=0.670,
273.500=0.560,
274.000=0.450,
274.500=0.340,
275.000=0.230,
275.500=0.120;
#FAKES:;
#LABELS:0.000=Song Start;
#BGCHANGES:-4.000=VOID.mp4=1.000=1=0=1===CrossFade==,
99999=-nosongbg-=1.000=0=0=0 // don't automatically add -songbackground-
;
#KEYSOUNDS:;
#ATTACKS:
;

//---------------dance-single - ----------------
#NOTEDATA:;
#CHARTNAME:;
#STEPSTYPE:dance-single;
#DESCRIPTION:;
#CHARTSTYLE:;
#DIFFICULTY:Challenge;
#METER:17;
#RADARVALUES:0.905219,0.951264,0.192523,0.485494,1.293255,757.000000,734.000000,23.000000,58.000000,0.000000,0.000000,0.000000,0.000000,0.000000,0.905219,0.951264,0.192523,0.485494,1.293255,757.000000,734.000000,23.000000,58.000000,0.000000,0.000000,0.000000,0.000000,0.000000;
#CREDIT:;
#NOTES:
// measure 0
0000
0000
0000
0000
,  // measure 1
0000
0000
0000
0000
,  // measure 2
1001
0000
0000
0000
0002
0000
0000
0010
0000
0000
2003
0000
0000
0100
0000
0000
,  // measure 3
3001
0000
0010
0000
0001
0000
2000
0010
0000
0000
3001
0000
0010
0100
1000
0000
,  // measure 4
0001
0000
0000
0000
2000
0000
0000
0010
0000
0000
3002
0000
0000
0100
0000
0000
,  // measure 5
1003
0000
0010
0000
1000
0000
0002
0010
0000
0000
1003
0000
0010
0100
0001
0000
,  // measure 6
1000
0000
0000
0000
0002
0000
0000
0010
0000
0000
2003
0000
0000
0100
0000
0000
,  // measure 7
3001
0000
0100
0000
0010
0000
2000
0001
0000
0000
3100
0000
0010
0001
1000
0000
,  // measure 8
1001
0000
0000
0000
1000
0010
0100
0010
1000
0001
0010
0100
0010
0001
1000
0000
,  // measure 9
1001
0000
0000
1001
0000
0000
1001
0000
0001
0100
0010
1000
0001
1000
0100
0010
,  // measure 10
0001
0000
0000
0001
1000
0000
0010
1000
0010
0000
0100
0010
0100
0000
0010
1000
,  // measure 11
0010
0000
1000
0001
1000
0000
0002
0010
0000
2003
0100
0000
3001
0100
0010
1000
,  // measure 12
0001
0000
0000
1000
0001
0000
0010
0001
0010
0000
0100
0010
0100
0000
0010
0001
,  // measure 13
0010
0000
0001
1000
0001
0000
2000
0010
0000
3002
0100
0000
1003
0100
0010
0001
,  // measure 14
1000
0000
0010
0100
0020
0000
0000
0001
0000
0000
0230
0000
0000
1000
0000
0000
,  // measure 15
0320
0000
0000
1030
0000
0000
2010
0000
3001
0010
0000
0010
0001
1000
0010
0000
,  // measure 16
1000
0000
0001
1000
0200
0000
0000
0001
0000
0000
0320
0000
0000
1000
0000
0000
,  // measure 17
0130
0000
0000
0011
0000
0000
1002
0000
0103
0010
0100
0010
1000
0010
0100
0001
,  // measure 18
1000
0000
0000
1000
0100
0000
0010
0100
0010
0000
1000
0010
1000
0000
0010
0100
,  // measure 19
1000
0000
0001
0100
0010
0000
2000
0001
0000
3100
0010
0100
0010
0100
1000
0001
,  // measure 20
1000
0000
0000
0001
0100
0000
0010
0100
0010
0000
0001
0010
0001
0000
0010
0100
,  // measure 21
0001
0000
1000
0100
0010
0000
0002
1000
0000
0103
0010
0100
0010
0100
0001
1000
,  // measure 22
0100
0000
0010
0100
0020
0000
0000
1000
0000
0000
0230
0000
0000
0001
0000
0000
,  // measure 23
0320
0000
0000
0031
0000
0000
0012
0000
1003
0010
0000
0010
1000
0001
0010
0000
,  // measure 24
0001
0000
1000
0001
0200
0000
0000
1000
0000
0000
0320
0000
0000
0001
0000
0000
,  // measure 25
0130
0000
0000
0000
0000
0000
0000
0000
0000
0110
0000
0000
0000
0000
0000
0000
0000
0000
2000
0000
0000
0000
0000
0000
0002
0000
0000
0000
0000
0000
0000
0000
0000
0000
0000
0000
0000
0000
0000
0000
3003
0000
0000
0000
0000
0000
0000
0000
,  // measure 26
1000
0100
1000
0100
0010
0100
1000
0010
0200
0000
0001
0000
0310
0000
0000
0000
,  // measure 27
1000
0010
1000
0010
0100
0010
1000
0100
0010
0001
0010
0100
1000
0001
1000
0000
,  // measure 28
0001
0100
0001
0100
0010
0100
0001
0010
0200
0000
1000
0000
0310
0000
0000
0000
,  // measure 29
0001
0010
0001
0010
0100
0010
0001
0100
0010
1000
0001
1000
0100
0100
0010
0010
,  // measure 30
0001
0100
0001
0100
0010
0100
1000
0100
0001
0000
2001
0000
3010
1000
0100
0000
,  // measure 31
1000
0100
1000
0100
0010
0100
0001
0100
1000
0001
1000
0010
0100
0001
1000
0000
,  // measure 32
0001
0010
0001
0010
1000
0010
0100
0010
0001
0000
2001
0000
3001
0100
0010
1000
,  // measure 33
2010
0001
3000
2010
0001
3000
0012
1003
0100
0010
0100
1000
0001
0001
1000
1000
,  // measure 34
0001
0100
0001
0100
0010
1000
0001
0010
0200
0000
1000
0000
0310
0100
0010
0000
,  // measure 35
0001
0010
0001
0010
0100
1000
0001
0100
0010
1000
0010
0100
0001
1000
0001
0000
,  // measure 36
1000
0100
1000
0100
0010
0001
1000
0010
0200
0000
0001
0000
0310
0100
0010
0000
,  // measure 37
1000
0010
1000
0010
0100
0001
1000
0100
0010
0001
1000
0001
0100
0010
0100
0010
,  // measure 38
1000
0100
0010
0100
0001
0100
0010
0100
1000
0000
2001
0000
3001
0100
0010
1000
,  // measure 39
0001
0100
0010
0100
1000
0100
0010
0100
0001
1000
0001
0010
0100
1000
0001
0000
,  // measure 40
1000
0010
0100
0010
0001
0010
0100
0010
1000
0000
1002
0000
0013
0100
0010
0001
,  // measure 41
2000
0010
0000
3002
0010
0000
1003
0010
0100
0001
1000
0100
0010
0001
0010
0001
,  // measure 42
1000
0000
0001
1000
0010
1000
0010
0100
1000
0100
0010
1000
0010
1000
0001
1000
,  // measure 43
0100
0010
0001
1000
0010
1000
0001
0010
0100
0010
0001
1000
0010
0100
0010
1000
,  // measure 44
0001
0000
1000
0001
0010
0001
0010
0100
0001
0100
0010
0001
0010
0001
1000
0001
,  // measure 45
0100
0010
1000
0001
0010
0100
1000
0001
0100
0010
1000
0100
0010
0001
0100
0010
,  // measure 46
1000
0000
0001
1000
0100
1000
0100
0010
1000
0010
0100
1000
0100
1000
0001
1000
,  // measure 47
0010
0100
0001
1000
0100
1000
0001
0100
0010
0100
0001
1000
0100
0010
0100
1000
,  // measure 48
0001
0000
1000
0001
0100
0001
0100
0010
0001
0010
0100
0001
1000
0100
0010
0100
,  // measure 49
2000
0000
0000
3020
0000
0000
0230
0000
0002
0000
0000
0000
0303
0000
0000
0000
,  // measure 50
0020
0000
0000
0000
,  // measure 51
0000
0000
0000
0030
,  // measure 52
1001
0000
0000
0000
0002
0000
0000
0100
0000
0000
2003
0000
0000
0010
0000
0000
,  // measure 53
3001
0000
0100
0000
0001
0000
2000
0100
0000
0000
3001
0000
0100
0010
1000
0000
,  // measure 54
0001
0000
0000
0000
2000
0000
0000
0100
0000
0000
3002
0000
0000
0010
0000
0000
,  // measure 55
1003
0000
0100
0000
1000
0000
0002
0100
0000
0000
1003
0000
0100
0010
0001
0000
,  // measure 56
1000
0000
0000
0000
0002
0000
0000
0100
0000
0000
2003
0000
0000
0010
0000
0000
,  // measure 57
3001
0000
0010
0000
0100
0000
2000
0001
0000
0000
3010
0000
0100
0001
1000
0001
,  // measure 58
0010
0000
0100
1000
0001
0100
0010
0100
0001
1000
0100
0010
0100
1000
0001
0000
,  // measure 59
1001
0000
0000
1001
0000
0000
1001
0000
1000
0010
0100
0001
1000
0001
0010
0100
,  // measure 60
1000
0000
0010
1000
0010
1000
0100
0010
0001
0000
0010
0001
1000
0001
0100
0000
,  // measure 61
0010
0000
0100
0001
0100
0001
0010
0100
1000
0001
0100
0010
1000
0001
1000
0000
,  // measure 62
0100
0000
0010
0001
0010
0001
0100
0010
1000
0000
0010
1000
0001
1000
0100
0000
,  // measure 63
0010
0000
0100
1000
0100
1000
0010
0100
0001
1000
0100
0010
0001
0010
0100
1000
,  // measure 64
0001
0000
1000
0010
1000
0010
0100
0010
0001
0000
0010
1000
0001
1000
0100
0000
,  // measure 65
0010
0000
0001
0010
0001
0010
0100
0010
1000
0010
0100
0010
0001
1000
0001
0000
,  // measure 66
1000
0010
0100
0001
0010
0100
1000
0001
0100
0010
1000
0100
0010
0001
1000
0001
,  // measure 67
0100
0000
0000
0110
0000
0000
0110
0000
1000
0010
0100
0010
0100
0001
1000
0100
,  // measure 68
0020
0000
0000
0000
0000
0000
0000
0030
;

//---------------dance-single - ----------------
#NOTEDATA:;
#CHARTNAME:;
#STEPSTYPE:dance-single;
#DESCRIPTION:;
#CHARTSTYLE:;
#DIFFICULTY:Hard;
#METER:14;
#RADARVALUES:0.685192,0.749481,0.234376,0.602682,0.598497,573.000000,545.000000,28.000000,72.000000,0.000000,0.000000,0.000000,0.000000,0.000000,0.685192,0.749481,0.234376,0.602682,0.598497,573.000000,545.000000,28.000000,72.000000,0.000000,0.000000,0.000000,0.000000,0.000000;
#CREDIT:;
#NOTES:
// measure 0
0000
0000
0000
0000
,  // measure 1
0000
0000
0000
0000
,  // measure 2
1001
0000
0000
0000
0002
0000
0000
0023
0000
0000
0230
0000
0000
0320
0000
0000
,  // measure 3
0031
0000
0100
0000
0001
0000
0100
0020
0000
0000
0130
0000
0001
0000
0010
0000
,  // measure 4
0001
0000
0000
0000
2000
0000
0000
3020
0000
0000
0230
0000
0000
0320
0000
0000
,  // measure 5
1030
0000
0100
0000
1000
0000
0100
0020
0000
0000
0130
0000
1000
0000
0010
0000
,  // measure 6
1000
0000
0000
0000
0002
0000
0000
0023
0000
0000
0230
0000
0000
2300
0000
0000
,  // measure 7
3010
0000
0100
0000
0001
0000
1000
0200
0000
0000
0310
0000
0001
0000
1000
0000
,  // measure 8
0010
0000
1000
0010
0100
0001
0010
0100
,  // measure 9
1001
0000
0000
1001
0000
0000
1001
0000
0001
0100
0001
0000
1000
0100
1000
0000
,  // measure 10
0001
0000
0000
0001
1000
0000
0010
0000
1000
0000
0010
0000
0100
0000
1000
0000
,  // measure 11
0100
0000
0010
0000
1000
0000
0002
0010
0003
0100
1000
0000
0001
0100
0001
0000
,  // measure 12
1000
0000
0000
1000
0001
0000
0010
0000
0001
0000
0010
0000
0100
0000
0001
0000
,  // measure 13
0100
0000
0010
0000
0001
0000
2000
0010
3000
0100
0001
0000
1000
0100
1000
0000
,  // measure 14
0001
0000
1000
0000
2001
0000
0000
3020
0000
0000
0032
0000
0000
0023
0000
0000
,  // measure 15
2030
0000
0000
3002
0000
0000
0023
0000
0130
1000
0000
0001
0100
0001
0100
0000
,  // measure 16
0010
0000
1000
0000
2001
0000
0000
3200
0000
0000
0302
0000
0000
0203
0000
0000
,  // measure 17
1300
0000
0000
1100
0000
0000
1001
0000
1000
0010
1000
0000
0001
0010
0001
0000
,  // measure 18
1000
0000
0000
0001
0100
0000
0010
0000
0100
0000
0010
0000
0001
0000
0010
0000
,  // measure 19
0100
0000
0001
0000
1000
0000
0200
0010
0300
0010
0001
0000
1000
0010
1000
0000
,  // measure 20
0001
0000
0000
1000
0100
0000
0010
0000
0100
0000
0010
0000
1000
0000
0010
0000
,  // measure 21
0100
0000
1000
0000
0001
0000
0200
0010
0300
0010
1000
0000
0001
0010
0001
0000
,  // measure 22
1000
0000
0001
0000
1002
0000
0000
0203
0000
0000
2300
0000
0000
3200
0000
0000
,  // measure 23
0302
0000
0000
2003
0000
0000
3200
0000
0310
0001
0000
1000
0010
1000
0010
0000
,  // measure 24
0100
0000
0001
0000
1002
0000
0000
0023
0000
0000
2030
0000
0000
3020
0000
0000
,  // measure 25
0031
0000
0000
1000
0000
0000
0002
0000
0200
0000
0000
0000
0303
0000
0000
0000
,  // measure 26
1000
0000
0010
0000
0100
0000
0010
1000
0000
0010
1000
0000
1010
0000
0000
0000
,  // measure 27
1000
0000
0100
0000
0010
0000
0001
0100
0000
0100
0010
0000
1000
0001
1000
0000
,  // measure 28
0001
0000
0010
0000
0100
0000
0010
0001
0000
0010
0001
0000
0011
0000
0000
0000
,  // measure 29
0001
0000
0100
0000
0010
0000
1000
0000
0001
0010
0001
0000
1000
0010
0100
0001
,  // measure 30
1000
0000
0100
0000
0001
0000
0100
1000
0000
0100
1000
0000
1001
0000
1000
0000
,  // measure 31
0001
0000
0100
0000
1000
0000
0100
0001
0000
0100
0001
0000
1000
0001
1000
0000
,  // measure 32
0001
0000
0010
0000
1000
0000
0010
0001
0000
0010
0001
0000
1000
0001
1000
0001
,  // measure 33
0200
0000
0300
2010
0000
3000
0012
0000
1003
0010
1000
0010
0100
0001
0100
0001
,  // measure 34
1000
0000
0100
0000
0010
0000
0100
1000
0000
0100
1000
0000
2001
0000
3010
0000
,  // measure 35
0100
0000
0010
0000
1000
0000
0001
0010
0000
0010
0100
0000
1000
0001
1000
0000
,  // measure 36
0001
0000
0100
0000
0010
0000
0100
0001
0000
0100
0001
0000
1002
0000
0013
0000
,  // measure 37
0100
0000
0010
0000
0001
0000
1000
0000
0001
0100
0010
0000
1000
0001
1000
0100
,  // measure 38
0010
0000
0100
0000
0001
0000
0100
0010
0000
0100
0010
0000
0001
1000
0001
0000
,  // measure 39
0100
0000
0010
0000
0001
0000
0010
0100
0000
0010
0100
0000
0001
1000
0001
1000
,  // measure 40
0100
0000
0010
0000
1000
0000
0010
0100
0000
0010
0100
0000
1000
0001
0100
0010
,  // measure 41
2000
0000
3000
0012
0000
0003
2010
0000
3001
0010
0001
0010
0100
1000
0100
1000
,  // measure 42
0001
0000
1000
0000
0010
0000
0100
0000
1000
0100
1000
0000
0100
0000
0010
0000
,  // measure 43
1000
0000
0001
1000
0100
0000
0010
0000
0001
0000
1000
0001
0100
0000
0010
0000
,  // measure 44
1000
0000
0001
0000
0010
0000
0100
0000
0001
0100
0001
0000
0100
0000
0010
0000
,  // measure 45
0001
0000
1000
0010
0100
0000
0001
0000
1000
0000
0001
0010
0100
0000
1000
0001
,  // measure 46
1000
0000
0001
0000
0100
0000
0010
0000
0001
0010
0001
0000
0010
0000
0100
0000
,  // measure 47
0001
0000
1000
0001
0010
0000
0100
0000
1000
0000
0001
1000
0010
0000
0100
0000
,  // measure 48
0001
0000
1000
0000
0100
0000
0010
0000
1000
0010
1000
0000
0010
0000
0100
0000
,  // measure 49
2000
0000
0000
3002
0000
0000
2003
0000
0020
0000
0000
0000
3030
0000
0000
0000
,  // measure 50
0002
0000
0000
0000
,  // measure 51
0000
0000
0000
0003
,  // measure 52
1001
0000
0000
0000
2000
0000
0000
3020
0000
0000
0230
0000
0000
0320
0000
0000
,  // measure 53
1030
0000
0100
0000
1000
0000
0100
0020
0000
0000
0130
0000
1000
0000
0010
0000
,  // measure 54
1000
0000
0000
0000
0002
0000
0000
0023
0000
0000
0230
0000
0000
0320
0000
0000
,  // measure 55
0031
0000
0100
0000
0001
0000
0100
0020
0000
0000
0130
0000
0001
0000
0010
0000
,  // measure 56
0001
0000
0000
0000
2000
0000
0000
3020
0000
0000
0230
0000
0000
0302
0000
0000
,  // measure 57
0013
0000
0100
0000
1000
0000
0001
0200
0000
0000
0310
0000
1000
0000
0001
0000
,  // measure 58
0010
0000
0001
0010
0100
1000
0010
0100
,  // measure 59
1001
0000
0000
1001
0000
0000
1001
0000
1000
0010
1000
0000
0001
0010
0001
0000
,  // measure 60
1000
0000
0010
0000
0100
0000
0010
1000
0000
0001
0010
0000
0110
0000
0000
0000
,  // measure 61
1000
0000
0100
0000
0010
0000
0100
1000
0000
1000
0001
0000
1000
0010
1000
0000
,  // measure 62
0001
0000
0010
0000
0100
0000
0010
0001
0000
1000
0010
0000
0110
0000
0000
0000
,  // measure 63
0001
0000
0100
0000
0010
0000
1000
0000
0001
0010
0001
0000
1000
0010
1000
0000
,  // measure 64
0001
0000
0010
0000
1000
0000
0010
0100
0000
0010
0001
0000
0011
0000
0000
0000
,  // measure 65
1000
0000
0010
0000
0001
0000
0010
0100
0000
0010
1000
0000
0001
1000
0001
0000
,  // measure 66
1000
0000
0100
0000
0010
0001
0010
0001
0010
0000
0100
0000
1000
0010
1000
0010
,  // measure 67
1000
0000
0000
0011
0000
0000
1010
0000
0001
0010
0001
0000
1000
0010
1000
0000
,  // measure 68
0200
0000
0000
0000
0000
0000
0000
0300
;

//---------------dance-single - ----------------
#NOTEDATA:;
#CHARTNAME:;
#STEPSTYPE:dance-single;
#DESCRIPTION:;
#CHARTSTYLE:;
#DIFFICULTY:Medium;
#METER:11;
#RADARVALUES:0.477123,0.490045,0.192523,0.502235,0.025112,399.000000,376.000000,23.000000,60.000000,0.000000,0.000000,0.000000,0.000000,0.000000,0.477123,0.490045,0.192523,0.502235,0.025112,399.000000,376.000000,23.000000,60.000000,0.000000,0.000000,0.000000,0.000000,0.000000;
#CREDIT:;
#NOTES:
0000
0000
0000
0000
,
0000
0000
0000
0000
,
1002
0023
0230
0320
,
0031
0010
0100
0010
0002
0000
0013
0000
,
2001
3020
0230
0320
,
1030
0010
0100
0010
2000
0000
3010
0000
,
1002
0023
0230
2300
,
3010
0100
0001
1000
0200
0000
0310
0000
,
1001
0000
0001
0100
0010
1000
0100
0010
,
0001
0000
0000
0001
0000
0000
0001
0000
0010
0000
0001
0000
0100
0000
0010
0000
,
2000
0010
0010
0001
,
3100
0010
0100
0010
0001
1000
0010
1000
,
0002
0010
0010
1000
,
0103
0010
0100
0010
1000
0001
0010
0001
,
1000
1002
0203
2300
,
3200
0000
0302
0000
1003
0001
1000
0001
,
0020
2030
3020
0032
,
2000
0000
3003
0000
0001
0100
0010
1000
,
0200
0001
0001
0010
,
1300
0100
1000
0100
0010
0001
1000
0001
,
0200
1000
1000
0010
,
0301
0100
0001
0100
0010
1000
0001
1000
,
0100
2001
3200
0302
,
0203
0000
2300
0000
3001
1000
0001
1000
,
0020
0032
0023
2030
,
3001
0000
0000
0001
0000
0000
1000
0000
0200
0000
0000
0000
0300
0000
0000
0000
,
1000
0100
0010
0100
1000
0000
1100
0000
,
0001
1000
0010
0000
1000
0001
0010
0000
,
0001
0100
0010
0100
0001
0000
0101
0000
,
1000
0001
0010
0000
0100
1000
0001
0001
,
1000
0010
0001
0010
1000
0000
1010
0000
,
0001
0010
0100
0000
1000
0010
0100
0000
,
0001
0010
1000
0010
0001
0000
0011
0000
,
1000
0000
0000
1000
0000
0000
1000
0000
0001
0000
0100
0000
0010
0000
0010
0000
,
1000
0001
0010
0001
1000
0001
1001
0000
,
0001
0100
0001
0000
1000
0100
1000
0000
,
0001
1000
0010
1000
0001
1000
1001
0000
,
1000
0100
0010
0000
0001
0100
0010
0010
,
1000
0100
0001
0100
0010
0100
0110
0000
,
0001
0010
0100
0000
1000
0010
0100
0000
,
0001
0100
1000
0100
0010
0100
0110
0000
,
0001
0000
0000
0001
0000
0000
0001
0000
1000
0000
0100
0000
0010
0000
0010
0000
,
0001
0100
0001
0100
0010
0100
1000
0000
,
0100
0010
0100
0000
0010
1000
0001
0000
,
1000
0100
1000
0100
0010
0100
0001
0000
,
0100
0010
0100
0000
0010
0001
1000
0000
,
0001
1000
0010
0001
0010
1000
0001
0000
,
1000
0100
0010
0000
0001
0100
0010
0000
,
1000
0001
0010
1000
0010
0001
1000
0000
,
2002
0000
0000
0000
,
3003
0000
0000
0000
,
0000
0000
0000
0000
,
2001
3020
0230
0320
,
1030
0010
0100
0010
2000
0000
3010
0000
,
1002
0023
0230
0320
,
0031
0010
0100
0010
0002
0000
0013
0000
,
2001
3020
0230
0302
,
0013
0100
1000
0001
0200
0000
0310
0000
,
1001
0000
1000
0100
0010
0001
0100
0010
,
1000
0000
0000
1000
0000
0000
1000
0000
0010
0000
1000
0000
0100
0000
0000
0000
,
0010
0001
0100
0001
0010
0000
0011
0000
,
0010
0100
1000
0001
0100
0010
1000
0000
,
0010
1000
0100
1000
0010
0000
1010
0000
,
0010
0100
0001
1000
0100
0010
0001
0000
,
1000
0100
0001
0100
1000
0000
0011
0000
,
0001
0100
1000
0100
0001
0000
1010
0000
,
0001
0100
0001
1000
0100
1000
0001
0100
,
0010
0000
0000
0010
0000
0000
0010
0000
2000
0000
3002
0000
0023
0000
0000
0000
,
0230
0000
0000
0000
0000
0000
0000
0300
;

//---------------dance-single - ----------------
#NOTEDATA:;
#CHARTNAME:;
#STEPSTYPE:dance-single;
#DESCRIPTION:;
#CHARTSTYLE:;
#DIFFICULTY:Easy;
#METER:6;
#RADARVALUES:0.269054,0.288262,0.125559,0.209265,0.000000,225.000000,210.000000,15.000000,25.000000,0.000000,0.000000,0.000000,0.000000,0.000000,0.269054,0.288262,0.125559,0.209265,0.000000,225.000000,210.000000,15.000000,25.000000,0.000000,0.000000,0.000000,0.000000,0.000000;
#CREDIT:;
#NOTES:
0000
0000
0000
0000
,
0000
0000
0000
0000
,
1002
0003
0010
0000
,
0010
0100
0010
0001
,
2000
3000
0010
0000
,
0010
0100
0010
1000
,
2001
3000
0100
0000
,
0100
0010
0100
1000
,
0002
0100
0100
0103
,
2002
0000
3003
0000
,
1000
0010
1000
0010
,
0100
0010
1000
0000
,
0001
0010
0001
0010
,
0100
0010
0001
0000
,
2000
0010
0010
0000
,
3002
0000
0103
0010
,
2000
0100
0100
0000
,
3001
1000
1001
0000
,
0001
0100
0001
0100
,
0010
1000
0100
0000
,
1000
0100
1000
0100
,
0010
0001
0100
0000
,
0002
0010
0010
0000
,
2003
0000
3100
0010
,
0002
0100
0100
0000
,
0013
0100
2000
3000
,
1000
0010
1000
0000
,
0001
0100
0010
1000
,
0001
0010
0001
0000
,
1000
0100
0010
0001
,
0100
0010
1010
0000
,
0001
0100
0010
1000
,
0100
0010
0011
0000
,
2002
3003
0001
1000
,
0001
0100
0001
0000
,
1000
0100
0010
0001
,
1000
0100
1000
0000
,
0001
0100
0010
1000
,
0001
0010
0011
0000
,
1000
0100
0010
0001
,
1000
0010
1010
0000
,
2002
3003
1000
0001
,
1000
0100
0010
0001
,
0010
0100
1000
1000
,
0001
0100
0010
1000
,
0010
0100
0001
0001
,
1000
0100
0010
0001
,
0100
0010
1000
1000
,
0001
0100
0010
1000
,
0200
0000
0000
0000
,
0300
0000
0000
0000
,
0000
0000
0000
0000
,
2001
3000
0010
0000
,
0010
0100
0010
1000
,
0002
0003
0010
0000
,
0010
0100
0010
0001
,
1002
0003
0100
0000
,
0100
0010
0100
0001
,
2000
0100
0100
3100
,
2002
0000
3003
0000
,
1000
0010
0100
0000
,
0010
0100
0001
1000
,
0001
0010
0100
0000
,
0010
0100
1000
0001
,
1000
0010
1010
0000
,
0001
0010
0011
0000
,
1000
0010
0001
0010
,
1000
0100
0001
0100
,
2000
0000
0000
0000
0000
0000
0000
3000
;

//---------------dance-single - ----------------
#NOTEDATA:;
#CHARTNAME:;
#STEPSTYPE:dance-single;
#DESCRIPTION:;
#CHARTSTYLE:;
#DIFFICULTY:Beginner;
#METER:4;
#RADARVALUES:0.206873,0.230610,0.075335,0.175782,0.000000,173.000000,164.000000,9.000000,21.000000,0.000000,0.000000,0.000000,0.000000,0.000000,0.206873,0.230610,0.075335,0.175782,0.000000,173.000000,164.000000,9.000000,21.000000,0.000000,0.000000,0.000000,0.000000,0.000000;
#CREDIT:;
#OFFSET:-1.028820;
#BPMS:0.000000=164.000000
,102.000000=110.000000
,104.000000=100.000000
,136.000000=102.000000
,138.000000=104.000000
,140.000000=106.000000
,142.000000=108.000000
,144.000000=110.000000
,146.000000=112.000000
,148.000000=114.000000
,150.000000=116.000000
,152.000000=118.000000
,154.000000=120.000000
,156.000000=122.000000
,158.000000=124.000000
,160.000000=125.999992
,162.000000=128.000000
,164.000000=130.000000
,166.000000=132.000000
,168.000000=134.000000
,170.000000=136.000000
,172.000000=138.000000
,174.000000=140.000000
,176.000000=142.000000
,178.000000=144.000000
,180.000000=146.000000
,182.000000=148.000000
,184.000000=150.000000
,186.000000=152.000000
,188.000000=154.000000
,190.000000=156.000000
,192.000000=158.000000
,194.000000=160.000000
,196.000000=162.000000
,196.500000=152.000000
,197.000000=142.000000
,197.500000=132.000000
,198.000000=122.000000
,198.250000=112.000000
,198.500000=102.000000
,198.750000=92.000000
,199.000000=80.000000
,200.250000=170.000000
;
#STOPS:;
#DELAYS:;
#WARPS:;
#TIMESIGNATURES:0.000000=4=4
;
#TICKCOUNTS:0.000000=4
;
#COMBOS:0.000000=1
;
#SPEEDS:0.000000=1.000000=0.000000=0
;
#SCROLLS:0.000000=1.036585
,102.000000=1.545454
,104.000000=1.700000
,136.000000=1.666666
,138.000000=1.634615
,140.000000=1.603773
,142.000000=1.574074
,144.000000=1.545454
,146.000000=1.517857
,148.000000=1.491228
,150.000000=1.465517
,152.000000=1.440677
,154.000000=1.416666
,156.000000=1.393442
,158.000000=1.370967
,160.000000=1.349206
,162.000000=1.328125
,164.000000=1.307692
,166.000000=1.287878
,168.000000=1.268656
,170.000000=1.250000
,172.000000=1.231884
,174.000000=1.214285
,176.000000=1.197183
,178.000000=1.180555
,180.000000=1.164383
,182.000000=1.148648
,184.000000=1.133333
,186.000000=1.118421
,188.000000=1.103896
,190.000000=1.089743
,192.000000=1.075949
,194.000000=1.062500
,196.000000=1.049382
,196.500000=1.118421
,197.000000=1.197183
,197.500000=1.287878
,198.000000=1.393442
,198.250000=1.517857
,198.500000=1.666666
,198.750000=1.847826
,199.000000=2.125000
,200.250000=1.000000
;
#FAKES:;
#LABELS:0.000000=Song Start
;
#NOTES:
0000
0000
0000
0000
,
0000
0000
0000
0000
,
1001
0000
0010
0000
,
0001
0001
0001
0000
,
1000
0000
0010
0000
,
1000
1000
1000
0000
,
1001
0000
0100
0000
,
1000
1000
1000
0000
,
0001
0001
0001
0000
,
2002
0000
3003
0000
,
1000
0000
0001
0000
,
0100
0100
0100
0000
,
0001
0000
1000
0000
,
0100
0100
0100
0000
,
0020
0030
0002
0003
,
2000
3000
0010
0010
,
0020
0030
0200
0300
,
2002
0000
3003
0000
,
0001
0000
0010
0000
,
0100
0100
0100
0000
,
1000
0000
0010
0000
,
0100
0100
0100
0000
,
0002
0003
2000
3000
,
0200
0300
0010
0010
,
0020
0030
0002
0003
,
2000
0000
3000
0000
,
0001
0001
0001
0000
,
0001
0001
0001
0000
,
1000
1000
1000
0000
,
1000
1000
1000
0000
,
0001
1000
0001
0000
,
1000
0001
1000
0000
,
0001
1000
0001
0000
,
1001
0000
0020
0030
,
1000
1000
1000
0000
,
0100
0100
0100
0000
,
0010
0010
0010
0000
,
0001
0001
0001
0000
,
1000
0010
1000
0000
,
0001
0010
0001
0000
,
1000
0010
1000
0000
,
1001
0000
0020
0030
,
0001
0001
0001
0000
,
0100
0000
0010
0000
,
1000
1000
1000
0000
,
0100
0000
0010
0000
,
0001
0010
0001
0000
,
0100
0000
0010
0000
,
1000
0010
1000
0000
,
0200
0000
0000
0000
,
0300
0000
0000
0000
,
0000
0000
0000
0000
,
1001
0000
0010
0000
,
1000
1000
1000
0000
,
0001
0000
0010
0000
,
0001
0001
0001
0000
,
1001
0000
0100
0000
,
0001
0001
0001
0000
,
1000
1000
1000
0000
,
2002
0000
3003
0000
,
0001
0001
0001
0000
,
0010
0010
0010
0000
,
0100
0100
0100
0000
,
1000
1000
1000
0000
,
0001
0100
0001
0000
,
1000
0100
1000
0000
,
0001
1000
0001
0000
,
0100
0000
0100
0010
,
0200
0000
0000
0000
0000
0000
0000
0300
;
