#TITLE:VILE RUSH;
#SUBTITLE:;
#ARTIST:KAYA inspired by FACTOR-X;
#TITLETRANSLIT:;
#SUBTITLETRANSLIT:;
#ARTISTTRANSLIT:;
#GENRE:;
#CREDIT:dj kaya;
#MUSIC:VILE_RUSH.ogg;
#BANNER:vile_rush-bn.png;
#BACKGROUND:vile_rush-bg.png;
#CDTITLE:;
#SAMPLESTART:3.054;
#SAMPLELENGTH:17.333;
#SELECTABLE:YES;
#OFFSET:-0.054;
#BPMS:0.000=80.000
,20.000=90.000
,32.000=112.000
,64.000=128.000
,96.000=140.000
,128.000=155.000
,160.000=162.000
,192.000=174.000
,224.000=186.000
,254.000=200.000
,264.000=210.000
,272.000=220.000
,280.000=240.000
,284.000=180.000
,287.000=160.000
,290.000=140.000
,293.000=120.000
,296.000=80.000
;
#STOPS:225.500=0.645
,255.500=0.600
;
#BGCHANGES:;
#FGCHANGES:;

//--------------- dance-single - kaya ----------------
#NOTES:
     dance-single:
     kaya:
     Medium:
     13:
     0,0,0,0,0:
0000
0000
0000
0000
,
0000
0000
0000
0000
,
0000
0000
0000
0000
,
0001
0000
0001
0000
0001
0100
0010
0000
,
1000
0000
0000
0000
0001
0000
0000
0000
0000
1000
0100
0010
0001
1000
0100
0010
,
0000
1001
0000
0000
0000
0000
0000
0000
0000
0000
0000
0000
0000
0000
0000
0000
,
0000
0000
0000
0000
,
0001
1000
0010
0000
1000
0001
0010
0000
,
0100
0000
0100
0000
1000
0000
0000
0000
0000
0001
0010
0100
1000
0001
0010
0100
,
1000
0000
0000
0000
1001
0000
0000
0000
1000
0100
0000
0000
0100
0010
0000
0000
,
0001
0000
0000
0000
1001
0000
0000
0000
0001
0100
0000
0000
0100
0010
0000
0000
,
1000
0000
0000
0000
1100
0000
0000
0000
0100
1000
0000
0000
1000
0001
0000
0000
,
0100
0010
0000
0001
0000
0000
0000
0000
0000
0000
0000
0010
1000
0000
0100
0000
,
0010
0000
0000
0000
0011
0000
0000
0000
0001
0100
0000
0000
1000
0100
0000
0000
,
0010
0000
0000
0000
1001
0000
0000
0000
1000
0100
0000
0000
0001
0100
0000
0000
,
1000
0000
0000
0000
0101
0000
0000
0000
1000
0001
0000
0000
0100
0010
0000
0000
,
0001
0010
1000
0100
,
0010
0000
0001
0000
0100
0000
0010
0000
1000
0001
0000
1001
0000
0000
0000
0000
,
1000
0000
0001
0100
0000
0000
0010
0000
1000
0000
0001
1000
0000
0100
0000
0000
,
0010
0000
0100
0000
1000
0000
0010
0000
0100
0001
0000
0010
0000
0010
0000
0000
,
0001
1000
0000
0001
0000
0100
0000
0000
0010
0000
0100
0001
0000
0010
0000
0000
,
0100
0000
1000
0100
0000
0010
0000
1000
0000
0010
0000
0001
1000
0000
0000
0000
,
0001
0000
0010
0100
0000
1000
0000
0100
0000
0001
0000
0100
0010
0000
0000
0000
,
0001
1000
0001
0000
0000
0000
0100
0000
0010
0000
0010
1000
0000
0000
0001
0100
,
0010
0000
1000
0000
0001
0000
0010
0000
0000
0010
0000
0000
0010
0000
0000
0000
,
0110
0000
0000
0000
1000
0000
0000
0010
0000
0000
0100
0000
0001
0000
0000
0000
,
0010
0000
0000
0000
0001
0000
1000
0010
1000
0000
0001
0000
0100
0000
0000
0000
,
0010
0000
0000
0000
1000
0000
0000
0100
0000
0000
0010
0000
0000
0001
0000
0000
,
1000
0000
0001
0000
0100
0000
0000
0010
0000
0010
1000
0000
0100
0000
0000
0000
,
0011
0000
0000
0000
0001
0000
0000
0010
0000
0000
0100
0000
1000
0000
0000
0000
,
0010
0000
0000
0000
1000
0000
0001
0010
0001
0000
1000
0000
0100
0000
0000
0000
,
0001
0000
0100
0000
0010
0000
0000
0001
0000
0000
1000
0000
0010
0000
0000
0000
,
0100
0000
0100
0000
0001
0000
0000
1000
0010
0000
1000
0000
0001
0000
0100
0000
,
0010
0010
1000
1000
,
0001
0000
0000
0000
0001
0000
0000
0000
0010
0000
0010
0000
0000
0100
0000
0000
,
0010
0010
0001
0001
,
1000
0000
0000
0000
1000
0000
0000
0000
0100
0000
0010
0000
0000
0010
0000
0000
,
0001
1000
0010
0100
,
0001
0000
0000
0000
1000
0000
0000
0000
0100
0000
1000
0000
0000
0001
0000
0000
,
0100
0010
1000
0001
,
0010
0000
0000
0000
0100
0000
0000
0000
1000
0000
0100
0000
0000
0010
0000
0000
,
0001
0000
0000
0001
0000
0000
0001
0000
0100
0000
0010
0000
0100
0000
0001
0000
,
1000
0000
0000
1000
0000
0000
1000
0000
0001
0000
1000
0000
0010
0000
1000
0000
,
0100
0000
0000
0100
0000
0000
0100
0000
0010
0000
0001
0000
1000
0000
0001
0000
,
0100
0000
0000
0010
0000
0000
0100
0000
0001
0000
0000
0010
0000
0000
0100
0000
,
1000
0000
0000
1000
0000
0000
1000
0000
0001
0000
0010
0000
0100
0010
0000
0100
,
0010
0000
0000
0010
0000
0000
0010
0000
0001
0000
0100
0000
0010
1000
0000
0010
,
1000
0000
0000
0100
0000
0000
0010
0000
0001
0000
0000
0010
0000
0000
0100
0000
,
1000
0000
0000
0010
0000
0000
0100
0000
0001
0000
0000
0100
0000
0000
0010
0000
,
1001
0000
1000
0001
0010
0100
1000
0010
,
0100
0000
1000
0100
0001
0001
0010
0100
,
1100
0000
0011
0000
0010
0100
0001
1000
,
0010
0100
1000
0000
0010
0100
0001
1000
,
1010
1100
0011
0101
,
1000
0000
0000
1000
0000
0000
0001
0000
0000
0001
0000
0000
0100
0000
0000
0000
,
0010
0000
0000
1000
0000
0000
0001
0000
0000
0000
0010
0000
0100
0000
0001
0000
,
0100
1000
0010
0100
0000
0000
0001
0000
,
1000
0100
0010
0000
0001
1000
0010
0000
,
0100
0001
1000
0000
0100
1000
0001
0000
,
0010
0010
0000
0100
1000
0000
0010
0100
,
0001
0100
0001
0000
1001
0000
1100
0000
,
0001
1000
0100
0000
1001
0000
0101
0000
,
1000
0001
0100
0000
1000
0100
0001
0000
,
0001
0010
0100
0010
0001
0000
0010
0100
,
0000
1100
0000
1100
0000
1100
0000
1100
,
0000
0011
0000
0011
0000
0011
0000
0011
,
0000
0101
0000
0101
0000
0101
0000
1000
,
0010
0100
0001
0010
0100
1000
0001
0000
,
0001
1000
0000
1010
0000
1010
0000
0011
,
0000
0011
0000
0101
0000
0101
0000
1000
,
0001
0100
0010
1000
0001
0100
0010
1000
,
0001
0000
0000
0000
0000
0100
0100
0000
,
0000
0000
0000
1000
1000
0000
0000
0000
,
0000
0010
0010
0000
0000
0000
0000
1001
,
1001
0000
0000
0000
;

//--------------- dance-single - kaya ----------------
#NOTES:
     dance-single:
     kaya:
     Hard:
     16:
     0,0,0,0,0:
0000
0000
0000
0000
,
0000
0000
0000
0000
,
0000
0000
0000
0000
,
0001
0000
1000
0000
0100
0010
0100
0000
,
1000
0000
0000
0000
0001
0000
0000
0000
0000
0001
0100
0010
1000
0001
0100
0010
,
1000
0000
0001
0000
0010
0100
1000
0000
,
0001
0000
1000
0000
0010
0100
0001
0000
,
0010
0000
0000
0001
0000
0000
0100
0000
0000
1000
0000
0000
0000
0001
0010
0000
,
2000
0000
0001
0000
3100
0000
0000
1000
0001
1000
0010
0000
0100
0001
1000
0100
,
0010
0000
0001
0000
1001
0000
0000
0001
0100
0000
1000
0000
0001
0010
0100
0000
,
0001
0000
1000
0000
1001
0000
0000
1000
0100
0000
0001
0000
0100
0010
0001
0000
,
0100
0000
0010
0000
1010
0000
0000
0001
0100
0000
0010
0000
1000
0001
0010
0000
,
0100
0010
0000
1000
0000
0000
0000
0000
0000
0000
0000
0001
0100
0010
0100
0000
,
1000
0000
0010
0000
0101
0000
0000
1000
0010
0000
0001
0000
1000
0100
0010
0000
,
1000
0000
0001
0000
0011
0000
0000
0010
0100
0000
0001
0000
0100
0010
0001
0000
,
1000
0000
0001
0000
0101
0000
0000
0100
0010
0000
1000
0000
0100
1000
0001
0000
,
0020
0100
0100
0130
,
1000
0001
1000
0000
0010
0000
0100
0000
1000
0100
0000
0001
0000
0001
0000
0000
,
0010
0000
0001
0100
0000
0100
0010
1000
0010
0000
1000
0100
0000
0100
0000
0000
,
0001
0100
0000
1000
0000
0100
0000
0010
1000
0010
0000
0100
0000
1000
0000
0000
,
0100
0010
0000
0001
0000
0010
0000
0100
1000
0000
0010
0100
0000
0001
0000
0000
,
1000
0000
0001
0100
0000
1000
0100
0010
0000
1000
0100
0010
0000
0001
0000
0000
,
1000
0000
0001
0010
0000
0100
0010
0001
0000
0100
0010
0001
0000
0010
0000
0000
,
1000
0001
0010
0000
0000
0000
0100
0010
0100
0000
1000
0100
0000
0010
0000
0010
,
0002
0000
1000
0000
1003
0000
1010
0000
0000
0101
0000
0000
1010
0000
0000
0000
,
0011
0000
0000
0000
1000
0000
0001
0010
0000
0000
0100
0000
0110
0000
0000
0000
,
0100
0000
0000
0000
1000
0000
0010
1000
0010
0100
0001
0000
0010
0000
0000
0000
,
0100
0000
0001
0000
1000
0000
0000
0010
0000
0000
0001
0000
0100
0000
0000
0000
,
1000
0000
0100
0000
0001
0000
0000
0010
0000
0010
0100
0000
1000
0000
0001
0000
,
1001
0000
0000
0000
1000
0000
0100
0010
0000
0000
1000
0000
0001
0000
0000
0000
,
0100
0000
0000
0000
0010
0000
0001
1000
0001
0100
0010
0000
1000
0000
0000
0000
,
0001
0000
0010
0000
0100
0000
1000
0001
0000
0000
0100
0000
0010
0000
0000
0000
,
0002
0000
0013
0000
1000
0000
0000
0100
1000
0100
0010
0000
0001
0000
1000
0000
,
0101
0000
0000
1000
0001
0000
0100
0000
0001
0000
0010
0000
0001
1000
0000
1000
,
0001
0000
0000
0010
0001
0000
1000
0000
0001
0000
0011
0000
0000
1100
0000
0001
,
1000
0000
0000
0001
1000
0000
0010
0000
1000
0000
0100
0000
1000
0001
0000
0001
,
1000
0000
0000
0100
0010
0000
0001
0000
1000
0000
1010
0000
0000
0101
0000
1000
,
0001
0000
0000
0010
0100
0000
1000
0000
0001
0000
1000
0000
0100
0010
0000
0010
,
0001
0000
0000
1000
0100
0000
1000
0000
0001
0000
0011
0000
0000
1010
0000
0010
,
1000
0000
0000
0001
0100
0000
0010
0000
1000
0000
0001
0000
0100
0010
0000
0010
,
2000
0000
3000
0001
0010
0000
0100
0000
1000
0000
1100
0000
0000
0011
0000
0001
,
1000
0000
0010
1000
0010
0000
0100
0000
0001
0000
1000
0000
0100
0000
0010
0100
,
0001
0000
0100
0010
0100
0000
1000
0000
0001
0000
1000
0000
0010
0000
0100
0001
,
1000
0000
0001
0100
0001
0000
1000
0000
0010
0000
0100
0000
0001
0000
1000
0100
,
1000
0000
0010
1000
0010
0000
0100
0000
0001
0000
0010
0001
0010
0000
0100
0000
,
1000
0000
0001
1000
0001
0000
0010
0000
0100
0000
1000
0000
0100
0010
0000
0010
,
0001
0000
1000
0001
1000
0000
0010
0000
0100
0000
0001
0000
0010
0100
0000
0100
,
1000
0000
0001
0100
0010
0000
1000
0000
0001
0000
1000
0100
0010
0000
0001
0000
,
0200
0000
0310
1000
0001
0000
0100
0000
0010
0000
1000
0001
0010
0000
0100
0000
,
1001
0000
0000
0000
1100
0000
1000
0000
0001
0000
0011
0000
0010
0001
0100
0010
,
1000
0000
0000
0000
1001
0000
1000
0010
1000
0100
0010
0000
0001
0000
0010
0000
,
0110
0000
1001
0000
0001
0100
0110
1000
,
0100
0000
0110
0000
0001
0010
0100
1000
0010
0000
0000
0000
0100
0000
0001
0000
,
0001
0010
0001
0000
1001
0000
0010
0000
1100
0000
0010
0000
0101
0000
0000
0000
,
1000
0000
0001
0100
0010
0000
0001
0000
1000
0100
0010
0000
1000
0000
0000
0000
,
0001
0000
0010
0100
0001
0000
1000
0000
0000
0000
0010
0000
0100
0000
0010
0000
,
0002
0000
0000
0000
0000
0000
0000
0000
1003
0000
0000
0000
0001
0000
0000
0000
0100
0000
0000
0000
0010
0000
0000
0000
2000
3000
0000
0000
0000
0000
0000
0000
0001
0000
0000
0000
1000
0000
0000
0000
0001
0000
0000
0000
0000
0000
0000
0000
0010
0000
0000
0000
0000
0000
0000
0000
0100
0000
0000
0000
1000
0000
0000
0000
,
0010
0000
0100
0000
0001
0000
0000
0000
1000
0001
0100
0000
0010
0000
0100
0001
,
0010
0000
0100
0000
1000
0000
0000
0000
1000
0000
0100
0010
0001
0000
0100
0010
,
1000
0000
1001
0000
0000
0000
0110
0000
0000
0000
0000
0000
0001
0000
0010
0001
,
1000
0001
0100
0000
0110
0000
0010
0000
1001
0000
0000
0000
1000
0000
0001
1000
,
0100
0000
1000
0000
0010
1000
0100
0010
0001
0000
0000
0000
1000
0000
0001
0100
,
0010
0000
1000
0000
0001
1000
0100
1000
0001
0000
0000
0000
0100
0000
0010
1000
,
0010
0000
0000
0000
0000
0000
0000
0000
0100
0000
0000
0000
0000
0000
0000
0000
0001
0000
0000
0000
0000
0000
0000
0000
0010
0000
0000
0000
0000
0000
0000
0000
0200
0000
0000
0000
0000
0000
0000
0000
0310
0000
0000
0000
0001
0000
0000
0000
1000
0000
0000
0000
0000
0000
0000
0000
0002
0003
0000
0000
0000
0000
0000
0000
,
1000
0100
0010
0000
0001
0000
0100
0000
0010
0000
1000
0000
0001
0000
0100
0000
,
0001
0010
0100
0000
1000
0000
0001
0000
1000
0000
0010
0000
1000
0000
0001
0000
,
0010
0100
1000
0000
0001
0000
1000
0001
0000
1000
0001
0000
1000
0001
0000
0100
,
0010
0000
0000
0000
1000
0000
0100
0010
0100
0010
0001
0000
0100
0000
0010
0000
,
2000
0000
3001
0000
0010
0000
0100
0010
0100
0000
1000
0000
0010
0000
0100
0000
,
0001
0000
1000
0000
0100
0000
0010
0100
0010
0000
0001
0000
1000
0000
0010
0000
,
2000
3000
0001
0000
1000
0000
0001
0000
0010
0000
0100
0000
1000
0001
1000
0002
,
2000
3003
0000
0000
1000
0010
0202
0303
,
0000
0000
0001
0100
2020
3030
0000
0000
,
1000
0000
0100
0000
0022
0000
0033
0000
1000
0000
0001
1000
0001
0010
0100
0000
,
2200
0000
0000
3300
;
