#VERSION:0.83;
#TITLE:うさぬこぬんぬんファンタジー!;
#SUBTITLE:;
#ARTIST:ARM (IOSYS) feat. 普透明度;
#TITLETRANSLIT:Usanuko nun nun fantasy!;
#SUBTITLETRANSLIT:;
#ARTISTTRANSLIT:ARM (IOSYS) feat. Futoumeido;
#GENRE:;
#CREDIT:;
#MUSIC:Usanuko nun nun fantasy!.ogg;
#BANNER:Usanuko nun nun fantasy!.png;
#BACKGROUND:Usanuko nun nun fantasy!-bg.png;
#CDTITLE:;
#SAMPLESTART:72.000;
#SAMPLELENGTH:15.000;
#SELECTABLE:YES;
#OFFSET:0.000;
#BPMS:0.000=160.000;
#STOPS:;
#TIMESIGNATURES:0.000=4=4;
#BGCHANGES:;
#FGCHANGES:;

//--------------- dance-single - Extraordiberry ----------------
#NOTEDATA:;
#STEPSTYPE:dance-single;
#DESCRIPTION:Extraordiberry;
#DIFFICULTY:Beginner;
#METER:1;
#RADARVALUES:0,0,0,0,0;
#CREDIT:Extraordiberry;
#NOTES:
0000
0000
0000
0000
,
0000
0000
0000
0000
,
0000
0000
0000
0000
,
1000
0000
0000
0000
,
0000
0000
0000
0000
,
0001
0000
0000
0000
,
0100
0000
0000
0000
,
0001
0000
0000
0000
,
0000
0000
0000
0000
,
0000
0000
0000
0000
,
0000
0000
0000
0000
,
1000
0000
0000
0000
,
0000
0000
0000
0000
,
0001
0000
0000
0000
,
0010
0000
0000
0000
,
0001
0000
0000
0000
,
0000
0000
0000
0000
,
1000
0000
0000
0000
,
0000
0000
0000
0000
,
0001
0000
0000
0000
,
0000
0000
0000
0000
,
0100
0000
0000
0000
,
0000
0000
0000
0000
,
0010
0000
0000
0000
,
0000
0000
0000
0000
,
1000
0000
0000
0000
,
0001
0000
0000
0000
,
0010
0000
0000
0000
,
0100
0000
0000
0000
,
1000
0000
0000
0000
,
0010
0000
0000
0000
,
0100
0000
0000
0000
,
0100
0000
0000
0000
,
0001
0000
0000
0000
,
0000
0000
0000
0000
,
1000
0000
0000
0000
,
0000
0000
0000
0000
,
0100
0000
0000
0000
,
0000
0000
0000
0000
,
0010
0000
0000
0000
,
0000
0000
0000
0000
,
0001
0000
0000
0000
,
0000
0000
0000
0000
,
0000
0000
0000
0000
,
0000
0000
0000
0000
,
1000
0000
0000
0000
,
0000
0000
0000
0000
,
0000
0000
0000
0000
,
1000
0000
0000
0000
,
0100
0000
0000
0000
,
1000
0000
0000
0000
,
0001
0000
0000
0000
,
0100
0000
0000
0000
,
0000
0000
0000
0000
,
0010
0000
0000
0000
,
1000
0000
0000
0000
,
0001
0000
0000
0000
,
0010
0000
0000
0000
,
0100
0000
0000
0000
,
1000
0000
0000
0000
,
0001
0000
0000
0000
,
0000
0000
0000
0000
,
1000
0000
0000
0000
,
0100
0000
0000
0000
,
1000
0000
0000
0000
,
0001
0000
0000
0000
,
1000
0000
0000
0000
,
0001
0000
0000
0000
,
1000
0000
0000
0000
,
0000
0000
0000
0000
,
0001
0000
0000
0000
,
0000
0000
0000
0000
,
0010
0000
0000
0000
,
0000
0000
0000
0000
,
0100
0000
0000
0000
,
1000
0000
0000
0000
,
0100
0000
0000
0100
;

//--------------- dance-single - Extraordiberry ----------------
#NOTEDATA:;
#STEPSTYPE:dance-single;
#DESCRIPTION:Extraordiberry;
#DIFFICULTY:Easy;
#METER:7;
#RADARVALUES:0,0,0,0,0;
#CREDIT:Extraordiberry;
#NOTES:
0000
0000
0000
0000
,
0000
0000
0000
0000
,
0000
0000
0000
0000
,
1001
0000
1001
0000
,
1000
1000
0001
0000
,
1000
0100
0010
0000
,
0110
0000
1001
0000
,
0001
0100
0010
0000
,
1000
0100
0010
0000
,
0000
1001
0000
1000
,
0000
1001
0000
0001
,
1000
0100
0010
0000
,
0001
0100
0010
0000
,
1001
0000
0110
0000
,
0110
0000
1001
0000
,
2000
0000
0000
0000
,
0000
0000
0000
3000
,
0001
0100
0010
0000
,
1000
0100
0010
0000
,
0001
0100
0010
1000
,
0001
0001
1000
1000
,
0001
0010
0100
0000
,
0100
1000
0010
0000
,
0110
0000
1001
0000
,
1000
0001
1001
0000
,
0001
0100
0010
1000
,
0001
0010
0100
0000
,
1000
0010
0100
0001
,
1000
1000
0001
0001
,
1000
0100
0010
0001
,
1000
0001
1001
0000
,
0001
0100
0010
1000
,
0001
0001
1000
0000
,
0001
0100
1000
0000
,
1000
0100
0001
0000
,
1000
1000
0001
0000
,
0110
0000
1001
0000
,
1000
0100
0001
0000
,
0001
0100
1000
0000
,
0001
0001
1000
0000
,
1001
0000
0110
0000
,
2000
0000
0000
3000
,
0200
0000
0000
0300
,
0020
0000
0000
0030
,
0002
0000
0000
0003
,
1000
0010
0100
0000
,
2002
0000
0000
0000
,
3003
0000
0000
0000
,
1000
0100
0010
0001
,
1000
0010
0100
0000
,
0001
0010
0100
1000
,
0001
0100
0010
0000
,
1000
1000
0001
0000
,
0001
0001
1000
0000
,
1000
0000
1001
0000
,
0001
1000
1001
0000
,
0001
0100
0010
1000
,
0100
0010
0001
0000
,
0001
0100
0010
1000
,
0100
0010
0001
0000
,
1001
0000
1001
0000
,
0001
0001
1000
0000
,
0001
0100
0010
0000
,
0110
0000
1001
0000
,
1000
0100
0001
0000
,
0001
0100
1000
0000
,
0001
0100
0010
1000
,
0001
0001
1001
0000
,
1000
0100
0010
0000
,
0001
0100
0010
0000
,
0000
1001
0000
0001
,
0000
0110
0000
1000
,
0001
0100
0010
0000
,
1000
0100
0010
0000
,
1001
0000
0110
0000
,
0110
0000
1001
0000
,
1000
0001
1000
2002
,
0000
0000
0000
0000
,
3003
0000
0000
0000
;

//--------------- dance-single - Extraordiberry ----------------
#NOTEDATA:;
#STEPSTYPE:dance-single;
#DESCRIPTION:Extraordiberry;
#DIFFICULTY:Medium;
#METER:12;
#RADARVALUES:0,0,0,0,0;
#CREDIT:Extraordiberry;
#NOTES:
0000
0000
0000
0000
,
0000
0000
0000
0000
,
0000
0000
0000
0000
,
1000
1000
0000
0000
0001
0001
0000
0000
,
1000
0000
1000
0000
0010
0000
0100
0000
0001
0000
0000
0001
0000
0000
0010
0000
,
0001
0100
0010
1000
0001
0010
0100
0000
,
1100
0000
0000
0110
0000
0000
0000
0000
0022
0000
0000
0000
0033
0000
0000
0000
,
0001
0000
1000
0000
0001
0000
0000
0200
0000
0000
0301
0000
1000
0000
0000
0200
,
0000
0000
1300
0000
0001
0000
0000
0200
0000
0000
0301
0000
1000
0000
0100
0000
,
0010
0000
0001
0000
0002
0000
0000
0100
0000
0000
0103
0000
0200
0000
0000
0010
,
0000
0000
0310
0000
0020
0000
0000
1000
0000
0000
1030
0000
1000
0000
0000
0000
,
1000
0000
0001
0000
1000
0000
0000
0200
0000
0000
1300
0000
0001
0000
0000
0200
,
0000
0000
0301
0000
1000
0000
0000
0200
0000
0000
1300
0000
0001
0000
0000
0000
,
0101
0000
0000
0101
0000
0000
0000
0000
1010
0000
0000
1010
0000
0000
0000
0000
,
0110
0000
0000
0110
0000
0000
0000
0000
1001
0000
0000
0000
1001
0000
0000
0000
,
1000
0100
0010
0001
,
1000
1000
0001
0000
,
1000
0010
0100
0001
1000
0100
0010
0000
,
0001
0100
1000
0100
0002
0000
1003
0000
,
0001
0010
0100
0000
1000
0010
0100
0000
,
0001
1001
1000
0110
,
0001
0010
0100
1000
0001
0100
0010
0000
,
1000
0100
0001
0100
2000
0000
3001
1000
,
0010
0100
0000
0001
0010
0100
0000
1000
,
0010
0110
2002
3003
,
1000
0000
0100
0000
0010
0000
0000
0200
0000
0000
0310
0000
0001
0000
1000
0000
,
0001
0000
0100
0000
0010
0000
0000
0200
0000
0000
0310
0000
1000
0000
0000
0000
,
0001
0000
0010
0000
0100
0000
0000
0020
0000
0000
0130
0000
1000
0000
0001
0000
,
1000
1001
0001
0110
,
1000
0000
0100
0000
0010
0000
0000
0200
0000
0000
0310
0000
0001
0000
1000
0000
,
0001
0000
0100
0000
1000
0000
0000
0200
0000
0000
0310
0000
1000
0000
0000
0000
,
0001
1000
0001
0000
1000
0000
0000
0000
0001
1000
0001
0000
1000
0000
0000
0000
,
1001
0110
1001
1000
,
0001
0100
1000
0100
0001
1000
0010
0000
,
1000
0010
0001
0010
1000
0001
0100
0000
,
0001
0100
1000
0000
0100
0001
1000
0000
,
1001
0110
1001
0110
,
1000
0100
0001
0100
1000
0001
0010
0000
,
0001
0010
1000
0010
0001
1000
0100
0000
,
1000
0100
0001
0000
0100
1000
0001
0000
,
1100
0011
1100
0011
,
1000
0002
0000
0010
0000
1000
1003
0000
,
0001
2000
0000
0010
0000
0001
3001
0000
,
1000
0100
0010
0000
0001
0100
0010
0000
,
1000
0200
0000
0010
0000
1000
1300
0000
,
1001
0001
0110
1000
,
2002
0000
0000
0000
,
3003
0000
0000
0000
0000
1000
0001
0000
,
1000
0000
1000
0000
0001
0000
0000
0020
0000
0000
0130
0000
1000
0000
0001
0000
,
0100
1000
0100
0002
0000
1000
1003
0000
,
0001
0000
0001
0000
1000
0000
0000
0020
0000
0000
0130
0000
0001
0000
1000
0000
,
0100
0001
0100
2000
0000
0001
3001
0200
,
0000
0000
0301
0000
1000
0000
0000
0200
0000
0000
0310
0000
0100
0000
2000
0000
,
0000
0000
3010
0000
0100
0000
0000
0002
0000
0000
0000
0000
1003
0000
0000
0000
,
0011
0000
0000
0011
0000
0000
0000
0000
1010
0000
0000
1010
0000
0000
0000
0000
,
1001
0000
0000
0110
0000
0000
0000
0000
1001
0000
0000
0000
0001
0000
0000
0000
,
1000
0000
1000
0000
0001
0000
0000
0200
0000
0000
0310
0000
1000
0000
0001
0000
,
0010
1000
0010
0002
0000
1000
1003
0000
,
0001
0000
0001
0000
1000
0000
0000
0200
0000
0000
0310
0000
0001
0000
1000
0000
,
0010
0001
0010
2000
0000
0001
3001
0000
,
1000
1000
0000
0000
0001
0001
0000
0000
,
1000
0000
1000
0000
0100
0000
0010
0000
0001
0000
0000
0001
0000
0000
0100
0000
,
0001
0010
0100
1000
0001
0100
0010
0000
,
1010
0000
0000
0110
0000
0000
0000
0000
0202
0000
0000
0000
0303
0000
0000
0000
,
1000
0000
0000
0100
0000
0010
0100
0000
1000
0000
0001
0000
0100
0000
0000
0000
,
0001
0000
0000
0000
0000
0000
0000
0000
0000
0100
0000
0000
0000
0000
0000
0010
0000
0000
0100
0000
0000
0000
0000
0000
0001
0000
0000
0000
1000
0000
0000
0000
0100
0000
0000
0000
0010
0000
0000
0000
0000
0000
0000
0000
0000
0000
0000
0000
,
0001
0100
0010
1000
0000
0000
1000
0100
0010
0001
0000
0000
,
0001
1000
0001
1000
0001
1000
0010
0000
0000
1001
0000
0000
,
1000
0000
0001
0000
0100
0000
0000
0020
0000
0000
0130
0000
0001
0000
0000
0020
,
0000
0000
0130
0000
1000
0000
0000
0020
0000
0000
0130
0000
0001
0000
0010
0000
,
0100
0000
1000
0000
2000
0000
0000
0010
0000
0000
3010
0000
0020
0000
0000
0100
,
0000
0000
0130
0000
0200
0000
0000
0001
0000
0000
0301
0000
0001
0000
0100
0000
,
0001
0000
1000
0000
0100
0000
0000
0020
0000
0000
0130
0000
1000
0000
0000
0020
,
0000
0000
0130
0000
0001
0000
0000
0020
0000
0000
0130
0000
1000
0000
0000
0000
,
1010
0000
0000
1010
0000
0000
0000
0000
0101
0000
0000
0101
0000
0000
0000
0000
,
0110
0000
0000
0110
0000
0000
0000
0000
1001
0000
0001
0000
1001
0000
0000
0000
,
1000
0000
0000
0100
0000
0010
0001
0000
1000
0000
0000
0000
2002
0000
0000
0000
,
0000
0000
0000
0000
,
3003
0000
0000
0000
;

//--------------- dance-single - Extraordiberry ----------------
#NOTEDATA:;
#STEPSTYPE:dance-single;
#DESCRIPTION:Extraordiberry;
#DIFFICULTY:Hard;
#METER:15;
#RADARVALUES:0,0,0,0,0;
#CREDIT:Extraordiberry;
#NOTES:
0000
0000
0000
0000
,
0000
0000
0000
0000
,
0000
0000
0000
0000
,
1100
1100
0000
0000
0101
0101
0000
0000
,
1000
0000
1000
0000
0100
0000
1000
0000
0001
0100
0001
0100
0000
0000
0001
0000
,
1000
0100
0001
0100
1000
0001
0100
0000
,
0101
0000
0000
0110
0000
0000
0010
0000
2010
0000
0000
0000
3100
0000
0000
0000
,
1000
0000
1000
0000
0001
0100
0000
0020
0000
0000
0130
0000
0001
0010
0000
0200
,
0000
0000
0310
0000
0001
0100
0000
2000
0000
0000
3100
0000
0001
0000
1000
0000
,
0100
0000
0010
0000
0011
0000
0000
1000
0000
0000
0010
0000
1010
0000
0000
0001
,
0000
0000
0010
0000
0011
0000
0000
1000
0000
0000
0010
0000
0110
0000
0100
0000
,
0001
0000
0001
0000
1000
0100
0000
0020
0000
0000
0130
0000
1000
0010
0000
0200
,
0000
0000
0310
0000
1000
0100
0000
0002
0000
0000
0103
0000
1000
0000
0001
0000
,
0101
0000
0000
1010
0000
0000
0000
0000
1100
0000
0000
0011
0000
0000
0000
0000
,
0110
0000
0000
0110
0000
0000
0000
0000
1000
0000
0001
0000
1001
0000
0000
0000
,
1000
0010
0100
0001
,
2000
0100
0001
3010
,
1000
0000
0001
0010
0100
0000
0010
0000
0001
0000
1000
0000
0010
0000
0100
0000
,
0001
1000
0100
1000
0020
0000
0130
0000
,
0001
0000
1000
0100
0010
0000
0100
0000
1000
0000
0001
0000
0100
0000
0010
0000
,
0100
0100
0001
0001
0010
0010
0001
0001
,
1000
0000
0001
0100
0010
0000
0100
0000
0001
0000
1000
0000
0100
0000
0010
0000
,
0100
0000
1000
0001
0100
0000
0010
0000
2000
0000
0000
0000
3001
0000
1000
0000
,
0100
0002
0000
1003
0010
0002
0000
1003
,
1010
1001
0012
0103
,
0001
0000
1000
0100
1000
0100
0000
0020
0000
0000
0130
0000
1000
0000
0010
0000
,
0100
0000
0100
0000
0001
0010
0000
0200
0000
0000
0310
0000
0001
0000
0000
0000
,
1000
0000
0001
0100
0001
0100
0000
0020
0000
0000
0130
0000
0001
0000
0010
0000
,
0100
0100
1000
1000
0010
0010
1000
1000
,
0001
0000
1000
0100
1000
0100
0000
0020
0000
0000
0130
0000
1000
0000
0010
0000
,
0100
0000
0001
1000
0100
0010
0001
2000
0000
0000
0000
0000
3001
0000
0000
0000
,
1000
0001
0100
0010
1000
0000
0000
0000
1000
0001
0100
0010
1000
0000
0000
0000
,
1100
0100
0110
0010
0012
0000
0103
0000
,
0001
0100
1000
0001
0010
1000
0001
0000
,
1000
0100
0001
1000
0010
0001
1000
0000
,
0001
0100
1000
0000
0001
0010
1000
0000
,
0100
0010
0110
0000
1000
0001
1001
0000
,
1000
0010
0001
1000
0100
0001
1000
0000
,
0001
0010
1000
0001
0100
1000
0001
0000
,
1000
0010
0001
0000
1000
0100
0001
0000
,
1000
0100
1100
0000
0001
0010
0011
0000
,
1000
0010
0100
0002
0000
1000
1000
1003
,
0001
0010
0100
2000
0000
0001
0001
3001
,
1000
0010
0200
0000
0301
0010
0200
0000
,
1300
0001
0100
0020
0000
0100
0100
0130
,
0110
1010
1100
0011
,
2002
0000
0000
0000
,
3003
0000
0000
0000
0000
1000
0100
0010
,
0001
0000
1000
0000
0001
0100
0010
0200
0000
0000
0310
0000
1000
0000
0100
0000
,
0001
0100
1000
2100
0000
0010
3010
0000
,
1000
0000
1000
0000
0001
0010
0000
0200
0000
0000
0310
0000
0001
0000
0100
0000
,
1000
0100
0001
0102
0000
0010
0013
0200
,
0000
0000
0310
0000
0001
1000
0000
0020
0000
0000
1030
0000
0001
0000
0020
0000
,
0000
0000
0130
0000
1000
0001
0000
0200
0000
0000
0310
0000
1000
0000
0001
0000
,
0011
0000
0000
1100
0000
0000
1000
0000
1010
0000
0000
0101
0000
0000
0001
0000
,
1001
0000
0000
0110
0000
0000
1000
0000
2001
0000
0000
0000
3100
0000
0000
0000
,
1000
0000
0001
0000
1000
0010
0100
0020
0000
0000
0130
0000
0001
0000
0010
0000
,
1000
0010
0001
0012
0000
0100
0103
0000
,
0001
0000
0001
0000
1000
0100
0000
0020
0000
0000
0130
0000
1000
0000
0010
0000
,
0001
0010
1000
2010
0000
0100
3100
0000
,
0011
0011
0000
0000
1010
1010
0000
0000
,
0001
0000
0001
0000
0010
0000
0001
0000
1000
0010
1000
0010
0000
0000
1000
0000
,
0001
0010
1000
0001
0100
1000
0001
0000
,
1010
0000
0000
0110
0000
0000
0100
0000
0102
0000
0000
0000
0013
0000
0000
0000
,
0001
0010
0100
1000
0000
0010
0100
0000
0001
0000
1000
0000
1100
0000
0000
0000
,
1000
0000
0000
0100
0000
0000
0010
0000
0000
0001
0000
0000
0000
0000
0000
0100
0000
0000
0010
0000
0000
0000
0000
0000
1000
0000
0000
0000
0001
0000
0000
0000
0010
0000
0000
0000
0011
0000
0000
0000
0000
0000
0000
0000
0000
0000
0000
0000
,
0001
0100
0010
1010
0000
0000
1000
0100
0010
0011
0000
0000
,
0001
1000
0010
0100
0001
1000
2001
0000
0000
3100
0000
0000
,
1000
0000
1000
0000
0001
0010
0000
0200
0000
0000
0310
0000
0001
0100
0000
0020
,
0000
0000
0130
0000
0001
0010
0000
2000
0000
0000
3010
0000
0001
0000
1000
0000
,
0010
0000
0100
0000
0102
0000
0000
0013
0000
0000
0100
0000
2100
0000
0000
3010
,
0000
0000
0100
0000
0102
0000
0000
0013
0000
0000
0100
0000
0110
0000
0010
0000
,
0001
0000
0001
0000
1000
0010
0000
0200
0000
0000
0310
0000
1000
0100
0000
0020
,
0000
0000
0130
0000
1000
0010
0000
0002
0000
0000
0013
0000
1000
0000
0001
0000
,
0011
0000
0000
1100
0000
0000
0000
0000
1010
0000
0000
0101
0000
0000
0000
0000
,
0110
0000
0000
0110
0000
0000
0000
0000
1000
0000
0001
0000
1001
0000
0000
0000
,
1000
0100
0010
0001
0000
0100
0010
0000
0110
0000
0000
0000
2002
0000
0000
0000
,
0000
0000
0000
0000
,
3003
0000
0000
0000
;

//--------------- dance-double - Extraordiberry ----------------
#NOTEDATA:;
#STEPSTYPE:dance-double;
#DESCRIPTION:Extraordiberry;
#DIFFICULTY:Easy;
#METER:7;
#RADARVALUES:0,0,0,0,0;
#CREDIT:Extraordiberry;
#NOTES:
00000000
00000000
00000000
00000000
,
00000000
00000000
00000000
00000000
,
00000000
00000000
00000000
00000000
,
00011000
00000000
00011000
00000000
,
00001000
00010000
00010000
00000000
,
00001000
01000000
00010000
00010000
,
10000000
01000000
00100000
00000000
,
00001000
00010000
00000100
00000000
,
00001000
00000010
00010000
00000000
,
00001000
00010000
00011000
00000000
,
00001000
00010000
00011000
00000000
,
00010000
00001000
01000000
00000000
,
00010000
00100000
00001000
00000000
,
00020000
00030000
00002000
00003000
,
00020000
00030000
00002000
00003000
,
00020000
00000000
00000000
00000000
,
00000000
00000000
00030000
00000000
,
00001000
01000000
00010000
00000000
,
10000000
01000000
00100000
00000000
,
00001000
00010000
00000100
00001000
,
00000001
00000100
00000010
00000000
,
00010000
00001000
01000000
00010000
,
10000000
01000000
00010000
00000000
,
00001000
00000000
00010000
00000000
,
00001000
00010000
00011000
00000000
,
00010000
00000100
00001000
00000001
,
00000100
00000010
00010000
00000000
,
00001000
00100000
00010000
10000000
,
00100000
01000000
00001000
00000000
,
00010000
00000100
00001000
00000001
,
00000100
00001000
00010000
00000000
,
00001000
00010000
00001000
00010000
,
00001000
00010000
00011000
00000000
,
00001000
00100000
00010000
00000000
,
10000000
01000000
00100000
00000000
,
00001000
00001000
00010000
00010000
,
00002000
00003000
00020000
00030000
,
00010000
00000010
00001000
00000000
,
00000001
00000100
00000010
00000000
,
00010000
00010000
00001000
00001000
,
00020000
00030000
00002000
00003000
,
00020000
00000000
00000000
00030000
,
00002000
00000000
00000000
00003000
,
02000000
00000000
00000000
03000000
,
00020000
00000000
00000000
00030000
,
10000000
01000000
00100000
00001000
,
00020000
00000000
00000000
00000000
,
00030000
00000000
00000000
00000000
,
00001000
01000000
00010000
10000000
,
01000000
00100000
00100000
00000000
,
00001000
00010000
00000100
00001000
,
00000001
00000100
00000100
00000000
,
00000010
00010000
00001000
00000000
,
00100000
00001000
00010000
00000000
,
00002000
00003000
00020000
00030000
,
00001000
00010000
00011000
00000000
,
00010000
00000010
00001000
00000001
,
00000010
00000100
00000100
00000000
,
00010000
00001000
00100000
00010000
,
10000000
00100000
00100000
00000000
,
00011000
00000000
00011000
00000000
,
00001000
00010000
00010000
00000000
,
00001000
00100000
00010000
00010000
,
10000000
00100000
01000000
00000000
,
00001000
00010000
00100000
00000000
,
10000000
00010000
00100000
00000000
,
01000000
00000000
00010000
00000000
,
00001000
00010000
00011000
00000000
,
00010000
00001000
00100000
00000000
,
00010000
01000000
00001000
00000000
,
00010000
00001000
00011000
00000000
,
00010000
00001000
00011000
00000000
,
00001000
00010000
00000010
00000000
,
00001000
00000100
00010000
00000000
,
00002000
00003000
02000000
03000000
,
00020000
00030000
00200000
00300000
,
00010000
00100000
00001000
00022000
,
00000000
00000000
00000000
00000000
,
00033000
00000000
00000000
00000000
;

//--------------- dance-double - Extraordiberry ----------------
#NOTEDATA:;
#STEPSTYPE:dance-double;
#DESCRIPTION:Extraordiberry;
#DIFFICULTY:Medium;
#METER:13;
#RADARVALUES:0,0,0,0,0;
#CREDIT:Extraordiberry;
#NOTES:
00000000
00000000
00000000
00000000
,
00000000
00000000
00000000
00000000
,
00000000
00000000
00000000
00000000
,
00001000
00001000
00000000
00000000
00010000
00010000
00000000
00000000
,
00001000
00000000
00010000
00000000
00000100
00000000
00001000
00000000
00000001
00000000
00000000
00000100
00000000
00000000
00001000
00000000
,
00010000
00001000
01000000
00010000
10000000
01000000
00100000
00000000
,
01000000
00000000
00000000
00010000
00000000
00000000
00001000
00000000
00022000
00000000
00000000
00000000
00033000
00000000
00000000
00000000
,
00010000
00000000
00000010
00000000
00001000
00000000
00000000
00000002
00000000
00000000
00000013
00000000
00000001
00000000
00000000
00002000
,
00000000
00000000
00003001
00000000
00000100
00000000
00000000
00002000
00000000
00000000
00013000
00000000
00001000
00000000
01000000
00000000
,
00010000
00000000
10000000
00000000
20000000
00000000
00000000
01000000
00000000
00000000
31000000
00000000
02000000
00000000
00000000
00010000
,
00000000
00000000
03010000
00000000
00020000
00000000
00000000
00001000
00000000
00000000
00031000
00000000
00001000
00000000
00000000
00000000
,
00001000
00000000
00100000
00000000
00010000
00000000
00000000
20000000
00000000
00000000
30100000
00000000
10000000
00000000
00000000
00020000
,
00000000
00000000
10030000
00000000
01000000
00000000
00000000
00020000
00000000
00000000
00001000
00000000
00031000
00000000
00000000
00000000
,
00011000
00000000
00000000
00010000
00000000
00000000
00000000
00000000
00010100
00000000
00000000
00000100
00000000
00000000
00000000
00000000
,
00000110
00000000
00000000
00000110
00000000
00000000
00000000
00000000
00000001
00000000
00000100
00000000
00002000
00000000
00000000
00000000
,
00013000
00010000
00001000
00001000
,
00020000
00001000
00000010
00031000
,
00010000
00001000
01000000
00010000
10000000
01000000
00010000
00000000
,
00001000
00010000
00000010
00010000
00002000
00000000
00013000
00000000
,
00001000
00010000
00000100
00001000
00000001
00000100
00001000
00000000
,
01000000
00011000
00100000
00011000
,
00010000
00001000
00100000
00010000
10000000
00100000
00010000
00000000
,
00001000
00010000
00000100
00010000
00002000
00000000
00013000
00001000
,
00000010
00000001
00000000
00000001
00000100
00001000
00000000
00010000
,
00002000
00010000
00100000
00013000
,
00001000
00000000
00010000
00000000
00000100
00000000
00000000
00002000
00000000
00000000
00003001
00000000
00000100
00000000
00001000
00000000
,
00010000
00000000
00000010
00000000
00001000
00000000
00000000
00000200
00000000
00000000
00010300
00000000
00001000
00000000
00000000
00000000
,
00010000
00000000
00001000
00000000
01000000
00000000
00000000
00020000
00000000
00000000
10030000
00000000
01000000
00000000
00010000
00000000
,
00001000
00011000
01000000
00011000
,
00001000
00000000
00010000
00000000
00000010
00000000
00000000
00002000
00000000
00000000
00003001
00000000
00000010
00000000
00001000
00000000
,
00010000
00000000
00000100
00000000
00001000
00000010
00000000
00020000
00000000
00000000
00031000
00000000
00010000
00000000
00000000
00000000
,
00001000
00010000
00001000
00000000
00010000
00000000
00000000
00000000
00001000
00010000
00001000
00000000
00010000
00000000
00000000
00000000
,
00001000
00010000
00100000
10000000
00010000
00000000
10010000
00000000
,
10000000
01000000
00010000
00001000
00100000
00010000
10000000
00000000
,
10000000
01000000
00010000
00001000
00100000
00010000
10000000
00000000
,
10000000
01000000
00010000
00000000
00001000
00100000
00010000
00000000
,
00011000
00101000
00011000
00010010
,
00000001
00000100
00001000
00010000
00000010
00001000
00000001
00000000
,
00000001
00000100
00001000
00010000
00000010
00001000
00000001
00000000
,
00000001
00000100
00001000
00000000
00010000
00000010
00001000
00000000
,
00011000
00010010
00011000
00101000
,
10000000
02000000
00000000
03020000
00000000
00031000
00010000
00000000
,
00010000
00002000
00000000
00003020
00000000
00000031
00001000
00000000
,
00000001
00000100
00000010
00000000
00001000
00000010
00010000
00000000
,
00001000
00020000
00000000
00230000
00000000
10300000
00010000
10000000
,
02000000
03020000
00032000
00003010
,
00000022
00000000
00000000
00000000
,
00000033
00000000
00000000
00000000
00000000
00000001
00000100
00000000
,
00001000
00000000
01000000
00000000
00010000
10000000
00000000
02000000
00000000
00000000
03010000
00000000
00001000
00000000
01000000
00000000
,
00010000
10000000
01000000
00200000
00000000
00001000
00301000
00000000
,
00010000
00000000
00000100
00000000
00001000
00000001
00000000
00000200
00000000
00000000
00001300
00000000
00010000
00000000
00000100
00000000
,
00001000
00000001
00000100
00000020
00000000
00010000
00010030
00002000
,
00000000
00000000
00013000
00000000
00100000
00000000
00000000
20000000
00000000
00000000
00000000
00000000
00000000
00000000
30020000
00000000
,
00000000
00000000
10030000
00000000
01000000
00000000
00000000
00020000
00000000
00000000
00000000
00000000
00000000
00000000
00031000
00000000
,
00011000
00000000
00000000
00010000
00000000
00000000
00000000
00000000
00010100
00000000
00000000
00000100
00000000
00000000
00000000
00000000
,
00000110
00000000
00000000
00000001
00000000
00000000
00000100
00000000
00001000
00000000
00000000
00000000
00011000
00000000
00000000
00000000
,
00010000
00000000
00000010
00000000
00001000
00000001
00000000
00000020
00000000
00000000
00001030
00000000
00010000
00000000
00000010
00000000
,
00001000
00000001
00000010
00000200
00000000
00010000
00010300
00000000
,
00001000
00000000
00100000
00000000
00010000
10000000
00000000
00200000
00000000
00000000
00310000
00000000
00001000
00000000
00100000
00000000
,
00010000
10000000
00100000
02000000
00000000
00001000
03001000
00000000
,
00010000
00010000
00000000
00000000
00001000
00001000
00000000
00000000
,
00010000
00000000
00001000
00000000
01000000
00000000
00010000
00000000
10000000
01000000
00000000
01000000
00000000
00000000
00010000
00000000
,
00001000
00010000
00000100
00001000
00000001
00000100
00000010
00000000
,
00000100
00000000
00000000
00001000
00000000
00000000
00010000
00000000
00022000
00000000
00000000
00000000
00033000
00000000
00000000
00000000
,
00010000
00000000
00000000
01000000
00000000
00000000
10000000
00000000
00100000
00000000
00010000
00000000
00001000
00000000
00000000
00000000
,
00010000
00000000
00000000
00000000
00000000
00000000
00000000
00000000
00000000
00001000
00000000
00000000
00000000
00000000
00000000
00000000
00000000
00000000
00000010
00000000
00000000
00000000
00000000
00000000
00000001
00000000
00000000
00000000
00000100
00000000
00000000
00000000
00000010
00000000
00000000
00000000
00010000
00000000
00000000
00000000
00000000
00000000
00000000
00000000
00000000
00000000
00000000
00000000
,
00001000
01000000
00010000
01000000
00000000
00000000
00010000
10000000
01000000
00100000
00000000
00000000
,
00001000
00010000
00001000
00010000
00001000
00010000
00001000
00000000
00000000
00011000
00000000
00000000
,
00010000
00000000
00000100
00000000
00001000
00000000
00000000
00000002
00000000
00000000
00000103
00000000
00000001
00000000
00000000
00002000
,
00000000
00000000
00003001
00000000
00000010
00000000
00000000
00002000
00000000
00000000
00013000
00000000
00001000
00000000
00100000
00000000
,
00010000
00000000
10000000
00000000
20000000
00000000
00000000
00100000
00000000
00000000
30100000
00000000
00200000
00000000
00000000
00010000
,
00000000
00000000
00310000
00000000
00020000
00000000
00000000
00001000
00000000
00000000
00031000
00000000
00011000
00000000
00000000
00000000
,
00001000
00000000
01000000
00000000
00010000
00000000
00000000
20000000
00000000
00000000
31000000
00000000
10000000
00000000
00000000
00020000
,
00000000
00000000
10030000
00000000
00100000
00000000
00000000
00020000
00000000
00000000
00001000
00000000
00031000
00000000
00000000
00000000
,
00011000
00000000
00000000
00010000
00000000
00000000
00000000
00000000
00010010
00000000
00000000
00000010
00000000
00000000
00000000
00000000
,
00000110
00000000
00000000
00000110
00000000
00000000
00000000
00000000
00000001
00000000
00000010
00000000
00002000
00000000
00000000
00000000
,
00013000
00000000
00000000
00100000
00000000
00000000
10000000
00000000
01000000
00000000
00000000
00000000
00022000
00000000
00000000
00000000
,
00000000
00000000
00000000
00000000
,
00033000
00000000
00000000
00000000
;

//--------------- dance-double - Extraordiberry ----------------
#NOTEDATA:;
#STEPSTYPE:dance-double;
#DESCRIPTION:Extraordiberry;
#DIFFICULTY:Hard;
#METER:15;
#RADARVALUES:0,0,0,0,0;
#CREDIT:Extraordiberry;
#NOTES:
00000000
00000000
00000000
00000000
,
00000000
00000000
00000000
00000000
,
00000000
00000000
00000000
00000000
,
00110000
00110000
00000000
00000000
00001010
00001010
00000000
00000000
,
00010000
00000000
00001000
00000000
00000010
00000000
00000001
00000000
00000100
00000010
00000100
00000010
00000000
00000000
00001000
00000000
,
00000010
00010000
00001000
01000000
00010000
10000000
01000000
00000000
,
01100000
00000000
00000000
00101000
00000000
00000000
00001000
00000000
00012000
00000000
00000000
00000000
00003010
00000000
00000000
00000000
,
00000001
00000000
00001000
00000000
00000001
00000100
00000000
00002000
00000000
00000000
00013000
00000000
00001000
00010000
00000000
00200000
,
00000000
00000000
01300000
00000000
00100000
10000000
00000000
00020000
00000000
00000000
10030000
00000000
01000000
00000000
00010000
00000000
,
00001000
00000000
00010000
00000000
00011000
00000000
00000000
00000100
00000000
00000000
00001000
00000000
00001100
00000000
00000000
00010000
,
00000000
00000000
00001000
00000000
00011000
00000000
00000000
01000000
00000000
00000000
00010000
00000000
01010000
00000000
00000000
00000000
,
10000000
00000000
00010000
00000000
10000000
01000000
00000000
00020000
00000000
00000000
00031000
00000000
00010000
00001000
00000000
00000020
,
00000000
00000000
00000130
00000000
00000010
00000001
00000000
00000200
00000000
00000000
00001000
00000000
00001300
00000000
00000000
00000000
,
00011000
00000000
00000000
01001000
00000000
00000000
00000000
00000000
00011000
00000000
00000000
00010100
00000000
00000000
00000000
00000000
,
01010000
00000000
00000000
01010000
00000000
00000000
00000000
00000000
00001000
00000000
00010000
00000000
00011000
00000000
00000000
00000000
,
00001000
00010000
00100000
10000000
,
02000000
03020000
00032000
00000000
,
00013000
00000000
00000100
00001000
00000100
00000000
00010000
00000000
00001000
00000000
00010000
00000000
00000100
00000000
00001000
00000000
,
00000001
00000100
00001000
00000100
00000020
00000000
00010030
00000000
,
00001000
00000000
01000000
00010000
01000000
00000000
00001000
00000000
00010000
00000000
00001000
00000000
01000000
00000000
00010000
00000000
,
00100000
01000000
00010000
00001000
01000000
00100000
00010000
00001000
,
00010000
00000000
00000100
00001000
00000100
00000000
00010000
00000000
00001000
00000000
00010000
00000000
00000010
00000000
00001000
00000000
,
00000001
00000000
00000010
00000100
00000010
00000000
00001000
00000000
00020000
00000000
00000000
00000000
00031000
00000000
00010000
00000000
,
00100000
10000000
00000000
01000000
00010000
00001000
00000000
00010000
,
00011000
00110000
00012000
00103000
,
00001000
00000000
01000000
00010000
01000000
00010000
00000000
20000000
00000000
00000000
31000000
00000000
00010000
00000000
01000000
00000000
,
10000000
00000000
00010000
00000000
01000000
00100000
00000000
00020000
00000000
00000000
00001000
00000000
00031000
00000000
00000000
00000000
,
00010000
00000000
00000100
00001000
00000100
00001000
00000000
00000002
00000000
00000000
00000103
00000000
00000010
00000000
00001000
00000000
,
00000100
00000010
00001000
00010000
00000010
00000100
00001000
00010000
,
00001000
00000000
00100000
00010000
00100000
00010000
00000000
20000000
00000000
00000000
30100000
00000000
00010000
00000000
00100000
00000000
,
10000000
00000000
01000000
00100000
01000000
00100000
01000000
00020000
00000000
00000000
00001000
00000000
00031000
00000000
00000000
00000000
,
00010000
00001000
00100000
00001000
00010000
00000000
00000000
00000000
00010000
00001000
00100000
00001000
00010000
00000000
00000000
00000000
,
00011000
00001010
00001002
00000013
,
00000001
00000100
00001000
00010000
00001000
00000010
00000001
00000000
,
00000001
00000100
00001000
00010000
00001000
00000010
00000001
00000000
,
00000001
00000100
00001000
00000000
00010000
01000000
10000000
00000000
,
00010000
01000000
01010000
00000000
10000000
00100000
10100000
00000000
,
10000000
00100000
00010000
00001000
00010000
01000000
10000000
00000000
,
10000000
00100000
00010000
00001000
00010000
01000000
10000000
00000000
,
10000000
00100000
00010000
00000000
00001000
00000010
00000001
00000000
,
00000100
00000001
00000101
00000000
00000010
00001000
00001010
00000000
,
00010000
00000010
00010000
00002000
00000000
00010000
00010000
00013000
,
00001000
00100000
00001000
00020000
00000000
00001000
00001000
00031000
,
00010000
00001000
02000000
00000000
03010000
10000000
02000000
00000000
,
03010000
00001000
00000010
00000002
00000000
00001000
00001000
00001003
,
00001001
00010010
00011000
01001000
,
20020000
00000000
00000000
00000000
,
30030000
00000000
00000000
00000000
00000000
10000000
01000000
00010000
,
00001000
00000000
00010000
00000000
00000100
00001000
00000100
00002000
00000000
00000000
00003010
00000000
00010000
00000000
00001000
00000000
,
00000010
00000001
00001000
00000020
00000000
00010000
00010030
00000000
,
00001000
00000000
01000000
00000000
00010000
10000000
00000000
02000000
00000000
00000000
03100000
00000000
00001000
00000000
00010000
00000000
,
00100000
10000000
00010000
00200000
00000000
00001000
00301000
00020000
,
00000000
00000000
00031000
00000000
01000000
00010000
00000000
20000000
00000000
00000000
31000000
00000000
00100000
00000000
00002000
00000000
,
00000000
00000000
00013000
00000000
00100000
10000000
00000000
00020000
00000000
00000000
00130000
00000000
00001000
00000000
00010000
00000000
,
00011000
00000000
00000000
00010100
00000000
00000000
00010000
00000000
00011000
00000000
00000000
01001000
00000000
00000000
00001000
00000000
,
00011000
00000000
00000000
00001100
00000000
00000000
00001000
00000000
00002001
00000000
00000000
00000000
00003010
00000000
00000000
00000000
,
00010000
00000000
00001000
00000000
00100000
00010000
00100000
00020000
00000000
00000000
01030000
00000000
00001000
00000000
00010000
00000000
,
01000000
10000000
00010000
02000000
00000000
00001000
03001000
00000000
,
00010000
00000000
00000010
00000000
00001000
00000001
00000000
00000020
00000000
00000000
00000130
00000000
00010000
00000000
00001000
00000000
,
00000100
00000001
00001000
00000200
00000000
00010000
00010300
00000000
,
00001100
00001100
00000000
00000000
01010000
01010000
00000000
00000000
,
00001000
00000000
00010000
00000000
01000000
00000000
10000000
00000000
00100000
01000000
00100000
01000000
00000000
00000000
00010000
00000000
,
01000000
00001000
00010000
00000010
00001000
00000001
00000010
00000000
,
00000110
00000000
00000000
00010100
00000000
00000000
00010000
00000000
00021000
00000000
00000000
00000000
01030000
00000000
00000000
00000000
,
10000000
01000000
00100000
00010000
00000000
00001000
00000100
00000000
00000010
00000000
00000001
00000000
00000011
00000000
00000000
00000000
,
00000001
00000000
00000000
00000100
00000000
00000000
00000010
00000000
00000000
00001000
00000000
00000000
00000000
00000000
00000000
00010000
00000000
00000000
01000000
00000000
00000000
00000000
00000000
00000000
00100000
00000000
00000000
00000000
10000000
00000000
00000000
00000000
00100000
00000000
00000000
00000000
10100000
00000000
00000000
00000000
00000000
00000000
00000000
00000000
00000000
00000000
00000000
00000000
,
10000000
01000000
00010000
00001000
00000000
00000000
00010000
00001000
00000010
00000001
00000000
00000000
,
00000001
00000100
00000010
00010000
00001000
00010000
00021000
00000000
00000000
01030000
00000000
00000000
,
10000000
00000000
00010000
00000000
10000000
00100000
00000000
00020000
00000000
00000000
00031000
00000000
00010000
00001000
00000000
00000200
,
00000000
00000000
00000310
00000000
00000100
00000001
00000000
00002000
00000000
00000000
00003001
00000000
00000010
00000000
00001000
00000000
,
00010000
00000000
00001000
00000000
00011000
00000000
00000000
00100000
00000000
00000000
00010000
00000000
00110000
00000000
00000000
00001000
,
00000000
00000000
00010000
00000000
00011000
00000000
00000000
00000010
00000000
00000000
00001000
00000000
00001010
00000000
00000000
00000000
,
00000001
00000000
00001000
00000000
00000001
00000010
00000000
00002000
00000000
00000000
00013000
00000000
00001000
00010000
00000000
02000000
,
00000000
00000000
03100000
00000000
01000000
10000000
00000000
00200000
00000000
00000000
00010000
00000000
00310000
00000000
00000000
00000000
,
00011000
00000000
00000000
00010010
00000000
00000000
00000000
00000000
00011000
00000000
00000000
00101000
00000000
00000000
00000000
00000000
,
00001010
00000000
00000000
00001010
00000000
00000000
00000000
00000000
00010000
00000000
00001000
00000000
00011000
00000000
00000000
00000000
,
00000100
00001000
00000100
00001000
00000000
00000001
00000100
00000000
00001000
00000000
00000000
00000000
00022000
00000000
00000000
00000000
,
00000000
00000000
00000000
00000000
,
00033000
00000000
00000000
00000000
;
