#VERSION:0.83;
#TITLE:Under Pressure;
#SUBTITLE:;
#ARTIST:Queen & David Bowie;
#TITLETRANSLIT:;
#SUBTITLETRANSLIT:;
#ARTISTTRANSLIT:;
#GENRE:POP MUSIC;
#ORIGIN:;
#CREDIT:MUINELIM;
#BANNER:Under Pressure.png;
#BACKGROUND:Under Pressure-bg.png;
#PREVIEWVID:;
#JACKET:Under Pressure-jacket.png;
#CDIMAGE:;
#DISCIMAGE:;
#LYRICSPATH:;
#CDTITLE:;
#MUSIC:Under Pressure.ogg;
#OFFSET:0.132000;
#SAMPLESTART:17.934315;
#SAMPLELENGTH:14.924145;
#SELECTABLE:YES;
#BPMS:0.000=112.500,
18.000=113.000,
26.000=114.000,
34.000=113.000,
50.000=112.000,
66.000=113.500,
82.000=112.800,
90.000=112.500,
98.000=113.000,
106.000=115.000,
108.500=112.500,
109.000=112.000,
114.000=109.000,
134.000=106.000,
139.000=111.000,
146.000=115.000,
162.000=120.000,
168.000=118.000,
169.000=120.000,
174.000=114.000,
178.000=110.000,
180.000=114.000,
182.000=116.000,
186.000=115.000,
192.000=116.000,
194.000=115.000,
198.000=113.000,
206.000=112.000,
218.000=115.000,
234.000=116.000,
236.000=113.000,
238.000=115.000,
240.000=114.000,
252.000=111.000,
254.000=112.000,
256.000=116.000,
259.000=113.000,
262.000=112.000,
264.000=113.000,
265.000=112.000,
266.000=110.000,
270.000=112.000,
273.000=115.000,
274.000=114.000;
#STOPS:;
#DELAYS:;
#WARPS:;
#TIMESIGNATURES:0.000=4=4;
#TICKCOUNTS:0.000=4;
#COMBOS:0.000=1;
#SPEEDS:0.000=1.000=0.000=0;
#SCROLLS:0.000=1.000;
#FAKES:;
#LABELS:0.000=Song Start;
#BGCHANGES:0.000=Under Pressure-bg.png=1.000=0=0=1====#000000=#000000,
1.000=Under Pressure.avi=1.000=1=0=0=StretchNoLoop==CrossFade==,
99999=-nosongbg-=1.000=0=0=0 // don't automatically add -songbackground-
;
#KEYSOUNDS:;
#ATTACKS:
;

//---------------dance-single - ----------------
#NOTEDATA:;
#CHARTNAME:;
#STEPSTYPE:dance-single;
#DESCRIPTION:;
#CHARTSTYLE:;
#DIFFICULTY:Beginner;
#METER:2;
#RADARVALUES:0.099995,0.140992,0.013333,0.013333,0.000000,105.000000,103.000000,2.000000,2.000000,0.000000,0.000000,0.000000,0.000000,0.000000,0.099995,0.140992,0.013333,0.013333,0.000000,105.000000,103.000000,2.000000,2.000000,0.000000,0.000000,0.000000,0.000000,0.000000;
#CREDIT:MUINELIM;
#NOTES:
0000
0000
0000
0000
,
0000
0000
0000
0000
,
0000
0000
0000
0000
,
0000
0000
0000
0000
,
0000
0000
1000
0000
,
0000
0000
0001
0000
,
0000
0000
1000
0000
,
0000
0000
0001
0000
,
0000
0000
1000
0000
,
1000
0000
1000
0000
,
1000
0000
1000
0000
,
1000
0000
1000
0000
,
0000
0000
0001
0000
,
0001
0000
0001
0000
,
0001
0000
0001
0000
,
0001
0000
0001
0000
,
0000
0000
0100
0000
,
0000
0000
0010
0000
,
0000
0000
0100
0000
,
0000
0000
0010
0000
,
0000
0000
0100
0000
,
0100
0000
0100
0000
,
0100
0000
0001
0000
,
1000
0000
0001
0000
,
1000
0000
0010
0000
,
0010
0000
0010
0000
,
0010
0000
0020
0000
,
0000
0000
0000
0000
,
0030
0000
0000
0000
,
0000
0000
1000
0000
,
0100
0000
1000
0000
,
0000
0000
0001
0000
,
0010
0000
0001
0000
,
0000
0000
1000
0000
,
0010
0000
1000
0000
,
0001
0000
0100
0000
,
0001
0000
1001
0000
,
0000
0000
0000
0000
,
0000
0000
0000
0000
,
0000
0000
0000
0000
,
0000
0000
1001
0000
,
0000
0000
0000
0000
,
0000
0000
1000
0000
,
0001
0000
1000
1000
,
1000
0000
0010
0000
,
0100
0000
0010
0000
,
0100
0000
0001
0000
,
1000
0000
0001
0000
,
1000
0000
0100
0000
,
0010
0000
0100
0000
,
0010
0000
0100
0000
,
0010
0000
0100
0000
,
0010
0000
0001
0000
,
0001
0000
1000
0000
,
1000
0000
0010
0000
,
1000
0000
0010
0000
,
0100
0000
0001
0000
,
0100
0000
0010
0010
,
0010
0000
1000
0000
,
0100
0000
0010
0000
,
0001
0000
0010
0000
,
0100
0000
1000
0000
,
0001
0000
1000
0000
,
0010
0000
0100
0000
,
0001
0000
1000
0000
,
0010
0010
0010
0000
,
0000
0000
0100
0000
,
0000
0000
0010
0000
,
0000
0000
0100
0000
,
0000
0000
0020
0000
,
0000
0000
0030
0000
;

//---------------dance-single - ----------------
#NOTEDATA:;
#CHARTNAME:;
#STEPSTYPE:dance-single;
#DESCRIPTION:;
#CHARTSTYLE:;
#DIFFICULTY:Easy;
#METER:6;
#RADARVALUES:0.174276,0.234987,0.059997,0.086662,0.000000,183.000000,174.000000,9.000000,13.000000,0.000000,0.000000,0.000000,0.000000,0.000000,0.174276,0.234987,0.059997,0.086662,0.000000,183.000000,174.000000,9.000000,13.000000,0.000000,0.000000,0.000000,0.000000,0.000000;
#CREDIT:;
#NOTES:
0000
0000
0000
0000
,
0000
0000
0000
0000
,
0000
0000
0000
0000
,
0000
0000
0000
0000
,
0000
0000
1000
0000
,
1000
0000
0001
0000
,
0001
0000
1000
0000
,
0001
0000
1000
0000
,
0001
1001
1000
0010
,
1000
0000
0010
0100
,
0010
0000
0100
0001
,
0100
0000
0001
1000
,
0001
0000
0010
0001
,
0010
0000
0100
1000
,
0100
0000
0010
0100
,
0010
0000
0001
1000
,
0001
1001
2000
0000
,
3000
0000
0020
0000
,
0030
0000
0200
0000
,
0300
0000
0002
0000
,
0003
1000
1000
0010
,
0100
0010
1000
0010
,
0100
0000
0001
0100
,
0010
0100
0001
0100
,
0010
0000
1000
0001
,
0100
0000
0001
1000
,
0010
0000
0220
0000
,
0000
0000
0000
0000
,
0330
0000
0100
0001
,
0000
0001
0100
0000
,
0010
0000
1000
2000
,
3000
0000
0000
0010
,
0100
0000
0001
0002
,
0003
0000
0100
0010
,
0100
0010
0100
0100
,
0200
0300
0001
0000
,
1000
0000
2002
0000
,
0000
0000
0000
0000
,
0000
0000
0000
0000
,
0000
0000
0000
0000
,
0000
3003
1001
0000
,
0000
0000
0000
0000
,
0000
0000
1000
0001
,
1000
0001
0100
0010
,
0100
0110
0010
1000
,
0100
0010
0001
0100
,
0010
0010
0100
0001
,
0010
0100
1000
0010
,
0100
0100
0001
1000
,
0010
0100
0001
1000
,
0010
0100
0001
1000
,
0001
1000
0001
1000
,
0001
1000
0001
0000
,
0100
0000
0010
0000
,
1000
0000
0100
0000
,
0010
0000
0001
0000
,
1000
0000
0010
0000
,
0100
0000
0001
0001
,
1000
1001
0001
0100
,
0010
0100
1000
0100
,
0010
1000
0010
0100
,
0010
0001
0010
0100
,
0001
1000
0100
0010
,
0001
1000
0010
0100
,
0001
1000
1001
0000
,
0010
0100
0110
0000
,
0020
0030
1000
0000
,
1000
0000
0100
0000
,
0100
0000
0001
0000
,
0001
0000
0010
0010
,
0020
0000
0030
0000
;

//---------------dance-single - ----------------
#NOTEDATA:;
#CHARTNAME:;
#STEPSTYPE:dance-single;
#DESCRIPTION:;
#CHARTSTYLE:;
#DIFFICULTY:Medium;
#METER:9;
#RADARVALUES:0.294270,0.375980,0.119994,0.159991,0.000000,309.000000,291.000000,18.000000,24.000000,0.000000,0.000000,0.000000,0.000000,0.000000,0.294270,0.375980,0.119994,0.159991,0.000000,309.000000,291.000000,18.000000,24.000000,0.000000,0.000000,0.000000,0.000000,0.000000;
#CREDIT:;
#NOTES:
0000
0000
0000
0000
,
0000
0000
0000
0000
,
0000
0000
0000
0000
,
0000
0000
0000
0000
,
0000
0000
1000
0001
,
0100
0000
0001
1000
,
0010
0000
1000
0001
,
0100
0000
0001
1000
,
0010
0000
0110
0000
0100
0100
0001
0000
,
0100
0000
0010
0000
1000
0000
0100
1000
,
0000
0001
1000
0000
0010
0000
0100
0001
,
0000
1000
0001
0000
0010
0000
0100
0000
,
1000
0000
0100
0100
1000
0000
0100
0000
,
0010
0000
0001
0000
0100
0000
0010
0100
,
0000
0001
0100
0000
0010
0000
1000
0010
,
0000
0100
0010
0000
1000
0000
0001
0000
,
1000
0000
1001
0000
0001
0100
0001
0000
,
0010
0000
0100
0000
1000
0010
1000
0000
,
0100
0000
0010
0000
0001
1000
0001
0000
,
0100
0000
0001
1000
0001
0000
0100
0000
,
0010
0100
0010
0100
0020
0000
1030
0000
,
0100
1100
2000
3010
,
0100
0101
0002
0103
,
0010
1010
0200
0301
,
0010
0000
0011
0000
0001
1000
0001
0000
,
0100
0000
0010
0000
1000
0001
1000
0000
,
0010
0100
0010
0000
2010
0000
0000
3200
,
0000
0320
0000
0001
0031
0000
0000
2002
,
0000
3003
1000
0010
,
0000
0000
0010
0100
0001
0000
0010
0100
,
1000
0000
0010
0100
0002
0000
0013
0000
,
0000
0000
0000
0000
0000
0000
0010
0001
,
0100
0000
0000
0010
0200
0000
0301
0000
,
0000
0000
0000
0001
0010
0000
0001
0000
,
0010
0000
0100
0000
1000
0000
0010
0100
,
0000
0001
1000
0001
0200
0000
0300
0000
,
0020
0030
2002
0000
,
0000
0000
0000
0000
,
0000
0000
0000
0000
,
0000
0000
0000
0000
,
0000
3003
1001
0000
,
0000
0000
0000
0000
,
0000
0000
0000
0001
0001
0000
0010
0000
,
0100
0000
1000
0000
0010
0100
0001
1000
,
0100
0000
0110
0000
0010
0001
0010
0000
,
0100
1000
0100
0000
0010
0001
0010
0100
,
1000
0000
1001
0000
0001
0100
0001
0000
,
1000
0010
1000
0000
0001
0100
0001
1000
,
0010
0000
0110
0000
0100
0001
0010
0000
,
0100
1000
0010
0000
0100
0001
1000
0000
,
0010
1000
0001
0000
0010
0100
1000
0000
,
0001
0010
0100
0000
1000
0010
0100
0000
,
0001
0100
0010
0000
2000
0000
3100
0010
,
0000
0010
0001
0000
0200
0000
0310
1000
,
0000
1000
0001
0000
0020
0000
0130
1000
,
0000
1000
0010
0000
0200
0000
0301
1000
,
0000
1000
0100
0000
0020
0000
0031
0100
,
0000
0100
0010
0000
1010
0000
1100
0000
,
0011
0000
0101
0000
0100
0010
1000
0000
,
0100
0010
0001
0000
1000
0100
0010
0000
,
0001
0100
0010
0000
1000
0001
1000
0001
,
0010
0100
0010
0000
0001
1000
0001
1000
,
0100
0010
0100
0000
1000
0010
0100
0001
,
0100
0010
1000
0000
0001
0010
0100
1000
,
0100
0010
0001
0000
0101
0000
0100
0010
,
0000
0100
1000
0000
0100
0001
0010
0200
,
0000
0000
1300
0010
0200
0000
0301
0000
,
0000
0001
0000
0001
,
0000
0000
0001
0010
0200
0000
1300
0000
,
0000
0000
1000
0000
1000
0010
0100
0002
,
0000
0000
0003
0000
;

//---------------dance-single - ----------------
#NOTEDATA:;
#CHARTNAME:;
#STEPSTYPE:dance-single;
#DESCRIPTION:;
#CHARTSTYLE:;
#DIFFICULTY:Hard;
#METER:12;
#RADARVALUES:0.425692,0.563970,0.219988,0.306650,0.059997,447.000000,414.000000,33.000000,46.000000,0.000000,0.000000,0.000000,0.000000,0.000000,0.425692,0.563970,0.219988,0.306650,0.059997,447.000000,414.000000,33.000000,46.000000,0.000000,0.000000,0.000000,0.000000,0.000000;
#CREDIT:;
#NOTES:
0000
0000
0000
0000
,
0000
0000
0000
0000
,
0000
0000
0000
0000
,
0000
0000
0000
0000
,
0000
0000
0000
0000
1000
0100
0010
0001
,
0020
0000
0031
0000
0001
0010
0100
1000
,
0200
0000
1300
1000
0001
0100
0010
1000
,
0020
0000
1030
0000
1000
0010
0100
0001
,
0100
0000
0110
0000
0010
1000
0100
0010
,
0001
0100
0010
0000
0100
0001
0010
0100
,
1000
0010
0100
0000
0001
1000
0100
0010
,
0001
1000
0010
0000
1000
0001
0010
0100
,
1000
0001
0100
0010
0110
0100
0001
0100
,
0010
1000
0010
0000
0100
0001
0010
0001
,
1000
0100
1000
0000
0010
0100
0001
1000
,
0100
0010
0001
0000
1000
0010
0100
0001
,
0010
0100
1001
0000
1000
0010
0200
0301
,
0000
0001
0010
0100
0010
0001
2000
3100
,
0000
0100
1000
0010
0100
0101
0000
0011
,
0000
0010
0100
1000
1010
0000
0010
0100
,
0001
1000
0200
0010
0310
0001
0010
1000
,
0010
0001
0010
0100
1000
0100
0001
0100
,
1000
0100
0110
0000
0010
0001
0100
0001
,
0010
0001
1000
0100
1000
0010
1000
0100
,
0010
0001
1001
0000
1000
0010
0001
0010
,
1000
0100
0010
0010
0001
0100
1000
0100
,
0001
0000
0010
0000
0100
0010
0100
0000
2200
0000
3300
0000
0000
0000
1010
0000
,
0000
0000
0101
0000
0000
0000
0001
0010
0002
0000
0000
0000
0000
0000
2003
0000
,
0000
0000
3010
0110
,
0000
0000
0110
0100
0001
0000
0100
0010
,
1000
0000
0010
0100
0002
0000
2003
0000
,
0000
0000
3000
0000
0000
0000
0100
0010
,
0001
0000
1000
0100
0020
0000
0230
0000
,
0000
0000
0000
1300
1000
0010
0100
0001
,
0100
0010
1000
0010
0200
0000
0001
0301
,
0000
0001
0010
0100
2200
0000
3300
0000
,
0022
0033
2002
0000
,
0000
0000
0000
0000
,
0000
0000
0000
0000
,
0000
0000
0000
0000
,
0000
3003
1010
0011
,
1100
0101
0001
0010
,
0100
0000
1000
1000
0010
0100
0010
0002
,
0000
0013
0100
0001
0010
0100
0010
2000
,
0000
0000
3010
0000
0100
0000
0010
0000
0001
0100
0001
0000
1000
0000
0100
0000
,
0010
0001
0100
1000
0100
0001
0010
1000
,
0010
0000
0001
0000
0101
0000
0000
0000
0100
0010
0100
0000
0010
0000
1000
0000
,
0100
0001
0100
1000
0010
0001
0010
1000
,
0100
0010
0110
0000
0200
1300
1000
0100
,
0020
0031
0001
0100
0020
1030
1000
0010
,
0200
0301
0001
0010
2000
3010
0010
0001
,
0200
0310
0010
1000
0200
0301
0001
0100
,
2000
3010
0010
0100
0101
0001
0010
0200
,
0000
0310
0001
1000
1100
0100
0010
0200
,
0000
1300
0010
0100
0110
0010
0100
0002
,
0000
1003
0100
0010
0011
0001
0100
0020
,
0000
1030
0001
0010
0110
0100
1000
0002
,
0000
0103
0010
1000
1020
0000
0230
0000
,
0302
0000
0000
0000
2003
0000
0000
0000
3100
0010
0100
0000
1000
0000
0010
0000
,
0001
0000
0010
0000
1000
0000
0100
0000
0010
0100
0010
0000
0001
0000
0100
0000
,
1000
0000
0100
0000
0001
0000
0010
0000
0100
1000
0100
0000
1000
0000
0010
0000
,
0100
0001
0100
0000
0001
0000
0010
0000
0100
0010
0100
0000
1000
0100
1000
0000
,
0001
0010
0001
0000
1000
0001
1000
0000
0010
0100
0001
0000
0010
0000
0100
0000
,
1000
0010
0100
0000
0001
0000
1000
0000
0100
0010
0001
0000
1000
0010
0100
0000
,
0001
1000
0010
0000
0100
0001
0010
0000
1100
0000
1000
0000
0010
0000
0200
0000
,
0000
0301
0020
0000
1030
0010
0001
0101
,
0000
0000
0100
0010
1020
0000
0100
0000
,
0000
0001
0000
0100
,
0000
0000
1030
0100
0010
0001
0201
0000
,
0000
0000
1000
0000
0301
0010
0100
2002
,
0000
0000
3003
0000
;

//---------------dance-single - ----------------
#NOTEDATA:;
#CHARTNAME:;
#STEPSTYPE:dance-single;
#DESCRIPTION:;
#CHARTSTYLE:;
#DIFFICULTY:Challenge;
#METER:14;
#RADARVALUES:0.616158,0.751960,0.493307,0.373313,0.413311,647.000000,573.000000,74.000000,56.000000,0.000000,0.000000,0.000000,0.000000,0.000000,0.616158,0.751960,0.493307,0.373313,0.413311,647.000000,573.000000,74.000000,56.000000,0.000000,0.000000,0.000000,0.000000,0.000000;
#CREDIT:;
#NOTES:
0000
0000
0000
0000
,
0000
0000
0000
0000
,
0000
0000
0000
0000
,
0000
0000
0000
0000
,
0000
0000
0000
0000
1000
0100
0010
0001
,
0010
0000
0011
0000
0001
0010
0100
1000
,
0100
0000
1100
1000
0001
0100
0010
1000
,
0010
0000
1010
0000
1000
0010
0100
0001
,
0100
0000
0000
0000
0220
0000
0330
0000
0010
0000
0010
0000
0010
0000
1000
0100
,
1000
0000
0001
0000
0011
0000
0000
0000
0010
0000
0010
0000
0010
0000
0001
0100
,
0001
0000
1000
0000
1010
0000
0000
0000
0010
0000
0010
0000
0010
0000
0100
0001
,
0100
0000
0010
0000
1010
0000
0000
0000
1000
0000
1000
0000
1000
0000
0100
0010
,
0100
0000
0010
0000
0011
0000
0100
0000
1100
0000
1000
0000
1000
0000
0010
0100
,
0001
0000
0010
0000
0110
0000
0000
0000
0100
0000
0100
0000
0100
0000
1000
0010
,
0100
0000
0001
0000
1001
0000
0000
0000
1000
0000
1000
0000
1000
0000
0100
0010
,
0001
0000
0100
0000
0101
0000
0000
0000
0001
0000
0001
0000
0001
0000
0100
0010
,
1000
0100
1100
0010
0011
0001
1000
0100
,
0020
1000
0031
0000
1100
1000
0001
0010
,
0200
0001
1300
0000
1010
0010
0100
0001
,
0020
1000
0031
0000
0101
0100
0010
1000
,
0200
0000
0001
0000
1300
0000
1001
0000
0001
0100
0010
0000
0001
0000
0010
0000
,
1000
0010
0100
0000
1000
0000
0100
0000
0001
0010
0100
0000
1000
0100
0010
0000
,
0001
1000
0010
0000
1010
0000
0000
0000
1000
0100
0010
0000
1000
0000
0010
0000
,
0001
0010
0100
0000
0001
0000
0100
0000
1000
0001
0100
0000
0001
1000
0010
0000
,
0100
0001
0010
0000
0011
0000
0000
0000
0001
0100
0001
0100
0010
0000
1000
0000
,
0100
0010
0100
0010
0001
0000
1000
0000
0010
0100
0002
0000
0013
0000
0001
0100
,
0020
0000
1030
0000
1100
0000
0100
0010
0001
0100
0001
0100
0001
0100
0010
1000
,
0001
0100
0010
1000
0001
0010
0100
1000
0010
0100
0001
1000
0100
0010
0002
0000
,
0000
0000
2003
0010
,
0000
0000
0000
0000
0000
0000
3010
0000
0000
0010
0000
1000
0000
0200
0000
0300
0000
0000
0000
0000
0000
0100
0000
0010
,
0000
0002
0000
0003
0000
0000
0000
0000
0000
0001
0000
0100
0000
0020
0000
0000
0000
0000
2030
0000
0000
0000
0000
0000
,
0000
0000
0000
3001
0000
0000
0000
0000
0001
0010
0100
1000
,
0100
0000
0000
0000
0110
0000
0010
0100
2000
0000
0000
0000
3001
0000
0000
0000
,
0000
0000
0101
0100
0010
1000
0100
0001
,
0100
1000
0010
0001
0020
0000
1030
0200
,
0000
0000
0310
0000
0010
0001
1000
0100
0020
0000
0001
0000
0031
0000
0000
0000
,
0101
0000
1010
0000
2002
3000
1000
1000
,
1000
0000
1003
0000
1000
0010
0100
0000
1100
0000
0000
0101
0000
0001
0020
0000
,
0100
0000
0100
0000
0100
0000
0130
0000
1100
0000
0000
1010
0000
0010
0200
0000
,
0000
0000
0000
0000
0000
0000
0301
0000
0000
0000
0000
0000
0001
0000
0010
0000
0100
0000
0010
0000
0000
0000
0000
0000
0011
0000
0000
0000
0000
0000
0000
0000
0000
1010
0000
0000
0000
0000
0000
0010
0000
0000
0002
0000
0000
0000
0000
0000
,
0100
0000
0000
0103
0000
0000
0100
0010
1000
0010
0000
0000
2010
0000
0000
0000
0000
0000
3200
0000
0000
0000
0000
0000
,
0320
0000
0000
0000
0032
0000
0000
0000
0203
0000
0000
0000
0310
1000
0010
1000
,
0001
0010
0100
1000
0000
0000
1000
0010
0100
0001
0000
0000
1001
0000
0000
1000
0000
0000
0010
0000
0000
0001
0000
0000
,
1000
0100
0001
0010
0110
1000
1100
0001
,
0011
0000
1000
0000
2002
0000
3003
0000
0001
0100
0010
0100
1000
0000
0100
0000
,
0001
0010
0100
0010
1000
0000
0010
0000
0001
0100
0010
1000
0100
0010
0100
1000
,
0001
0000
0101
0000
2020
0000
3030
0000
1000
0010
0001
0010
0100
0000
0010
0000
,
1000
0100
0001
0100
0010
0000
0100
0000
1000
0010
0100
0001
0010
0100
0010
0001
,
1000
0000
1100
0000
0022
0000
0033
0000
0001
0100
0020
0000
1030
0000
0010
0000
,
1000
0100
0020
0000
0031
0000
0010
0000
0001
0010
0200
0000
1300
0000
0100
0000
,
1000
0010
0200
0000
0301
0000
0100
0000
0010
1000
0200
0000
0301
0000
0100
0000
,
1000
0010
0200
0000
1300
0000
0100
0000
0001
0100
0020
0000
0031
0000
0010
0000
,
0100
0001
0020
0000
1030
0000
0010
0000
0011
0000
0001
0000
0100
0000
1010
0000
,
1000
0001
0201
0310
1010
1000
0100
0011
,
0001
1000
1020
0130
0210
0301
0010
1100
,
1000
0010
0110
0001
2001
3100
0010
0011
,
0100
1000
1010
0010
0102
1003
0100
0110
,
0010
0001
0101
1000
0110
0001
1010
0100
,
1001
0000
0110
0000
2002
0000
3003
0000
1000
0010
0100
0000
0001
0010
0100
0000
,
1000
0001
0100
0000
0001
1000
0010
0000
1000
0100
0010
0000
0001
0100
0010
0000
,
0001
0010
0100
0000
1000
0100
0010
0000
1000
0100
0001
0100
1000
0000
0100
0000
,
1000
0010
0001
0010
1000
0000
0010
0000
1000
0100
0001
0100
1000
0010
0100
0001
,
0010
0100
1000
0001
1000
0000
1001
0000
0001
0010
1000
0010
0001
0100
0010
1000
,
0001
0010
0100
1000
0100
0000
0110
0000
0010
0001
0010
1000
0010
0100
1000
0100
,
0001
0100
0010
0001
1000
0010
0100
0001
0200
0000
0000
0000
0310
0000
2010
0000
,
0000
3100
0012
0000
1003
0010
0100
0220
,
0030
0000
0000
0000
0301
0000
1000
0000
0010
0000
0010
0000
0010
0000
0100
0001
,
0010
0000
0100
0000
1100
0000
0000
0000
1000
0000
1000
0000
1000
0000
0100
1000
,
0001
0000
0100
0000
0110
0000
1010
0000
0101
0000
0001
0000
0001
0000
1000
0010
,
0001
0010
0110
0000
1010
0100
0001
0022
,
0000
0000
0033
0000
;

//---------------dance-double - ----------------
#NOTEDATA:;
#CHARTNAME:;
#STEPSTYPE:dance-double;
#DESCRIPTION:;
#CHARTSTYLE:;
#DIFFICULTY:Easy;
#METER:6;
#RADARVALUES:0.176181,0.234987,0.059997,0.073329,0.000000,185.000000,176.000000,9.000000,11.000000,0.000000,0.000000,0.000000,0.000000,0.000000,0.176181,0.234987,0.059997,0.073329,0.000000,185.000000,176.000000,9.000000,11.000000,0.000000,0.000000,0.000000,0.000000,0.000000;
#CREDIT:;
#NOTES:
00000000
00000000
00000000
00000000
,
00000000
00000000
00000000
00000000
,
00000000
00000000
00000000
00000000
,
00000000
00000000
00000000
00000000
,
00000000
00000000
00001000
00000000
,
00001000
00000000
00010000
00000000
,
00010000
00000000
00001000
00000000
,
00010000
00000000
00001000
00000000
,
00010000
00011000
00001000
00100000
,
00001000
00000000
00010000
00001000
,
00010000
00000000
00001000
01000000
,
00001000
00000000
00010000
00001000
,
00010000
00000000
00001000
00010000
,
00001000
00000000
00010000
00000010
,
00010000
00000000
00001000
00010000
,
00001000
00000000
00010000
00000100
,
00010000
00011000
00002000
00000000
,
01003000
00000000
00020000
00000000
,
00030010
00000000
00002000
00000000
,
00103000
00000000
00020000
00000000
,
00030100
00000000
00010000
00000010
,
00001000
00000001
00001000
00000010
,
00010000
00000000
00001000
01000000
,
00010000
10000000
00010000
01000000
,
00001000
00000000
00010000
00001000
,
00100000
00001000
00010000
00000100
,
00010000
00001000
00022000
00000000
,
00000000
00000000
00000000
00000000
,
00033000
00000000
00000000
00010000
,
00000000
00010000
00000000
01000000
,
00000000
10000000
00000000
00100000
,
00000000
00010000
00000000
00001000
,
00000000
00000100
00000000
00000001
,
00000000
00000010
00001000
00010000
,
00001000
00010000
01000000
01000000
,
02000000
03000000
10000000
00000000
,
00010000
00000000
20020000
00000000
,
00000000
00000000
00000000
00000000
,
00000000
00000000
00000000
00000000
,
00000000
00000000
00000000
00000000
,
00000000
30030000
10010000
00000000
,
00000000
00000000
00000000
00000000
,
00000000
00000000
10000000
00010000
,
01000000
00001000
00010000
00000010
,
00001000
00001001
00000001
00000100
,
00000010
00001000
00000100
00000010
,
00001000
00000000
00010000
01000000
,
00100000
00010000
01000000
00100000
,
10000000
00000000
00010000
01000000
,
00001000
00010000
00000100
00001000
,
00000010
00010000
00001000
00100000
,
00010000
01000000
00001000
00010000
,
00000100
00001000
00000001
00000000
,
00000010
00000000
00001000
00000000
,
00010000
00000000
00100000
00000000
,
10000000
00000000
01000000
00000000
,
00010000
00000000
00001000
00000000
,
00000100
00000000
00000001
00000010
,
00000100
00000110
00000010
00000001
,
00000100
00000010
00001000
00000100
,
00010000
00001000
00100000
00010000
,
01000000
00100000
10000000
01000000
,
00100000
00010000
01000000
00001000
,
00010000
00000010
00001000
00000100
,
00000010
00000001
00001001
00000000
,
00001000
00000010
00000110
00000000
,
00000200
00000300
00000001
00000000
,
00000010
00000000
00001000
00000000
,
00010000
00000000
01000000
00000000
,
10000000
00000000
00100000
01000000
,
00200000
00000000
00300000
00000000
;

//---------------dance-double - ----------------
#NOTEDATA:;
#CHARTNAME:;
#STEPSTYPE:dance-double;
#DESCRIPTION:;
#CHARTSTYLE:;
#DIFFICULTY:Medium;
#METER:9;
#RADARVALUES:0.289508,0.375980,0.126660,0.099995,0.000000,304.000000,285.000000,19.000000,15.000000,0.000000,0.000000,0.000000,0.000000,0.000000,0.289508,0.375980,0.126660,0.099995,0.000000,304.000000,285.000000,19.000000,15.000000,0.000000,0.000000,0.000000,0.000000,0.000000;
#CREDIT:;
#NOTES:
00000000
00000000
00000000
00000000
,
00000000
00000000
00000000
00000000
,
00000000
00000000
00000000
00000000
,
00000000
00000000
00000000
00000000
,
00000000
00000000
01000000
00001000
,
00010000
00000000
00000010
00010000
,
00001000
00000000
00100000
00001000
,
00010000
00000000
00000100
00010000
,
00001000
00000000
00011000
00000000
00010000
00010000
00001000
00000000
,
00100000
00000000
00010000
00000000
01000000
00000000
00100000
10000000
,
00000000
01000000
10000000
00000000
00100000
00000000
01000000
00010000
,
00000000
00100000
00010000
00000000
01000000
00000000
00001000
00000000
,
00010000
00000000
00001000
00001000
00010000
00000000
00000100
00000000
,
00001000
00000000
00000010
00000000
00000100
00000000
00000001
00000010
,
00000000
00000001
00000100
00000000
00000010
00000000
00001000
00000100
,
00000000
00001000
00000010
00000000
00010000
00000000
00001000
00000000
,
00010000
00011000
00001000
00010000
,
01000000
10000000
00100000
00010000
,
00001000
00000100
00000001
00000010
,
00001000
00000000
00010000
00001000
00010000
00000000
00000100
00000000
,
00010000
00001000
00010000
00000000
00001000
00000000
00100000
00000000
,
01000000
11000000
10000000
00100000
,
01000000
01001000
00001000
00010000
,
00000100
00010100
00010000
00000010
,
00000100
00000000
00000101
00000000
00000001
00000010
00000001
00000000
,
00000010
00001000
00010000
01000000
,
10000000
00100000
01000000
00000000
01020000
00000000
00000000
00130000
,
00000000
01000000
00000000
00010000
00001000
00000000
00000000
00022000
,
00000000
00033000
00010000
00001000
,
00000000
00000000
00010000
00001000
00010000
00000000
00000100
00001000
,
00000100
00000000
00000010
00000001
00000010
00000000
00000011
00000000
,
00000000
00000000
00000000
00000000
00000000
00000000
00000001
00000100
,
00000010
00000000
00001000
00000100
00010000
00000000
00011000
00000000
,
00000000
00000000
00000000
00001000
00100000
00000000
00010000
00000000
,
01000000
00000000
00100000
00000000
10000000
00000000
01000000
00100000
,
00000000
01000000
00010000
00001000
00010000
00000000
00000000
00000000
,
00001000
00000000
00022000
00000000
,
00000000
00000000
00000000
00000000
,
00000000
00000000
00000000
00000000
,
00000000
00000000
00000000
00000000
,
00000000
00033000
00011000
00000000
,
00000000
00000000
00000000
00000000
,
00000000
00000000
00000000
00001000
00010000
00000000
00000100
00000000
,
00001000
00000000
00000001
00000000
00000100
00000010
00001000
00000100
,
00010000
00000000
00011000
00000000
00001000
00100000
00010000
00000000
,
00100000
01000000
10000000
00000000
00100000
01000000
00010000
00100000
,
00001000
00000000
00011000
00000000
00010000
00000100
00001000
00000000
,
00000100
00000010
00000001
00000000
00001000
00000010
00000100
00001000
,
00010000
00000000
00011000
00000000
00001000
00100000
00010000
00000000
,
01000000
00100000
10000000
00000000
00010000
00100000
01000000
00000000
,
00010000
00001000
00000010
00000000
00000001
00000100
00000010
00000000
,
00001000
00000100
00000010
00000000
00001000
00010000
00100000
00000000
,
10000000
01000000
00100000
00000000
00020000
00000000
01030000
00001000
,
00000000
00010000
00000100
00000000
00002000
00000000
00003010
00010000
,
00000000
00001000
00100000
00000000
00020000
00000000
00130000
01000000
,
00000000
10000000
00100000
00000000
00020000
00000000
00031000
00100000
,
00000000
01000000
00010000
00000000
00002000
00000000
00003010
00000001
,
00000000
00000100
00000010
00000000
00001010
00000000
00010000
00000000
,
00011000
00000000
01000000
00000000
00010000
00100000
01000000
00000000
,
10000000
00100000
00010000
00000000
00001000
00000100
00000001
00000000
,
00000010
00000100
00001000
00000000
00000010
00010000
00001000
00000000
,
01000000
00001000
00010000
00000000
00000100
00010000
00001000
00000000
,
00100000
00001000
00010000
00000000
01000000
10000000
00100000
00010000
,
00100000
00010000
00001000
00000000
00000100
00000001
00000010
00001000
,
00000010
00001000
00010000
00000000
00011000
00000000
00001000
00100000
,
00000000
00001000
00010000
00000000
00000010
00010000
00001000
00000200
,
00000000
00000000
00000301
00000010
00000200
00000000
00010300
00000000
,
00000000
00001000
00000000
00010000
,
00000000
00000000
01000000
10000000
00200000
00000000
01300000
00000000
,
00000000
00000000
01010000
00000000
00010000
00100000
00002000
00020000
,
00000000
00000000
00033000
00000000
;

//---------------dance-double - ----------------
#NOTEDATA:;
#CHARTNAME:;
#STEPSTYPE:dance-double;
#DESCRIPTION:;
#CHARTSTYLE:;
#DIFFICULTY:Hard;
#METER:12;
#RADARVALUES:0.422835,0.516972,0.199989,0.299984,0.053330,444.000000,414.000000,30.000000,45.000000,0.000000,0.000000,0.000000,0.000000,0.000000,0.422835,0.516972,0.199989,0.299984,0.053330,444.000000,414.000000,30.000000,45.000000,0.000000,0.000000,0.000000,0.000000,0.000000;
#CREDIT:;
#NOTES:
00000000
00000000
00000000
00000000
,
00000000
00000000
00000000
00000000
,
00000000
00000000
00000000
00000000
,
00000000
00000000
00000000
00000000
,
00000000
00000000
00000000
00000000
01000000
00001000
00010000
00000100
,
00002000
00000000
00003010
00000000
00000010
00010000
00001000
01000000
,
00020000
00000000
00130000
00100000
01000000
00010000
00001000
00000010
,
00000200
00000000
00001300
00000000
00001000
00000010
00010000
00001000
,
01000000
00100000
01100000
00000000
10000000
01000000
00100000
00010000
,
01000000
00100000
00010000
00000000
00001000
00000100
00000010
00001000
,
00000100
00000010
00000001
00000000
00000100
00001000
00010000
01000000
,
10000000
00010000
10000000
00000000
00100000
00010000
00001000
00000100
,
00000001
00001000
00000001
00000000
00001001
00001000
00000010
00000100
,
00001000
00010000
00100000
00000000
10000000
00010000
01000000
00100000
,
00010000
00001000
00000100
00000000
00000001
00000010
00000100
00010000
,
00001000
00100000
01000000
00000000
10000000
01000000
00100000
00001000
,
00010000
00000100
00000110
00000000
00000001
00000100
00002000
00013000
,
00000000
00010000
00001000
00010000
01000000
10000000
00200000
01300000
,
00000000
01000000
00100000
00010000
00002000
00003100
00000000
00000101
,
00000000
00000001
00000010
00000200
00010300
00000000
00010000
00001000
,
00010000
01000000
10000000
00100000
01100000
01000000
00001000
00010000
,
00001000
00100000
00001000
00010000
00000010
00010000
00001000
00010000
,
00000100
00001000
00000001
00000000
00000100
00000010
00010000
00001000
,
00010000
00000100
00010000
00001000
01000000
00001000
00010000
00001000
,
00100000
00010000
10000000
00000000
01000000
00010000
00001000
00010000
,
00100000
00010000
00001000
00000100
00001000
00010000
00001000
00000100
,
00000001
00000000
00000010
00000000
00000100
00000010
00000100
00000000
00000220
00000000
00000330
00000000
00000000
00000000
00010100
00000000
,
00000000
00000000
01001000
00000000
00000000
00000000
01000000
00100000
02000000
00000000
00000000
00000000
00000000
00000000
03020000
00000000
,
00000000
00000000
10030000
10000000
,
00000000
00000000
01000000
00010000
00001000
00000000
00010000
00001000
,
00000100
00000000
00001000
00000100
00000002
00000000
00002003
00000000
,
00000000
00000000
00003000
00000000
00000000
00000000
00000001
00000010
,
00001000
00000000
00000010
00001000
00020000
00000000
00032000
00000000
,
00000000
00000000
00000000
00013000
00010000
01000000
10000000
00100000
,
01000000
00010000
00100000
00001000
00020000
00000000
00000010
00030010
,
00000000
00000010
00001000
00000100
00020200
00000000
00030300
00000000
,
02002000
03003000
00022000
00000000
,
00000000
00000000
00000000
00000000
,
00000000
00000000
00000000
00000000
,
00000000
00000000
00000000
00000000
,
00000000
00033000
00010100
00101000
,
00010010
01001000
00001000
00010000
,
00001000
00000000
00010000
00010000
00000100
00001000
00000001
00000200
,
00000000
00000310
00010000
00001000
00100000
00010000
01000000
00200000
,
00000000
00000000
10300000
00000000
01000000
00000000
00100000
00000000
00001000
00010000
00001000
00000000
00000100
00000000
00000001
00000000
,
00000010
00001000
00000010
00000001
00000100
00001000
00000100
00000001
,
00000010
00000000
00001000
00000000
00011000
00000000
00000000
00000000
00010000
00001000
00010000
00000000
01000000
00000000
10000000
00000000
,
00100000
00010000
00100000
10000000
01000000
00010000
01000000
10000000
,
00100000
00010000
00011000
00000000
00002000
01003000
00001000
00001000
,
00020000
00030100
00010000
00010000
00002000
00103000
00001000
00001000
,
00020000
00030010
00010000
00010000
00002000
00003100
00001000
00001000
,
00020000
01030000
00010000
00010000
00002000
00003010
00001000
00001000
,
00020000
00130000
00010000
00001000
00011000
00010000
00001000
00000200
,
00000000
00000301
00000010
00001000
00011000
00010000
01000000
20000000
,
00000000
30100000
01000000
00001000
00011000
00010000
00000010
00000200
,
00000000
00000301
00001000
00000100
00010100
00010000
00001000
00200000
,
00000000
01300000
10000000
00100000
01100000
01000000
00001000
00020000
,
00000000
00030100
00000010
00000001
00000101
00000000
00010010
00000000
,
00101000
00000000
00000000
00000000
11000000
00000000
00000000
00000000
10000000
00100000
10000000
00000000
01000000
00000000
00010000
00000000
,
01000000
00000000
10000000
00000000
00100000
00000000
00010000
00000000
00001000
00010000
00001000
00000000
00000100
00000000
00000001
00000000
,
00000010
00000000
00001000
00000000
00000010
00000000
00000001
00000000
00001000
00000100
00001000
00000000
00000010
00000000
00000100
00000000
,
00001000
00000000
00010000
00000000
00100000
00000000
01000000
00000000
00010000
00100000
00010000
00000000
10000000
00000000
00100000
01000000
,
00100000
00000000
00010000
00000000
00001000
00000000
00000100
00000000
00000010
00000100
00000010
00000000
00001000
00000000
00000100
00000010
,
00000100
00000000
00001000
00000000
00000010
00000000
00010000
00000000
00001000
00100000
00001000
00000000
00010000
00000000
00001000
01000000
,
00001000
00000000
00010000
00000000
01000000
00000000
10000000
00000000
00100000
01000000
00100000
00000000
00010000
00000000
00001000
00010000
,
00001000
00000000
00000100
00000000
00000001
00000010
00000001
00000000
00000010
00000000
00001000
00000000
00010000
00000000
00011000
00000000
,
00000000
00000000
00001000
01000000
01020000
00000000
00230000
00000000
,
00000000
02300000
00000000
23000000
,
00000000
00000000
30100000
00010000
00001000
00000100
00000102
00000000
,
00000000
00000000
00000023
00000000
00001030
00010000
00001000
00022000
,
00000000
00000000
00033000
00000000
;

//---------------dance-double - ----------------
#NOTEDATA:;
#CHARTNAME:;
#STEPSTYPE:dance-double;
#DESCRIPTION:;
#CHARTSTYLE:;
#DIFFICULTY:Challenge;
#METER:14;
#RADARVALUES:0.605682,0.751960,0.433310,0.279985,0.409978,636.000000,571.000000,65.000000,42.000000,0.000000,0.000000,0.000000,0.000000,0.000000,0.605682,0.751960,0.433310,0.279985,0.409978,636.000000,571.000000,65.000000,42.000000,0.000000,0.000000,0.000000,0.000000,0.000000;
#CREDIT:;
#NOTES:
// measure 0
00000000
00000000
00000000
00000000
,  // measure 1
00000000
00000000
00000000
00000000
,  // measure 2
00000000
00000000
00000000
00000000
,  // measure 3
00000000
00000000
00000000
00000000
,  // measure 4
00000000
00000000
00000000
00000000
00000010
00010000
00001000
00100000
,  // measure 5
00010000
00000000
01010000
00000000
01000000
00001000
00010000
00000100
,  // measure 6
00001000
00000000
00001010
00000010
00000100
00001000
00010000
00100000
,  // measure 7
01000000
00000000
01100000
00000000
00100000
00010000
00001000
00000100
,  // measure 8
00000010
00000000
00000000
00000000
00000220
00000000
00000330
00000000
00000100
00000000
00000100
00000000
00000100
00000000
00000001
00000010
,  // measure 9
00000001
00000000
00001000
00000000
00001010
00000000
00000000
00000000
00000010
00000000
00000010
00000000
00000010
00000000
00010000
00001000
,  // measure 10
00010000
00000000
00100000
00000000
10100000
00000000
00000000
00000000
10000000
00000000
10000000
00000000
10000000
00000000
01000000
00100000
,  // measure 11
01000000
00000000
00010000
00000000
00011000
00000000
00000000
00000000
00001000
00000000
00001000
00000000
00001000
00000000
00000010
00000100
,  // measure 12
00000010
00000000
00000001
00000000
00000101
00000000
00001000
00000000
00001010
00000000
00000010
00000000
00000010
00000000
00010000
00001000
,  // measure 13
01000000
00000000
00010000
00000000
00110000
00000000
00000000
00000000
00100000
00000000
00100000
00000000
00100000
00000000
01000000
10000000
,  // measure 14
00100000
00000000
00010000
00000000
00011000
00000000
00000000
00000000
00001000
00000000
00001000
00000000
00001000
00000000
00010000
00000100
,  // measure 15
00001000
00000000
00000001
00000000
00000011
00000000
00000000
00000000
00000010
00000000
00000010
00000000
00000010
00000000
00001000
00010000
,  // measure 16
00001000
00100000
00110000
01000000
11000000
10000000
00100000
01000000
,  // measure 17
00020000
00100000
00130000
00000000
00100000
01000000
00010000
00001000
,  // measure 18
00000020
00000100
00000130
00000000
00000100
00010000
00001000
00000100
,  // measure 19
00000002
00000010
00000013
00000000
00000010
00001000
00010000
01000000
,  // measure 20
20000000
00000000
00100000
00000000
30100000
00000000
10010000
00000000
00010000
01000000
00010000
00000000
00100000
00000000
00001000
00000000
,  // measure 21
00010000
00000100
00010000
00000000
00001000
00000000
00100000
00000000
01000000
10000000
01000000
00000000
00100000
00010000
00100000
00000000
,  // measure 22
00001000
00010000
00001000
00000000
00011000
00000000
00000000
00000000
00010000
00000100
00010000
00000000
00001000
00000000
00000100
00000000
,  // measure 23
00000010
00000100
00000010
00000000
00000100
00000000
00001000
00000000
00010000
00001000
00010000
00000000
00000010
00001000
00000010
00000000
,  // measure 24
00000100
00000001
00000100
00000000
00000110
00000000
00000000
00000000
00000010
00001000
00000010
00001000
00000100
00000000
00010000
00000000
,  // measure 25
00001000
00100000
00001000
00100000
00010000
00000000
01000000
00000000
00100000
10000000
01000000
00000000
00100000
00000000
01000000
10000000
,  // measure 26
00100000
00000000
00010000
00000000
00011000
00000000
00001000
00010000
00000100
00001000
00000010
00000100
00000001
00001000
00000100
00010000
,  // measure 27
00000010
00001000
00000100
00010000
00000010
00000100
00001000
00010000
00100000
01000000
00010000
10000000
01000000
00100000
00020000
00000000
,  // measure 28
00000000
00000000
01030000
01001000
,  // measure 29
00000000
00000000
00000000
00000000
00000000
00000000
00010010
00000000
00000000
00000010
00000000
00001000
00000000
00000010
00000000
00000000
00000000
00000000
00000000
00000000
00000000
00010000
00000000
00001000
,  // measure 30
00000000
00010000
00000000
00000000
00000000
00000000
00000000
00000000
00000000
00100000
00000000
01000000
00000000
00100000
00000000
00000000
00000000
00000000
20100000
00000000
00000000
00000000
00000000
00000000
,  // measure 31
00000000
00000000
00000000
31000000
00000000
00000000
00000000
00000000
01000000
00010000
00001000
00010000
,  // measure 32
00001000
00000000
00000000
00000000
00011000
00000000
00010000
00001000
00000200
00000000
00000000
00000000
00000301
00000000
00000000
00000000
,  // measure 33
00000000
00000000
00000001
00001000
00000001
00000010
00000100
00001000
,  // measure 34
00010000
00100000
01000000
10000000
00200000
00000000
01300000
00020000
,  // measure 35
00000000
00000000
00130000
00000000
00100000
01000000
00010000
00000000
00012000
00000000
00000000
00000000
00103000
00000000
00000000
00000000
,  // measure 36
00021000
00000000
00030010
00000000
00022000
00030000
00010000
00010000
,  // measure 37
01000000
00000000
01003000
00000000
01000000
00010000
00100000
00000000
01100000
00000000
00000000
11000000
00000000
10000000
00200000
00000000
,  // measure 38
01000000
00000000
01000000
00000000
00010000
00000000
00310000
00000000
00011000
00000000
00000000
00001100
00000000
00000100
00000002
00000000
,  // measure 39
00000000
00000000
00000000
00000000
00000000
00000000
00000013
00000000
00000000
00000000
00000000
00000000
00000010
00000000
00000100
00000000
00000010
00000000
00000100
00000000
00000000
00000000
00000000
00000000
00001100
00000000
00000000
00000000
00000000
00000000
00000000
00000000
00000000
00010100
00000000
00000000
00000000
00000000
00000000
00010000
00000000
00000000
00002000
00000000
00000000
00000000
00000000
00000000
,  // measure 40
01000000
00000000
00000000
01003000
00000000
00000000
01000000
00100000
01000000
00100000
00000000
00000000
20100000
00000000
00000000
00000000
00000000
00000000
32000000
00000000
00000000
00000000
00000000
00000000
,  // measure 41
03020000
00000000
00000000
00000000
00032000
00000000
00000000
00000000
00003020
00000000
00000000
00000000
00000031
00000100
00000010
00001000
,  // measure 42
00000100
00010000
00000100
00010000
00000000
00000000
00001000
01000000
00001000
01000000
00000000
00000000
01100000
00000000
00000000
00100000
00000000
00000000
10000000
00000000
00000000
01000000
00000000
00000000
,  // measure 43
00010000
00001000
00000010
00000001
00000101
00000100
00000110
00000010
,  // measure 44
00010010
00000000
00010000
00000000
00022000
00000000
00033000
00000000
00001000
00100000
00001000
00100000
00010000
00000000
01000000
00000000
,  // measure 45
00100000
10000000
00100000
10000000
01000000
00000000
00100000
00000000
00010000
01000000
00010000
01000000
00001000
00010000
00000100
00001000
,  // measure 46
00000010
00000000
00010000
00000000
00022000
00000000
00033000
00000000
00010000
00000010
00010000
00000010
00001000
00000000
00000100
00000000
,  // measure 47
00000010
00000001
00000010
00000001
00000100
00000000
00000010
00000000
00001000
00000100
00001000
00000100
00010000
00001000
01000000
00010000
,  // measure 48
00100000
00000000
00001000
00000000
00022000
00000000
00033000
00000000
00001000
00010000
00100000
00000000
10000000
00000000
01000000
00000000
,  // measure 49
00100000
00010000
01000000
00000000
00001000
00000000
00010000
00000000
00000010
00001000
00000100
00000000
00000010
00000000
00000001
00000000
,  // measure 50
00000100
00000010
00001000
00000000
00000100
00000000
00000010
00000000
00001000
00010000
00100000
00000000
00010000
00000000
00001000
00000000
,  // measure 51
00000010
00001000
00010000
00000000
00100000
00000000
10000000
00000000
01000000
00100000
00010000
00000000
01000000
00000000
00001000
00000000
,  // measure 52
00010000
00001000
00000100
00000000
00000001
00000000
00000010
00000000
00000110
00000000
00000100
00000000
00010000
00000000
00011000
00000000
,  // measure 53
00001000
00100000
02100000
13000000
10100000
00100000
01000000
01001000
,  // measure 54
00001000
00010000
00010010
00000010
00002010
00003100
00000010
00000011
,  // measure 55
00000001
00000100
00000110
00000010
00020010
00031000
00100000
00110000
,  // measure 56
01000000
10000000
10100000
00100000
02100000
03001000
00010000
00010100
,  // measure 57
00000100
00000010
00000011
00000001
00000101
00000100
00000110
00000010
,  // measure 58
00010010
00000000
00010000
00000000
00022000
00000000
00033000
00000000
00001000
00100000
00010000
00000000
01000000
00100000
10000000
00000000
,  // measure 59
00010000
00100000
01000000
00000000
00010000
00001000
00000010
00000000
00000001
00000100
00000010
00000000
00001000
00000100
00000010
00000000
,  // measure 60
00001000
00010000
01000000
00000000
10000000
00100000
01000000
00000000
00010000
00100000
00010000
00100000
01000000
00000000
00010000
00000000
,  // measure 61
00001000
00010000
00001000
00010000
00000100
00000000
00000010
00000000
00000001
00000100
00000001
00000100
00000010
00001000
00000100
00010000
,  // measure 62
00001000
00100000
00010000
10000000
00010000
00000000
10010000
00000000
10000000
00100000
10000000
00100000
01000000
00010000
00100000
01000000
,  // measure 63
00010000
00001000
00000010
00000100
00000010
00000000
00000110
00000000
00000100
00001000
00000100
00000010
00000001
00000100
00001000
00000100
,  // measure 64
00001000
00010000
01000000
10000000
00100000
10000000
00100000
01000000
00020000
00000000
00000000
00000000
00130000
00000000
02000000
00000000
,  // measure 65
00000000
03010000
00002000
00000000
00003010
00000001
00001000
00002020
,  // measure 66
00003000
00000000
00000000
00000000
00010030
00000000
00001000
00000000
00100000
00000000
00100000
00000000
00100000
00000000
01000000
10000000
,  // measure 67
00100000
00000000
00010000
00000000
00011000
00000000
00000000
00000000
00001000
00000000
00001000
00000000
00001000
00000000
00010000
00001000
,  // measure 68
00000100
00000000
00000001
00000000
00000010
00000000
00001000
00000000
00011000
00000000
00010000
00000000
00010000
00000000
00001000
00000100
,  // measure 69
00000001
00000010
00000110
00000000
00000100
00010000
00001000
02002000
,  // measure 70
00000000
00000000
03003000
00000000
;
