#VERSION:0.83;
#TITLE:Twelfth Style;
#SUBTITLE:;
#ARTIST:Tatsh&DAYBREAKERS NEXT;
#TITLETRANSLIT:;
#SUBTITLETRANSLIT:;
#ARTISTTRANSLIT:;
#GENRE:HAPPY EURO PARADISE;
#CREDIT:;
#MUSIC:Twelfth Style.ogg;
#BANNER:Twelfth Style.png;
#BACKGROUND:Twelfth Style-bg.png;
#CDTITLE:./CDTitles/bm IIDX 12 HAPPY SKY.png;
#SAMPLESTART:79.500;
#SAMPLELENGTH:15.000;
#SELECTABLE:YES;
#OFFSET:0.000;
#BPMS:0.000=80.000
,20.000=160.000
,264.000=80.000
;
#STOPS:;
#TIMESIGNATURES:0.000=2=4,
20.000=4=4,
264.000=2=4
;
#BGCHANGES:0.000=Twelfth Style.mp4=1.000=0=0=0=StretchNoLoop====,
99999.000=-nosongbg-=1.000=0=0=0=StretchNoLoop====
;
#FGCHANGES:;

//--------------- dance-single - Extraordiberry ----------------
#NOTEDATA:;
#STEPSTYPE:dance-single;
#DESCRIPTION:Extraordiberry;
#DIFFICULTY:Beginner;
#METER:3;
#RADARVALUES:0,0,0,0,0;
#CREDIT:Extraordiberry;
#NOTES:
0000
0000
0000
0000
,
0000
0000
0000
0000
,
0000
0000
1000
0000
,
0100
0000
0010
0000
,
0001
0001
0000
0000
,
0000
0000
0000
0000
,
1000
0000
0000
0000
,
0001
0000
0000
0000
,
0010
0000
0000
0000
,
0100
0000
0000
0000
,
1000
0000
0000
0000
,
0001
0000
0000
0000
,
0100
0000
0000
0000
,
1001
0000
0000
0000
,
1000
0000
0000
0000
,
0001
0000
0000
0000
,
0010
0000
0000
0000
,
0100
0000
0100
0000
,
1000
0000
0000
0000
,
0001
0000
0000
0000
,
0100
0000
0000
0000
,
0010
0010
0010
0000
,
1000
0000
0000
0000
,
0001
0000
0000
0000
,
1000
0000
0000
0000
,
0100
0000
0000
0000
,
0010
0000
0000
0000
,
0001
0000
0001
0000
,
1000
0000
0010
0000
,
1000
0000
0000
0000
,
0001
0000
0010
0000
,
0001
0000
0000
0000
,
1000
0000
1000
0000
,
0100
0000
0000
0000
,
1000
0000
1000
0000
,
0010
0000
0000
0000
,
0100
0000
0000
0000
,
0001
0000
0000
0000
,
1000
0000
1000
0000
,
1001
0000
0000
0000
,
0001
0000
0001
0000
,
1001
0000
0000
0000
,
1000
0000
1000
0000
,
1000
1000
1000
0000
,
0001
0000
0001
0000
,
0001
0001
0001
0000
,
1000
0000
0000
0000
,
0000
0001
0000
0001
,
1000
0000
0100
0000
,
1000
0000
0000
0000
,
0001
0000
0100
0000
,
0001
0000
0001
0000
,
1000
0000
1000
0000
,
0010
0000
0000
0000
,
1000
0000
1000
0000
,
0100
0000
0100
0000
,
0010
0010
0010
0000
,
0001
0000
0100
0000
,
0010
0000
0000
0000
,
1000
0000
0100
0000
,
0010
0010
0010
0000
,
0001
0000
0100
0000
,
0010
0000
0010
0000
,
1000
0000
0100
0000
,
0010
0010
0010
0000
,
0001
0001
0001
0001
,
1000
0000
0000
0000
,
0001
0000
1000
0000
,
0010
0000
0100
0000
,
0001
0000
0010
0000
,
0100
0000
1000
1000
;

//--------------- dance-single - Extraordiberry ----------------
#NOTEDATA:;
#STEPSTYPE:dance-single;
#DESCRIPTION:Extraordiberry;
#DIFFICULTY:Easy;
#METER:7;
#RADARVALUES:0,0,0,0,0;
#CREDIT:Extraordiberry;
#NOTES:
0000
0000
0000
0000
,
0000
0000
0000
0000
,
0000
0000
2000
0000
,
3002
0000
0203
0000
,
0310
2002
0000
0000
,
0000
0000
0000
3003
,
1000
0100
0010
0000
,
0001
0100
0010
0000
,
1000
0100
0001
0100
,
2000
0000
0000
3000
,
0001
0100
0010
0000
,
1000
0100
0010
0010
,
0001
0100
1000
0100
,
0002
0000
0000
0003
,
1000
0100
0010
0010
,
0001
0100
0010
0010
,
1000
0100
0001
0100
,
1000
1000
1000
0000
,
0001
0100
0010
0010
,
1000
0100
0010
0010
,
0001
0100
1000
0100
,
0002
1000
1000
1003
,
0001
0010
1000
0000
,
0001
0100
1000
0000
,
1000
0010
0001
0000
,
1000
0200
0300
0000
,
0001
0000
1000
0000
,
0001
0001
0001
0000
,
1000
0001
0010
0000
,
0001
1000
0010
0100
,
0001
1000
0100
0000
,
0010
0010
0001
0100
,
0001
0010
0200
0000
,
1300
0010
0200
0000
,
0301
0010
0100
0010
,
0001
1000
0010
1000
,
0002
0000
0000
0000
,
1000
1000
1003
0000
,
0001
0001
0001
0001
,
1001
0010
1001
0010
,
1000
1000
1000
1000
,
1001
0010
1001
0010
,
1000
0100
0001
0000
,
1000
0010
0001
0000
,
0001
0100
1000
0000
,
1000
0100
0001
0000
,
1000
0001
0020
0000
,
0000
1000
0000
0031
,
1000
0010
0100
0100
,
0001
0010
0100
0100
,
1000
0001
0100
0001
,
1000
1000
1000
0000
,
0001
0010
0100
0100
,
1000
0010
0100
0100
,
0001
1000
0100
1000
,
0001
0001
0001
0000
,
1001
1000
1001
1000
,
0001
0100
1000
1000
,
0100
0001
1000
1000
,
0001
0010
0100
0100
,
1000
1000
1001
0000
,
1000
0010
0001
0001
,
0010
1000
0001
0001
,
1000
0100
0010
0010
,
0001
0001
1001
0000
,
1001
1001
1001
1001
,
0002
0000
0003
0000
,
2000
0000
3002
0000
,
0023
0000
0230
0000
,
2300
0000
3002
0000
,
0203
0000
0310
2002
,
0000
0000
0000
3003
;

//--------------- dance-single - Extraordiberry ----------------
#NOTEDATA:;
#STEPSTYPE:dance-single;
#DESCRIPTION:Extraordiberry;
#DIFFICULTY:Medium;
#METER:13;
#RADARVALUES:0,0,0,0,0;
#CREDIT:Extraordiberry;
#NOTES:
0000
0000
0000
0000
,
0000
0000
0000
0000
,
0000
0000
0000
0000
2000
0000
3001
0001
,
0200
0000
0310
1000
0002
0000
0000
0000
,
1003
0100
0001
0200
0000
0000
0000
0000
,
0000
0000
0000
0000
,
1300
0000
0000
1000
0000
0000
1000
0000
0010
0000
0010
0000
0100
0000
0000
0000
,
0001
0000
0000
0001
0000
0000
0001
0000
0010
0000
0010
0000
0100
0000
0000
0000
,
1000
0000
0000
0010
0000
0000
1000
0000
0001
0000
0000
0010
0000
0000
0001
0000
,
0200
0000
0000
0300
,
0001
1000
0000
1000
0000
0000
0010
0000
0100
0000
0100
0000
0001
0000
0000
0000
,
1000
0001
0000
0001
0000
0000
0010
0000
0100
0000
0100
0000
1000
0000
0000
0000
,
0001
0000
0000
1000
0000
0000
0010
0000
1000
0000
1000
0000
0001
0000
0010
0000
,
0200
0000
0000
0010
0000
0000
1000
0000
0000
0010
0000
0000
1300
0000
0000
0000
,
0001
1000
0000
1000
0000
0000
0001
0000
0010
0000
0010
0000
0100
0000
0000
0000
,
1000
0001
0000
0001
0000
0000
1000
0000
0010
0000
0010
0000
0100
0000
0000
0000
,
0001
0000
0000
1000
0000
1000
0100
0000
1000
0000
0000
0001
0000
0001
0100
0000
,
0010
0000
0010
0000
1000
0000
0001
0000
0010
0000
0000
0100
0000
0000
0010
0000
,
0001
1000
0000
1000
0000
0000
0001
0000
0100
0000
0100
0000
0010
0000
0000
0000
,
1000
0001
0000
0001
0000
0000
1000
0000
0100
0000
0100
0000
0010
0000
0000
0000
,
0001
0000
0000
1000
0000
1000
0010
0000
0100
0000
0100
0000
0001
0000
1000
0000
,
0100
0000
0000
0001
0000
0000
0100
0000
0000
1000
0000
0000
0001
0000
0001
0000
,
1000
0000
0010
0000
1000
0000
0100
0000
1000
0000
0000
0101
0000
0000
0100
0000
,
0001
0000
0010
0000
0001
0000
0100
0000
0001
0000
0000
1100
0000
0000
0100
0000
,
1000
0000
0010
0000
1000
0000
0100
0000
1000
0000
0000
0101
0000
0000
0100
0000
,
0001
0001
0020
0000
0000
0130
1000
0002
,
0000
0103
0010
2000
0000
3100
0010
0001
,
1001
0000
0001
0000
1000
0001
0000
0000
1001
0000
0001
1000
0000
0000
0001
0000
,
1000
0000
0010
0100
0000
0000
0001
0000
0100
0000
1000
0000
0100
0000
0100
0000
,
0001
0000
0010
0100
0000
0000
1000
0000
0100
0000
0001
0000
0100
0000
0100
0000
,
1000
0000
0010
0100
0000
0000
0001
0000
0100
1000
0000
0000
0100
0000
0100
0000
,
0001
0000
0010
0000
0100
0000
1000
0000
0001
0100
0000
0001
0000
0000
0010
0000
,
0001
0000
0100
0000
1000
0000
0100
0000
0001
1000
0000
0002
0000
0000
0003
0000
,
1000
0000
0100
0000
0001
0000
0100
0000
1000
0001
0000
2000
0000
0000
3001
0000
,
1000
0000
0010
0000
0001
0000
0010
0000
1000
0001
0000
2000
0000
0000
3002
0000
,
0023
0000
0000
0032
0000
0000
0203
0000
0000
0000
0302
0000
0023
0000
0032
0000
,
0203
0000
0000
0000
0302
0000
2003
0002
,
0000
0000
0000
3003
,
1000
1000
0001
0001
1000
1000
0001
0001
,
1000
0001
0110
0000
1000
0001
0110
0000
,
0001
0001
1000
1000
0001
0001
1000
1000
,
0001
1000
0110
0000
0001
1000
0110
0000
,
1000
1000
0100
0100
0001
0001
0100
0100
,
1000
0000
0001
1000
0001
0000
0000
0000
1000
0000
0001
1000
0001
0000
0000
0000
,
0001
0001
0100
0100
1000
1000
0100
0100
,
0110
0000
0001
0001
1000
1000
0100
0100
,
0010
0000
0001
1000
0001
0000
0000
0000
0010
0000
0001
1000
0001
0000
0000
0000
,
0000
0000
0000
0000
0010
1000
0000
0000
0000
0000
0000
0000
0010
0001
0000
0000
,
1000
0000
0010
0000
0100
0000
0100
0000
0001
0000
0000
0010
0000
0001
1000
0000
,
0001
0000
0001
0000
0010
0000
0100
0000
1000
0000
0000
0010
0000
1000
0001
0000
,
1000
0000
0010
0000
0100
0000
0100
0000
0001
0000
0000
0010
0000
0001
1000
0000
,
0001
0000
0100
0000
1000
0000
0100
0000
0001
0000
0000
0010
0000
0001
0100
0000
,
0001
0000
0010
0000
0100
0000
0100
0000
1000
0000
0000
0010
0000
1000
0001
0000
,
1000
0000
1000
0000
0010
0000
0100
0000
0001
0000
0000
0010
0000
0001
1000
0000
,
0001
0000
0010
0000
0100
0000
0100
0000
1000
0000
0000
0010
0000
1000
0001
0000
,
1000
0000
0100
0000
0001
0000
0100
0000
1000
0000
0000
0010
0000
0010
0100
0000
,
0001
0010
1000
0010
0001
0010
1000
0010
,
0001
0000
0100
0000
0010
0000
0010
0000
1000
0000
0001
0100
0000
0100
0010
0000
,
1000
0000
1000
0000
0100
0000
0010
0000
0001
0000
1000
0100
0000
0100
0010
0000
,
0001
0000
0100
0000
0010
0000
0010
0000
1000
0000
0001
0100
0000
0100
0010
0000
,
1000
0000
0010
0000
0001
0000
0010
0000
1000
0000
0001
0010
0000
0010
0100
0000
,
1000
0000
0010
0000
0100
0000
0100
0000
0001
0000
1000
0010
0000
0010
0100
0000
,
0001
0000
0001
0000
0010
0000
0100
0000
1000
0000
0001
0010
0000
0010
0100
0000
,
1000
0000
0010
0000
0100
0000
0100
0000
0001
0000
1000
0010
0000
0010
0100
0000
,
0001
0000
0010
0000
1000
0000
0010
0000
0001
0000
1000
0010
0000
0010
0100
0000
,
0001
0010
1000
0001
0100
1000
0001
0010
,
0002
0000
0003
0000
,
2000
0000
3001
0001
0200
0000
0310
1000
,
0002
0000
1003
0010
2000
3200
0320
0032
,
2003
0000
3001
0001
0200
0000
0310
1000
,
0002
0000
0000
0000
1003
0100
0001
0200
,
0000
0000
0000
0300
;

//--------------- dance-single - Extraordiberry ----------------
#NOTEDATA:;
#STEPSTYPE:dance-single;
#DESCRIPTION:Extraordiberry;
#DIFFICULTY:Hard;
#METER:17;
#RADARVALUES:0,0,0,0,0;
#CREDIT:Extraordiberry;
#NOTES:
0000
0000
0000
0000
,
0000
0000
0000
0000
,
0000
0000
0000
0000
0000
0000
0000
0000
2000
0000
0000
0000
3001
0010
0001
0000
,
0200
0000
0310
1000
0002
0000
0000
0000
,
1003
0100
1002
0100
0000
0000
0000
0000
,
0000
0000
0000
0000
,
1003
0100
0000
0100
0000
0000
0010
0000
0001
0000
0001
0000
0100
0000
0000
0000
,
0001
0010
0000
0010
0000
0000
0100
0000
1000
0000
1000
0000
0010
0000
0000
0000
,
1000
0000
0000
0100
0000
1000
0001
0000
0100
0000
0000
0010
0000
1000
0100
0000
,
0220
0000
0000
0330
,
1000
0100
0000
0010
0000
0100
1000
0000
0001
0000
0001
0000
0100
0000
0000
0000
,
0001
0010
0000
0100
0000
0010
0001
0000
1000
0000
1000
0000
0010
0100
0000
0100
,
0001
1000
0000
0100
0000
1000
0001
0000
0100
0000
1000
0000
0100
0000
0001
0000
,
1002
0000
0000
0100
0000
0000
1000
0000
0000
0010
0000
0000
1000
0000
1003
0000
,
0001
0100
0000
0001
1000
0010
1000
0000
0001
0010
0001
0000
1000
0000
0000
0000
,
1000
0010
0000
1000
0001
0100
0001
0000
1000
0100
1000
0000
0001
0000
0000
0000
,
0001
0000
1000
0010
0000
0010
0100
0000
0001
0000
1000
0100
0000
0100
0010
0000
,
0001
0000
0001
0000
0100
0000
0001
0000
0010
0100
0000
1000
0001
0100
0001
0000
,
1000
0100
0000
1000
0001
0010
0001
0000
1000
0010
1000
0000
0001
0000
0000
0000
,
0001
0010
0000
0001
1000
0100
1000
0000
0001
0100
0001
0000
1000
0100
0000
0100
,
1000
0001
0000
0100
0000
0001
1000
0000
0100
0000
0001
0000
0100
0000
1000
0000
,
1001
0000
0001
0100
0000
0001
0010
0000
0100
1000
0000
0010
0100
0010
1000
0000
,
0001
0000
0001
0000
0010
0001
2000
0000
0010
0000
0000
0001
0000
0000
3100
0000
,
1000
0000
1000
0000
0010
1000
0002
0000
0010
0000
0000
1000
0000
0000
0103
0000
,
0001
0000
0001
0000
1000
0001
0020
0000
1000
0000
0000
0100
0000
0000
0031
0000
,
0010
0001
1000
0000
0020
0000
0000
0000
0000
0000
0130
0000
0001
0000
2000
0000
,
0000
3001
0010
0200
0000
1300
0010
1000
,
1001
0000
0001
0000
1000
0100
0000
0010
0100
0000
1000
0100
0000
0010
0100
0000
,
1000
0001
0010
0001
0000
1000
0100
0010
0100
0000
0001
0000
0100
0000
1000
0000
,
0001
1000
0010
1000
0000
0001
0100
0010
0100
0000
1000
0000
0100
0000
0010
0000
,
1000
0001
1000
0100
0000
0010
0100
0010
0001
1000
0000
1000
0100
0000
0010
0000
,
0001
0000
1000
0000
0010
0000
0001
0000
0010
0100
0000
0001
1000
0001
0010
0000
,
0001
0000
0100
0000
1000
0000
0100
0000
0001
0010
0100
2000
0000
0000
3000
0000
,
1000
0000
0100
0000
0001
0000
0100
0000
1000
0010
0100
0002
0000
0000
1003
0000
,
0001
0000
0010
0000
1000
0000
0010
0000
0001
1000
0000
0020
0000
0000
1030
0000
,
0100
0000
0100
0010
0000
0000
0002
0000
0000
0000
1003
0000
0100
0000
1000
0000
,
0002
0000
0000
0000
0203
0000
0310
2000
,
0002
0000
0000
3003
,
1000
0010
0001
0010
1000
0010
0001
0010
,
1000
0100
1010
0000
1000
0100
1010
0000
,
0001
0010
1000
0010
0001
0010
1000
0010
,
0001
0100
0011
0000
0001
0100
0011
0000
,
1000
0010
0001
1000
0100
0001
1000
0100
,
1100
0000
0100
1000
0010
0000
0000
0000
1100
0000
0100
1000
0010
0000
0000
0000
,
1000
0100
0001
1000
0010
0001
1000
0010
,
1010
1000
0010
0001
1000
0001
0010
1000
,
0001
0000
0010
0001
0100
0000
0000
0000
1000
0000
0100
0000
1001
0000
0000
0000
,
0000
0000
0000
0000
1000
1000
0000
0000
0000
0000
0000
0000
0001
0001
0000
0000
,
1000
0000
0001
0000
0010
0100
0000
0100
1000
0000
0001
0100
0000
0100
0010
0000
,
1000
0000
1000
0000
0001
0010
0000
0001
0100
0000
0010
1000
0000
0100
0010
0000
,
0001
0000
1000
0000
0010
0100
0000
0100
0001
0000
1000
0100
0000
0100
0010
0000
,
0001
1000
0001
1000
0001
1000
0001
1000
0001
0000
0100
0010
0000
1000
0001
0000
,
1000
0000
0100
0000
0010
0001
0000
0001
0100
0000
0010
1000
0000
1000
0100
0000
,
0010
0000
0010
0000
0001
0100
0000
0001
0010
0000
0100
1000
0000
0010
0100
0000
,
0001
0000
0010
0000
0100
1000
0000
1000
0010
0000
0100
0001
0000
0001
0010
0000
,
0100
0010
0100
0010
0100
0010
0100
0010
0100
0010
0100
1000
0000
0100
0010
0100
,
1000
0010
0100
0010
1000
0010
0100
0010
1000
0010
0100
0010
1000
0010
0100
0010
,
1000
0000
0001
0000
0010
0100
0000
0100
0001
0000
0100
0010
0000
0010
0001
0000
,
1000
0000
1000
0000
0010
0100
0000
1000
0100
0000
0001
0100
0000
0001
1000
0000
,
0001
0000
0010
0000
0100
0010
0000
0010
1000
0000
0010
0100
0000
0100
1000
0000
,
0001
1000
0010
1000
0001
1000
0010
1000
0001
0000
0100
0010
0000
0001
0010
0100
,
0001
0000
1000
0000
0100
0010
0000
0010
1000
0000
0010
0001
0000
0001
1000
0000
,
0010
0000
0010
0000
0100
1000
0000
0001
0010
0000
0100
0001
0000
0010
0100
0000
,
1000
0000
0010
0000
0100
1000
0000
1000
0001
0000
0010
0100
0000
0100
0001
0000
,
1000
0001
0010
0001
1000
0001
0010
0001
1000
0001
0010
0001
0000
1000
0001
0100
,
0010
1000
0100
1000
0010
1000
0100
1000
0010
1000
0100
1000
0010
1000
0100
1000
,
0002
0000
0003
0000
,
2000
0000
0000
0000
3001
0100
0001
0000
0020
0000
0000
0000
0130
0000
1000
0000
,
0002
0000
0000
0000
0103
0010
0000
1000
0002
0000
0023
0000
0230
0000
2300
0000
,
3002
0000
0000
0000
1003
0010
1000
0000
0200
0000
0000
0000
0310
0000
0001
0000
,
2000
0000
0000
0000
3001
0100
2001
0100
,
0000
0000
0000
3000
;

//--------------- dance-double - Extraordiberry ----------------
#NOTEDATA:;
#STEPSTYPE:dance-double;
#DESCRIPTION:Extraordiberry;
#DIFFICULTY:Easy;
#METER:7;
#RADARVALUES:0,0,0,0,0;
#CREDIT:Extraordiberry;
#NOTES:
00000000
00000000
00000000
00000000
,
00000000
00000000
00000000
00000000
,
00000000
00000000
00020000
00000000
,
00032000
00000000
02003000
00000000
,
03200000
00320000
00000000
00000000
,
00000000
00000000
00000000
00030000
,
00001000
00010000
00000100
00000000
,
00010000
00001000
01000000
00000000
,
00001000
00100000
00010000
01000000
,
00200000
00000000
00000000
00300000
,
10000000
01000000
00100000
00000000
,
00010000
01000000
00100000
10000000
,
01000000
00100000
01000000
01000000
,
00020000
00000000
00000000
00030000
,
00001000
00010000
00000010
00000000
,
00010000
00001000
00100000
00000000
,
00001000
01000000
00010000
00100000
,
01000000
00100000
00001000
00000000
,
00010000
00001000
01000000
00000000
,
00001000
00010000
00000100
00000010
,
00000001
00000100
00001000
00001000
,
00020000
00000000
00000000
00030000
,
00001000
00100000
01000000
00000000
,
00010000
00001000
01000000
00000000
,
00100000
10000000
01000000
00000000
,
00010000
00002000
00003000
00000000
,
00020000
00030000
00002000
00003000
,
01000000
00001000
00010000
00000000
,
00001000
00010000
00000100
00000100
,
00010000
00001000
01000000
00000000
,
00001000
00010000
00000100
00000000
,
00010000
00100000
01000000
00001000
,
00010000
00010000
00000200
00000300
,
00010000
00010000
00000020
00000030
,
00010000
00010000
00001000
01000000
,
00100000
01000000
00010000
00000000
,
00200000
00000000
00301000
00010000
,
00002000
00000000
00000000
00003000
,
00010000
00001000
01000000
00100000
,
00000000
00010000
00000000
00010000
,
00001000
00010000
00000100
00000010
,
00000000
00001000
00000000
00001000
,
00010000
00001000
01000000
00100000
,
10000000
01000000
00000000
00010000
,
00001000
00010000
00000100
00000010
,
00000001
00000100
00000000
00001000
,
00010000
00000100
00000000
00010000
,
00000000
00010100
00000000
00010100
,
00010000
00001000
01000000
00000000
,
00001000
00010000
00000100
00000000
,
00010000
00001000
01000000
00010000
,
10000000
01000000
00010000
00000000
,
00001000
00010000
00000010
00000000
,
00010000
00001000
00100000
00000000
,
00001000
00010000
00000010
00000100
,
00000001
00000100
00001000
00000000
,
00010000
00100000
10000000
00010000
,
00100000
00001000
00010000
00000000
,
00000010
00010000
00001000
00000000
,
00100000
00001000
00010000
00000100
,
00000010
00001000
00010000
00000000
,
00000100
00010000
00001000
00000000
,
01000000
00001000
00010000
00000000
,
00000100
00010000
00001000
00100000
,
01000000
00010000
00001000
00000000
,
00000010
00000001
00000100
00001000
,
00020000
00000000
00030000
00000000
,
00002000
00000000
00023000
00000000
,
00030020
00000000
00002030
00003200
,
00020300
00000000
00032000
00000000
,
02003000
00000000
03200000
00320000
,
00000000
00000000
00000000
00000000
,
00000000
00030000
00000000
00000000
;

//--------------- dance-double - Extraordiberry ----------------
#NOTEDATA:;
#STEPSTYPE:dance-double;
#DESCRIPTION:Extraordiberry;
#DIFFICULTY:Medium;
#METER:13;
#RADARVALUES:0,0,0,0,0;
#CREDIT:Extraordiberry;
#NOTES:
00000000
00000000
00000000
00000000
,
00000000
00000000
00000000
00000000
,
00000000
00000000
00000000
00000000
00020000
00000000
00030100
00001000
,
00000200
00000000
00000310
00000001
00000200
00000000
00000000
00000000
,
00001300
00010000
01000000
00020000
00000000
00000000
00000000
00000000
,
00000000
00000000
00000000
00000000
,
00031000
00000000
00000000
00010000
00000000
00000000
00100000
00000000
01000000
00000000
01000000
00000000
00001000
00000000
00000000
00000000
,
00010000
00000000
00000000
00001000
00000000
00000000
00000010
00000000
00000100
00000000
00000100
00000000
00010000
00000000
00000000
00000000
,
00001000
00000000
00000000
01000000
00000000
00000000
00001000
00000000
00010000
00000000
00000000
00000100
00000000
00000000
00010000
00000000
,
00002000
00000000
00000000
00003000
,
00010000
00000000
00000000
00100000
00000000
00000000
10000000
00000000
01000000
00000000
01000000
00000000
00010000
00000000
00000000
00000000
,
00001000
00000000
00000000
00000010
00000000
00000000
00000001
00000000
00000100
00000000
00000100
00000000
00001000
00000000
00000000
00000000
,
00010000
00000000
00000000
00100000
00000000
00000000
00010000
00000000
00001000
00000000
00010000
00000000
01000000
00000000
00100000
00000000
,
00002000
00000000
00000000
00100000
00000000
00000000
00010000
00000000
00000000
00100000
00000000
00000000
00013000
00000000
00000000
00000000
,
00001000
00000010
00000000
00000010
00000000
00000000
00000001
00000000
00000100
00000000
00000100
00000000
00001000
00000000
00000000
00000000
,
00010000
00100000
00000000
00100000
00000000
00000000
10000000
00000000
01000000
00000000
01000000
00000000
00010000
00000000
00000000
00000000
,
00001000
00000000
00000000
00000100
00000000
00000000
00000001
00000000
00000010
00000000
00000000
00000100
00000000
00000000
00000010
00000000
,
00000001
00000000
00000001
00000000
00000100
00000000
00001000
00000000
00010000
00000000
00000000
01000000
00000000
00000000
00100000
00000000
,
00001000
00010000
00000000
00010000
00000000
00000000
00100000
00000000
10000000
00000000
10000000
00000000
01000000
00000000
00000000
00000000
,
00010000
00001000
00000000
00001000
00000000
00000000
00000010
00000000
00000001
00000000
00000001
00000000
00000100
00000000
00001000
00000000
,
00010000
00000000
00000000
01000000
00000000
00000000
00010000
00000000
00001000
00000000
00010000
00000000
00100000
00000000
01000000
00000000
,
00001000
00000000
00000000
01000000
00000000
00000000
10000000
00000000
00000000
01000000
00000000
00000000
00001000
00000000
00001000
00000000
,
00010000
00000000
01000000
00000000
10000000
00000000
10000000
00000000
00020000
00000000
00000000
00100000
00000000
00000000
00031000
00000000
,
00000100
00000000
00000010
00000000
00000001
00000000
00000001
00000000
00002000
00000000
00000000
00000010
00000000
00000000
00013000
00000000
,
01000000
00000000
00100000
00000000
10000000
00000000
10000000
00000000
00020000
00000000
00000000
00100000
00000000
00000000
00031000
00000000
,
00000100
00010000
00002000
00000000
00000000
00013000
00100000
20000000
,
00000000
31000000
00010000
00002000
00000000
00013000
00100000
01000000
,
00001000
00010000
01000000
10000000
00100000
00010000
00001000
00000000
,
00010000
00000000
00010000
00000100
00000000
00000000
00000010
00000000
00000001
00000000
00001000
00000000
00000010
00000000
00010000
00000000
,
00001000
00000000
00001000
01000000
00000000
00000000
00100000
00000000
10000000
00000000
00010000
00000000
00100000
00000000
00001000
00000000
,
00010000
00000000
00010000
00000100
00000000
00000000
00000010
00000000
00000001
00001000
00000000
00000000
00000010
00000000
00010000
00000000
,
00001000
00000000
00000010
00000000
00000001
00000000
00000100
00000000
00001000
00010000
00000000
00001000
00000000
00000000
00000010
00000000
,
00001000
00000000
00010000
00000000
00000100
00000000
00001000
00000000
00000001
00000100
00000000
00000020
00000000
00000000
00000030
00000000
,
00010000
00000000
00001000
00000000
01000000
00000000
00010000
00000000
10000000
01000000
00000000
00200000
00000000
00000000
00301000
00000000
,
00010000
00000000
00000100
00000000
00001000
00000000
00000100
00000000
00010000
00001000
00000000
02000000
00000000
00000000
03001000
00000000
,
00020000
00000000
00000000
02030000
00000000
00000000
03200000
00000000
00000000
00000000
00302000
00000000
00023000
00000000
02030000
00000000
,
03200000
00000000
00000000
00000000
02300000
00000000
03020000
00002000
,
00000000
00000000
00000000
00033000
,
00001000
00000010
00000001
00000010
00001000
00010000
00001000
00000010
,
00000001
00000000
00000100
00000010
00000100
00000000
00000000
00000000
00000100
00000000
00001000
00010000
00001000
00000000
00000000
00000000
,
00010000
00100000
10000000
00100000
00010000
00001000
00010000
00100000
,
10000000
00000000
01000000
00100000
01000000
00000000
00000000
00000000
01000000
00000000
00010000
00001000
00010000
00000000
00000000
00000000
,
00010000
00001000
00000010
00000001
00001000
00000010
00000100
00000010
,
00001000
00010000
01000000
00000000
00001000
00010000
01000000
00000000
,
10000000
00100000
00010000
00001000
00010000
01000000
00100000
00010000
,
00001000
00000100
00000010
00000100
00001000
00000001
00000100
00000010
,
00001000
00010000
01000000
00000000
00001000
00010000
01000000
00000000
,
00000000
10001000
00000000
10001000
,
00010000
00000000
00001000
00000000
00000010
00000000
00000001
00000000
00000100
00000000
00000000
00000001
00000000
00000001
00000100
00000000
,
00000010
00000000
00010000
00000000
00001000
00000000
00100000
00000000
01000000
00000000
00000000
10000000
00000000
10000000
01000000
00000000
,
00010000
00000000
00001000
00000000
00000010
00000000
00000001
00000000
00000100
00000000
00000000
00000001
00000000
00000001
00000100
00000000
,
00001000
00000000
00010000
00000000
00001000
00000000
00000010
00000000
00000001
00000000
00000000
00000100
00000000
00000100
00001000
00000000
,
00010000
00000000
00100000
00000000
10000000
00000000
00010000
00000000
00100000
00000000
00000000
01000000
00000000
01000000
00010000
00000000
,
00001000
00000000
00010000
00000000
00000010
00000000
00000100
00000000
00000001
00000000
00000000
00000100
00000000
00000100
00001000
00000000
,
00010000
00000000
00100000
00000000
10000000
00000000
00010000
00000000
00100000
00000000
00000000
01000000
00000000
01000000
00010000
00000000
,
00001000
00000000
00010000
00000000
00100000
00000000
10000000
00000000
01000000
00000000
00000000
10000000
00000000
10000000
00100000
00000000
,
00010000
00001000
00000100
00000001
00000010
00001000
00010000
01000000
,
00010000
00000000
00001000
00000000
00000010
00000000
00000001
00000000
00000100
00000000
00000000
00000001
00000000
00000001
00000010
00000000
,
00001000
00000000
00010000
00000000
00001000
00000000
01000000
00000000
00100000
00000000
00000000
10000000
00000000
10000000
01000000
00000000
,
00010000
00000000
00001000
00000000
00000010
00000000
00000001
00000000
00000100
00000000
00000000
00000001
00000000
00000001
00000010
00000000
,
00001000
00000000
00010000
00000000
00001000
00000000
00000100
00000000
00000001
00000000
00000000
00000010
00000000
00000010
00001000
00000000
,
00010000
00000000
00100000
00000000
10000000
00000000
01000000
00000000
00010000
00000000
00000000
00001000
00000000
00001000
00100000
00000000
,
00001000
00000000
00010000
00000000
00000010
00000000
00001000
00000000
00000100
00000000
00000000
00010000
00000000
00010000
00000010
00000000
,
00010000
00000000
00100000
00000000
10000000
00000000
01000000
00000000
00010000
00000000
00000000
00001000
00000000
00001000
00100000
00000000
,
00001000
00000000
00010000
00000000
00100000
00000000
10000000
00000000
01000000
00000000
00000000
10000000
00000000
10000000
00100000
00000000
,
00010000
00001000
00000010
00000001
00000100
00001000
00010000
01000000
,
00020000
00000000
00030000
00000000
,
00002000
00000000
01003000
00010000
02000000
00000000
03100000
10000000
,
02000000
00000000
13000000
01000000
00020000
00032000
00003200
00000320
,
00020030
00000000
00030100
00001000
00000200
00000000
00000310
00000001
,
00000200
00000000
00000000
00000000
00001300
00010000
01000000
00020000
,
00000000
00000000
00000000
00030000
;

//--------------- dance-double - Extraordiberry ----------------
#NOTEDATA:;
#STEPSTYPE:dance-double;
#DESCRIPTION:Extraordiberry;
#DIFFICULTY:Hard;
#METER:17;
#RADARVALUES:0,0,0,0,0;
#CREDIT:Extraordiberry;
#NOTES:
00000000
00000000
00000000
00000000
,
00000000
00000000
00000000
00000000
,
00000000
00000000
00000000
00000000
00000000
00000000
00000000
00000000
00020000
00000000
00000000
00000000
00030100
00001000
00000100
00000000
,
00000020
00000000
00000031
00000100
00002000
00000000
00000000
00000000
,
00013000
01000000
00100000
00002000
00000000
00000000
00000000
00000000
,
00000000
00000000
00000000
00000000
,
00013000
00001000
00000000
00001000
00000000
00000000
00000010
00000000
00000100
00000000
00000100
00000000
00010000
00000000
00000000
00000000
,
00001000
00010000
00000000
00010000
00000000
00000000
00100000
00000000
01000000
00000000
01000000
00000000
00001000
00000000
00000000
00000000
,
00010000
00000000
00000000
00001000
00000000
00001000
00000010
00000000
00001000
00000000
00000000
00010000
00000000
00010000
00100000
00000000
,
20000000
00000000
00000000
30000000
,
10000000
01000000
00000000
01000000
00000000
00000000
00010000
00000000
00001000
00000000
00001000
00000000
00000010
00000000
00000000
00000000
,
00000001
00000100
00000000
00000100
00000000
00000000
00001000
00000000
00010000
00000000
00010000
00000000
00100000
10000000
00000000
00010000
,
10000000
00010000
00000000
00100000
00000000
00100000
01000000
00000000
00010000
00000000
00001000
00000000
00010000
00000000
00100000
00000000
,
00020000
00000000
00000000
00100000
00000000
00000000
00001000
00000000
00000000
01000000
00000000
00000000
00001000
00000000
00031000
00000000
,
00010000
00001000
00000000
00000010
00000000
00000010
00000001
00000000
00000100
00000000
00001000
00000000
00010000
00000000
00000000
00000000
,
00001000
00010000
00000000
00100000
00000000
00100000
10000000
00000000
01000000
00000000
00010000
00000000
00001000
00000000
00000000
00000000
,
00010000
00000000
00001000
00000100
00000000
00000100
00000010
00000000
00001000
00000000
00000001
00000010
00000000
00000010
00000100
00000000
,
00010000
00000000
00001000
00000000
01000000
00000000
00010000
00000000
10000000
01000000
00000000
00100000
01000000
00100000
00001000
00000000
,
00010000
00001000
00000000
00000010
00000000
00000010
00000001
00000000
00000100
00000000
00001000
00000000
00010000
00000000
00000000
00000000
,
00001000
00010000
00000000
00100000
00000000
00100000
10000000
00000000
01000000
00000000
00010000
00000000
00001000
00010000
00000000
00000100
,
00001000
00000100
00000000
00000010
00000000
00000100
00001000
00000000
00000001
00000000
00000100
00000000
00001000
00000000
00010000
00000000
,
00100000
00000000
10000000
01000000
00000000
01000000
00010000
00000000
00010000
00001000
00000000
00001000
00000010
00000000
00000010
00000000
,
00000001
00000000
00000100
00000000
00001000
00000000
00001000
00000000
00020000
00000000
00000000
00000010
00000000
00000000
00130000
00000000
,
10000000
00000000
01000000
00000000
00010000
00000000
00010000
00000000
00002000
00000000
00000000
00100000
00000000
00000000
00003010
00000000
,
00000001
00000000
00000100
00000000
00001000
00000000
00001000
00000000
00020000
00000000
00000000
00100000
00000000
00000000
10030000
00000000
,
01000000
00010000
20000000
00000000
00000000
31000000
00010000
00002000
,
00000000
00003100
00000001
00002000
00000000
00003001
00000010
00001000
,
00010000
00001000
00010000
00000000
00100000
01000000
00000000
01000000
00010000
00000000
10000000
01000000
00000000
01000000
00100000
00000000
,
00001000
00010000
00001000
00010000
00000000
00000010
00001000
00000010
00000100
00000000
00000001
00000000
00000100
00000000
00001000
00000000
,
00010000
00001000
00010000
00001000
00000000
00100000
00010000
00100000
01000000
00000000
10000000
00000000
01000000
00000000
00010000
00000000
,
00001000
00010000
00001000
00010000
00000000
00000010
00001000
00000010
00000100
00000001
00000000
00000001
00000100
00000000
00001000
00000000
,
00010000
00000000
01000000
00000000
10000000
00000000
00100000
00000000
00010000
00001000
00000000
00010000
00100000
01000000
00100000
00000000
,
10000000
00000000
01000000
00000000
00010000
00000000
00001000
00000000
00000010
00000100
00000010
00000002
00000000
00000000
00000003
00000000
,
00000001
00000000
00000100
00000000
00001000
00000000
00010000
00000000
00100000
01000000
00010000
20000000
00000000
00000000
31000000
00000000
,
10000000
00000000
01000000
00000000
00010000
00000000
00001000
00000000
00000010
00000001
00000000
00002000
00000000
00000000
00003001
00000000
,
00000200
00000000
00000000
00000320
00000000
00000000
00020030
00000000
00000000
00000000
00032000
00000000
00003200
00000000
00000320
00000000
,
00020030
00000000
00000000
00000000
00032000
00000000
00003020
00002030
,
00020000
00000000
00000000
00033000
,
00001000
00010000
00100000
00010000
00001000
00010000
00100000
00010000
,
00001000
00000000
00000010
00001000
00010000
00000000
00000000
00000000
00001000
00000000
00000010
00001000
00010000
00000000
00000000
00000000
,
00010000
00001000
00000010
00001000
00010000
00001000
00000010
00001000
,
00010000
00000000
00100000
00010000
00001000
00000000
00000000
00000000
00010000
00000000
00100000
00010000
00001000
00000000
00000000
00000000
,
00010000
00001000
00000100
00000001
00001000
00000100
00000010
00001000
,
00010000
00000000
00100000
00010000
00001000
00000000
00000000
00000000
00010000
00000000
00100000
00010000
00001000
00000000
00000000
00000000
,
00010000
01000000
10000000
00100000
00010000
00001000
00010000
01000000
,
00100000
00010000
00001000
00000100
00010000
00001000
00000100
00000010
,
00010000
00000000
00001000
00000010
00000100
00000000
00000000
00000000
00010000
00000000
00001000
00000100
00000010
00000000
00000000
00000000
,
00000000
01000100
00000000
00100010
,
00010000
00000000
00001000
00000000
00000010
00000001
00000000
00000001
00000100
00000000
00000010
00010000
00000000
00010000
00001000
00000000
,
00100000
00000000
00100000
00000000
00010000
10000000
00000000
01000000
00100000
00000000
00001000
00010000
00000000
00000010
00000100
00000000
,
00001000
00000000
00010000
00000000
00100000
10000000
00000000
10000000
01000000
00000000
00100000
00001000
00000000
00001000
00010000
00000000
,
00000010
00001000
00000010
00001000
00000010
00001000
00000010
00001000
00000010
00000000
00000100
00000001
00000000
00000010
00000100
00000000
,
00010000
00000000
00001000
00000000
01000000
00100000
00000000
00100000
10000000
00000000
01000000
00100000
00000000
00100000
00001000
00000000
,
00010000
00000000
00010000
00000000
00000010
00001000
00000000
00000100
00000010
00000000
00001000
00010000
00000000
00100000
01000000
00000000
,
00001000
00000000
00010000
00000000
00000100
00000010
00000000
00000010
00000001
00000000
00001000
00000010
00000000
00000010
00000100
00000000
,
00001000
00010000
00001000
00010000
00001000
00010000
00001000
00010000
00001000
00010000
00001000
00010000
00000000
00001000
00010000
00001000
,
00100000
00001000
00100000
00001000
00100000
00001000
00100000
00001000
00100000
00001000
00100000
00001000
00100000
00001000
00100000
00001000
,
00010000
00000000
00100000
00000000
10000000
01000000
00000000
01000000
00010000
00000000
00001000
00000010
00000000
00000010
00000001
00000000
,
00001000
00000000
00001000
00000000
00000001
00000100
00000000
00000010
00000100
00000000
00001000
00010000
00000000
01000000
00100000
00000000
,
00010000
00000000
10000000
00000000
00100000
00010000
00000000
00010000
00001000
00000000
00000100
00000001
00000000
00000001
00001000
00000000
,
00000010
00010000
00000010
00010000
00000010
00010000
00000010
00010000
00000010
00000000
00010000
00001000
00000000
00010000
00001000
00010000
,
00000100
00000000
00000010
00000000
00000001
00000100
00000000
00000100
00001000
00000000
00010000
00100000
00000000
00100000
10000000
00000000
,
00010000
00000000
00010000
00000000
10000000
01000000
00000000
00100000
01000000
00000000
00010000
00001000
00000000
00000100
00000010
00000000
,
00001000
00000000
00000001
00000000
00000010
00001000
00000000
00001000
00010000
00000000
01000000
10000000
00000000
10000000
00100000
00000000
,
01000000
00001000
01000000
00001000
01000000
00001000
01000000
00001000
01000000
00001000
01000000
00001000
00000000
00010000
00001000
00010000
,
00000100
00001000
00000100
00010000
00000100
00001000
00000100
00010000
00000100
00001000
00000100
00010000
00000100
00001000
00000100
00010000
,
00002000
00000000
00003000
00000000
,
00020000
00000000
00000000
00000000
00031000
00010000
00001000
00000000
00200000
00000000
00000000
00000000
01300000
00000000
10000000
00000000
,
00020000
00000000
00000000
00000000
10030000
00100000
00000000
00100000
00020000
00000000
00032000
00000000
00003200
00000000
00000320
00000000
,
00020030
00000000
00000000
00000000
00030100
00001000
00000100
00000000
00000020
00000000
00000000
00000000
00000031
00000000
00000100
00000000
,
00002000
00000000
00000000
00000000
00013000
01000000
00100000
00002000
,
00000000
00000000
00000000
00003000
;
