#VERSION:0.83;
#TITLE:TRUTH behind U;
#SUBTITLE:;
#ARTIST:Zutt;
#TITLETRANSLIT:;
#SUBTITLETRANSLIT:;
#ARTISTTRANSLIT:;
#GENRE:;
#ORIGIN:;
#CREDIT:;
#BANNER:TRUTH behind U.png;
#BACKGROUND:TRUTH behind U-bg.png;
#PREVIEWVID:;
#JACKET:TRUTH behind U-jacket.png;
#CDIMAGE:;
#DISCIMAGE:;
#LYRICSPATH:TRUTH behind U.lrc;
#CDTITLE:;
#MUSIC:TRUTH behind U.ogg;
#OFFSET:0.000000;
#SAMPLESTART:60.458103;
#SAMPLELENGTH:12.000000;
#SELECTABLE:YES;
#BPMS:0.000=121.000;
#STOPS:;
#DELAYS:;
#WARPS:;
#TIMESIGNATURES:0.000=4=4;
#TICKCOUNTS:0.000=4;
#COMBOS:0.000=1;
#SPEEDS:0.000=1.000=0.000=0;
#SCROLLS:0.000=1.000;
#FAKES:;
#LABELS:0.000=Song Start;
#BGCHANGES:0.000=TRUTH behind U.mp4=1.000=0=0=1=====,
99999=-nosongbg-=1.000=0=0=0 // don't automatically add -songbackground-
;
#KEYSOUNDS:;
#ATTACKS:
;

//---------------dance-single - ----------------
#NOTEDATA:;
#CHARTNAME:;
#STEPSTYPE:dance-single;
#DESCRIPTION:;
#CHARTSTYLE:;
#DIFFICULTY:Hard;
#METER:12;
#RADARVALUES:0.511540,0.621268,0.327178,0.390795,0.377163,394.000000,358.000000,36.000000,43.000000,0.000000,0.000000,0.000000,0.000000,0.000000,0.511540,0.621268,0.327178,0.390795,0.377163,394.000000,358.000000,36.000000,43.000000,0.000000,0.000000,0.000000,0.000000,0.000000;
#CREDIT:Ben Speirs;
#NOTES:
0000
0000
0000
0000
,
0000
0000
0000
0000
,
0000
0000
0000
0000
,
0000
0000
0000
0000
0000
0000
1000
0100
,
1000
0001
0200
0000
0310
1000
0001
0010
,
0001
1000
0020
0000
0130
0001
2000
0000
,
3100
0020
0000
0031
0200
0000
0310
1000
,
0001
0000
0010
0000
0001
1000
0001
0000
0100
0000
0001
0010
0000
0010
0000
0200
,
0000
0000
1300
0000
0001
0000
1000
0000
0010
0000
1000
0100
0000
0100
0000
0020
,
0000
0031
1000
0001
0200
0000
1300
0200
,
0001
0000
0000
0000
0310
0000
0020
0000
0001
0000
0000
0000
1030
0000
0001
0010
,
0100
0000
1000
0000
1010
0000
0000
1010
0000
0000
1000
0000
0001
0000
0000
0000
,
0011
0000
0000
0011
0000
0000
0001
0000
0100
0000
0000
0000
0101
0000
0000
0101
,
0000
0000
1000
0000
0100
0000
0000
0000
1000
0010
0000
0010
0000
0000
0000
0000
,
1000
0000
0001
0010
0100
0000
0000
1100
0000
0000
0101
0000
1000
0000
0000
0000
,
1010
0000
0000
0011
0000
0000
1100
0000
0001
0000
1000
0000
0010
0100
0000
0010
,
0100
0000
0001
1000
0000
0001
1000
0000
0100
0010
0000
0010
0000
0000
0001
0000
,
1000
0000
0010
0000
0100
0000
0001
0000
0010
0000
0100
0000
1000
0001
1000
0000
,
0100
0000
0100
0000
1000
0000
0010
0000
0100
0000
0001
0000
1000
0001
1000
0000
,
0010
0010
0200
0000
1300
0200
0001
0000
,
0320
0000
0000
0000
0031
0000
0010
0000
1000
0000
0001
0000
1000
0100
0010
0000
,
0001
0000
1000
0010
0000
0010
0000
0200
0000
0000
0301
0000
0010
0000
0011
0000
,
1000
0000
0001
0100
0000
0100
0000
0020
0000
0000
1030
0000
0100
0000
1100
0000
,
0001
0000
0100
0010
0000
0010
0000
2000
0000
0000
0001
0000
0001
0000
3001
0000
,
0000
0000
0000
0000
0000
0000
0000
0000
0000
0000
0000
0000
0001
0000
0000
0100
,
0000
0000
0101
0000
0000
0000
0000
0000
0000
0000
0000
0000
1000
0000
0000
0100
,
0000
1100
0000
0000
0000
0000
0002
0100
,
0103
0020
1000
1030
0002
0010
0013
0200
,
1000
0000
1300
0000
0001
1000
0000
0010
1000
0000
0001
0000
0010
0000
0100
0000
,
1000
1010
1010
0001
0011
0011
1000
0001
,
0100
0010
0100
0000
0000
0000
0000
0000
0001
0000
0001
0100
0000
0100
0020
0000
,
0000
0000
1030
0000
0001
0000
1000
0100
0000
0100
0020
0000
0000
0000
0031
0000
,
1000
0000
0010
0100
0000
0100
0001
0000
1000
0000
0100
0000
0010
0000
0010
0000
,
0001
0000
0200
0000
0000
0320
0000
0000
1030
0000
0001
0100
0000
0001
1000
0000
,
0001
0000
0010
0000
0100
0000
1000
0001
0000
1000
0020
0000
0000
0000
0130
0000
,
0001
1000
0000
0001
1000
0000
0100
0000
0010
0000
0001
0000
0101
0000
0000
0000
,
0000
2001
0000
0000
3200
0000
0000
0320
,
0000
0100
0000
0100
0000
0031
0200
0000
,
0000
0320
0000
2030
0000
3002
0000
0010
,
0000
0010
0000
2003
0000
3020
0333
2001
,
0100
3100
0010
0001
1000
1002
0100
0103
,
0010
0000
1000
0000
0001
0000
0100
0001
0000
0100
0001
0000
1000
0000
0100
0000
,
0001
0000
0100
0000
1100
0000
1100
0000
0001
0000
0101
0000
0101
0000
1000
0010
,
0100
0000
0001
1000
0301
0000
0000
0000
0000
0000
0000
0000
0000
0000
0000
0000
,
0000
0000
0000
0000
0000
0000
1000
0100
0000
0100
0000
0010
0001
0000
1001
0000
,
1001
0000
1001
0000
1000
0010
0000
0010
0100
0000
0001
0000
1000
0000
1100
0000
,
1100
0000
0101
0000
0202
0000
0000
0000
0303
0000
1000
0000
0100
1000
0100
0000
,
0010
0000
0001
0010
0001
0000
1000
0000
0010
0100
0010
0100
0001
0000
0000
0000
,
1000
0000
0001
0000
0100
0001
0100
0000
0010
0000
1000
0010
1000
0000
0001
0000
,
0010
0100
0010
0100
1000
0000
0000
0000
0001
0000
0100
0010
0000
0010
0000
1000
,
0001
0000
0010
0000
0100
0000
1001
0000
0000
0000
0000
0000
2100
0000
0000
0100
,
0000
0000
0001
0000
3001
0000
0000
0000
0002
0000
0000
0100
0000
0000
1000
0000
,
1003
0000
0000
0000
2000
0000
0000
0010
0000
0000
0001
0000
3001
0000
0000
0000
,
0001
0010
0000
0100
0000
0010
0000
0100
0000
0010
0000
0100
2000
0000
3010
0000
,
0000
0000
0200
0000
0301
0000
0000
0000
1000
0001
1000
0010
0000
0000
0000
0000
;

//---------------dance-single - ----------------
#NOTEDATA:;
#CHARTNAME:;
#STEPSTYPE:dance-single;
#DESCRIPTION:;
#CHARTSTYLE:;
#DIFFICULTY:Challenge;
#METER:14;
#RADARVALUES:0.681620,0.745522,0.336266,0.418060,0.831576,525.000000,488.000000,37.000000,46.000000,0.000000,0.000000,0.000000,0.000000,0.000000,0.681620,0.745522,0.336266,0.418060,0.831576,525.000000,488.000000,37.000000,46.000000,0.000000,0.000000,0.000000,0.000000,0.000000;
#CREDIT:Ben Speirs;
#NOTES:
0000
0000
0000
0000
,
0000
0000
0000
0000
,
0000
0000
0000
0000
,
0000
0000
0000
0000
0000
0000
0000
0000
0000
0000
0000
0000
0001
0000
1000
0100
,
0000
1000
0000
0200
0000
0000
0310
0000
0001
0000
1000
0000
0000
0000
0001
0100
,
0000
0001
0000
0200
0000
0000
0310
0000
1000
0000
0001
0000
2000
0000
0000
0100
,
0000
0000
3002
0000
0000
0100
0000
0000
0023
0000
0000
1000
0000
0000
0031
0030
,
1000
0000
0010
0000
0100
0010
0100
0000
0001
0000
1000
0100
0000
0010
0100
0010
,
0000
0001
1000
0000
0010
0000
0100
0010
1000
0000
0001
0010
0000
0100
0010
0100
,
0000
1000
0001
0000
0100
0000
0010
0100
0002
0000
0013
0000
0100
0000
2000
0000
,
3010
0100
0000
0010
0001
0000
0020
0000
1030
0100
0010
0001
1000
0000
0001
0100
,
0001
0000
1000
0000
1100
0000
0001
0100
0000
0010
1000
0000
1001
0000
0000
0000
,
0011
0000
1000
0100
0000
0010
0001
0000
1001
0000
0000
0000
1010
0000
0001
0010
,
0000
0100
1000
0000
0001
0000
1000
0100
1000
0010
0000
0010
0000
0000
1000
0001
,
0100
0010
1000
0000
1010
0000
0000
0110
0000
0000
0001
0100
0010
1000
0001
0000
,
0011
0000
0000
0110
0000
0000
1000
0100
0010
0000
0001
0000
0100
0010
0100
0010
,
0100
0000
0001
0100
0001
0100
0001
0000
1000
0100
0000
0100
0000
1000
0001
1000
,
0010
0100
0001
1000
0001
0000
1000
0200
0000
0302
0000
0203
0000
0310
0100
0000
,
1000
0010
0100
0001
1000
0000
0001
0020
0000
2030
0000
3020
0000
0130
0010
0000
,
0001
0000
1000
0001
2000
0000
3100
0000
0010
0000
0002
0000
0103
0010
0000
0100
,
0020
0000
0000
0000
1030
0100
1000
0100
0010
0000
0001
0000
1000
0010
0100
0000
,
0101
0000
1000
0100
0000
0010
0001
0010
0000
0001
0100
0000
0010
0100
0010
0000
,
1000
0000
0001
0010
0000
0100
1000
0100
0000
1000
0010
0000
0100
0010
0100
0000
,
0001
0000
1000
0100
0000
0001
0000
0100
0010
0000
0001
0000
1000
0010
0100
0001
,
1000
0000
0000
0000
0000
0000
0000
0000
0000
0000
0000
0000
0002
0000
0000
0100
,
0000
0000
1003
0000
0000
0000
0000
0000
0000
0000
0000
0000
2000
0000
0000
0100
,
0000
0000
3001
0000
0000
0000
0000
0000
0110
0000
0000
0000
1002
0000
1003
0010
,
1000
0010
0200
0000
0301
0010
0001
0010
0200
0000
1300
0001
1000
0001
0020
0000
,
0031
1000
0001
1000
0020
0000
0130
0001
1000
0001
0200
0000
3310
1030
0001
1000
,
0100
0000
1100
0000
0110
0000
0001
0000
0101
0000
0110
0000
1000
0100
0010
0001
,
0100
0001
1000
0000
0000
0000
0000
0000
1001
0000
1000
0010
0100
0010
0002
0000
,
0013
0000
1000
0100
0010
0000
0001
0100
0010
0100
2000
0000
3100
0001
1000
0000
,
0020
0000
1030
0100
0001
0100
0020
0000
0032
0000
0103
0000
0101
0000
0100
0000
,
0010
0000
2010
0000
0000
3002
0000
0000
1003
0000
0001
0010
0100
0010
0001
0000
,
0100
0010
1000
0000
0001
0000
1000
0100
0010
0100
1000
0000
0001
0100
0010
0000
,
1000
0001
0000
0001
1000
0000
1010
0000
0010
0000
0100
0001
1000
0000
0000
0000
,
0000
1002
0000
0010
0023
0000
0100
0230
,
0000
1000
0000
0001
0000
1300
0020
0000
,
0103
0130
0001
0310
0100
2000
0000
0010
,
0000
3001
0100
3023
0000
1030
3030
2100
,
3001
0010
3001
0010
0200
0000
1300
0010
1000
0010
0200
0000
0301
1000
0100
1000
,
0020
0000
1030
0001
0100
0001
0020
0000
0031
1000
0010
0100
0002
0000
1003
0100
,
0010
0001
1000
0000
1010
0000
1001
0000
0001
0000
0011
0000
1001
0000
1000
0100
,
0010
0001
0100
0001
1000
0000
0000
0000
0000
0000
0000
0000
0000
0000
0000
0000
,
0000
0000
0000
0000
0000
0000
1001
0000
0001
0100
0010
1000
0001
0000
0101
0000
,
1100
0000
1001
0000
1000
0100
0010
0001
0100
0000
0010
1000
0001
0000
0101
0000
,
0110
0000
1010
0000
0002
0000
0000
2003
0000
0000
3001
0010
0100
1000
0100
1000
,
0010
0100
0001
1000
0001
1000
0100
0010
0001
0100
0001
0100
0010
1000
0100
0010
,
0100
0010
0001
0000
1000
0010
0000
0010
0100
0000
0001
0010
0100
0000
1000
0010
,
0000
0010
0100
0000
0101
0000
0110
0000
1010
0000
0001
0100
0010
1000
0100
0010
,
0001
1000
0010
0100
0001
1000
0001
0000
0000
0000
0000
0000
1100
0000
1000
0010
,
0000
0010
0100
0000
0001
0000
1000
0000
0001
0000
0010
0100
0000
0010
0100
0000
,
1000
0100
1000
0000
0010
0000
0100
0001
0000
1000
0100
0000
0010
0001
0010
0000
,
0001
0100
0000
0100
0000
0010
0000
0010
0000
1000
0000
0001
1000
0100
0010
0001
,
0000
0000
1000
0010
0100
0001
0000
1000
0001
0010
0100
1000
0000
0000
0000
0000
;

//---------------dance-single - ----------------
#NOTEDATA:;
#CHARTNAME:;
#STEPSTYPE:dance-single;
#DESCRIPTION:;
#CHARTSTYLE:;
#DIFFICULTY:Medium;
#METER:8;
#RADARVALUES:0.325879,0.372335,0.190854,0.390795,0.009088,251.000000,230.000000,21.000000,43.000000,0.000000,0.000000,0.000000,0.000000,0.000000,0.325879,0.372335,0.190854,0.390795,0.009088,251.000000,230.000000,21.000000,43.000000,0.000000,0.000000,0.000000,0.000000,0.000000;
#CREDIT:Ben Speirs;
#NOTES:
0000
0000
0000
0000
,
0000
0000
0000
0000
,
0000
0000
0000
0000
,
0000
0000
0000
0001
,
1000
0000
0001
0100
0010
0000
1000
0000
,
0001
0000
1000
0100
0010
0000
0002
0000
,
0000
0203
0000
0000
0320
0000
0000
2030
,
0000
0000
3001
0000
1000
0100
0010
0000
,
0100
0000
0110
0000
0001
0100
0010
0000
,
0100
0000
0110
0000
2000
0000
0000
3002
,
0000
0000
0000
0023
0000
0000
0000
0031
,
0010
0100
2000
0000
3000
0000
1100
0000
,
0002
0003
0101
2000
,
3000
0000
1010
0000
0001
0010
0200
0000
,
1300
1002
0103
0010
,
2010
3001
0010
0012
,
1003
0000
0010
0000
0100
0010
0100
0000
,
0002
0000
1003
0000
0001
0000
1000
0100
,
0010
0000
0001
0000
1000
0000
0001
0100
,
0010
0000
2000
0000
0000
3200
0000
0000
,
0320
0000
0000
0032
0000
0000
1003
0001
,
1000
0000
0001
0000
1000
0100
1000
0100
,
0010
0000
0001
0000
1000
0001
1000
0001
,
0100
0000
0010
0000
1000
0010
0100
0000
,
1001
0000
0000
0000
0000
0000
0000
0000
0000
0000
0000
0000
0001
0000
0000
0001
,
0000
0000
0001
0000
0000
0000
0000
0000
0000
0000
0000
0000
1000
0000
0000
1000
,
0000
1000
0000
0000
0000
0000
0001
0000
,
1000
0010
0000
0010
0100
0000
0001
0010
,
0000
0010
0100
0000
1000
0001
0000
0001
,
1000
0000
0010
0110
0000
0001
1001
0000
,
0100
0110
0000
0000
0001
0010
0100
2000
,
0000
0000
3001
0100
0010
2000
0000
0000
,
3010
0100
0010
0200
0000
0301
0010
0100
,
0010
0200
0000
0000
1300
0100
0010
0002
,
0000
0000
1003
0010
0100
0002
0000
0000
,
0103
0010
0100
0001
1000
0001
1000
0000
,
0000
2002
0000
0000
0000
0000
3003
1000
,
0000
0001
0000
0100
0010
0100
0000
0010
,
1000
0010
0000
1000
0001
1000
0000
0001
,
0000
0010
0000
0100
0010
0100
0000
1000
,
0000
0000
2200
0000
3300
0001
0000
0000
,
0202
0000
0303
2000
0000
3100
0020
0000
,
0031
0100
0100
0100
0010
0010
0010
1000
,
0001
1000
0001
0000
0000
0000
0000
0000
,
0000
0000
0000
1001
0000
0000
0110
0000
,
0000
0001
0010
0001
1000
0010
1000
0010
,
0010
0010
0010
0000
0000
1000
0100
1000
,
0200
0000
0000
0310
0001
0010
0002
0000
,
0000
1003
0010
0100
0001
0010
0100
1000
,
0000
0000
2002
0000
3003
0001
0100
0001
,
1000
0010
1000
0001
0000
0000
2000
0000
,
3000
1100
0002
0003
,
0101
2000
3000
1010
,
0002
0000
0023
0000
0230
0000
1300
1000
,
0000
0001
0001
0000
0100
0100
0000
0000
;

//---------------dance-single - ----------------
#NOTEDATA:;
#CHARTNAME:;
#STEPSTYPE:dance-single;
#DESCRIPTION:;
#CHARTSTYLE:;
#DIFFICULTY:Easy;
#METER:5;
#RADARVALUES:0.184362,0.248223,0.099971,0.154501,0.000000,142.000000,131.000000,11.000000,17.000000,0.000000,0.000000,0.000000,0.000000,0.000000,0.184362,0.248223,0.099971,0.154501,0.000000,142.000000,131.000000,11.000000,17.000000,0.000000,0.000000,0.000000,0.000000,0.000000;
#CREDIT:Ben Speirs;
#NOTES:
0000
0000
0000
0000
,
0000
0000
0000
0000
,
0000
0000
0000
0000
,
0000
0000
0000
1000
,
0000
0001
0100
0010
,
0000
1000
0100
0010
,
0000
0010
0000
0010
,
0001
1000
1000
0010
,
0100
0000
0001
0010
,
0100
0000
1000
0000
,
1000
0000
0001
0000
,
0001
0200
0000
0300
,
0020
0000
0030
2000
,
0000
0000
3000
0000
0001
0000
0000
1000
,
0000
0200
0000
0300
,
0020
0000
0030
0002
,
0000
0000
0003
0000
1000
0000
0000
0001
,
0000
0100
0100
0010
,
0000
0010
0010
1000
,
0000
1000
0100
0010
,
0000
0001
0100
0010
,
0000
1000
1000
0010
,
0000
0100
0100
0001
,
1000
0000
0001
0010
,
0100
0000
0000
1000
,
0000
1000
0000
0000
0000
0000
0001
0000
,
0000
0001
0000
0000
0000
0000
0100
0000
,
0000
0100
0000
0000
0010
0000
0000
0010
,
0000
0000
1000
0000
0000
1000
0000
0000
,
0001
0000
0000
0001
0000
0000
0010
0000
,
0000
0010
0000
0000
1001
0000
0001
0001
,
0000
0000
0100
0000
0100
0100
0000
0000
,
0010
0000
0000
1000
0000
0000
0100
0000
,
0000
0100
0000
0000
1000
0000
0010
0010
,
0000
0000
0100
0000
0001
0001
0000
0000
,
1000
0000
0000
0100
0000
0000
0010
0000
,
0000
2002
0000
0000
0000
0000
0000
0000
,
0000
0000
0000
3003
0000
0001
0000
0100
,
0000
0010
0000
1000
0000
0200
0000
0000
,
0000
0300
0000
1300
0000
0001
0000
1001
,
0000
0000
1000
0000
0000
0010
0000
0000
,
0010
0000
0000
0100
0000
0000
0100
0000
,
0000
0001
0000
0000
0001
0000
0000
1000
,
0000
1000
0000
0000
,
0000
0000
0000
1001
0000
0000
0110
0000
,
0000
1001
0000
0000
1001
0000
0000
0001
,
0000
0000
1000
0000
0000
0010
0000
0010
,
0010
0000
0000
0100
0000
0100
0100
0000
,
0000
0001
0000
0000
0010
0000
0000
0100
,
0000
0000
0100
0000
0000
1000
0000
0000
,
1000
0000
0000
0010
0000
0000
2002
0000
,
0000
3003
0220
0000
,
3333
2002
0000
3003
,
0220
0000
0330
0001
,
0000
1000
0000
0000
0010
0010
0000
0000
;

//---------------dance-single - ----------------
#NOTEDATA:;
#CHARTNAME:;
#STEPSTYPE:dance-single;
#DESCRIPTION:;
#CHARTSTYLE:;
#DIFFICULTY:Beginner;
#METER:3;
#RADARVALUES:0.097374,0.123828,0.000000,0.000000,0.000000,75.000000,75.000000,0.000000,0.000000,0.000000,0.000000,0.000000,0.000000,0.000000,0.097374,0.123828,0.000000,0.000000,0.000000,75.000000,75.000000,0.000000,0.000000,0.000000,0.000000,0.000000,0.000000,0.000000;
#CREDIT:Ben Speirs;
#NOTES:
0000
0000
0000
0000
,
0000
0000
0000
0000
,
0000
0000
0000
0000
,
0000
0000
0000
0001
,
0000
0000
0000
1000
,
0000
0000
0000
0010
,
0000
0000
0000
0010
,
0000
0000
1000
0000
,
0000
0000
0100
0000
,
0000
0000
0010
0000
,
0000
0000
0010
0000
,
0000
0001
0000
0001
,
0001
0000
0000
1000
,
0000
0000
1000
0000
,
0000
0010
0000
0010
,
0010
0000
0000
0100
,
0000
0000
0000
0000
,
0000
0100
0000
0000
,
0000
0001
0000
0000
,
0000
1000
0000
1000
,
0000
1000
0000
0000
,
0010
0000
0000
0000
,
1000
0000
0000
0000
,
0001
0000
0001
0001
,
0000
0000
0000
1000
,
0000
0000
0000
0010
,
0000
0000
0000
0100
,
0000
0100
0000
0000
0100
0000
0000
0000
,
0000
0000
0010
0000
0000
0010
0000
0000
,
0010
0000
0000
1000
,
0000
0000
0000
0000
0001
0000
0000
0001
,
0000
0001
0000
0000
,
0010
0000
0000
0010
,
0000
0000
0000
0000
0100
0000
0000
0100
,
0000
0100
0000
0000
,
1000
0000
0000
1000
,
0000
0000
0000
0000
,
0000
0000
0000
0001
0000
0001
0000
0001
,
0000
0000
0000
0001
0000
0000
0000
0000
,
0000
0000
0000
1000
0000
1000
0000
1000
,
0000
0000
0000
0000
0000
0010
0000
0000
,
0000
0000
0000
0100
0000
0000
0000
0000
,
0000
0100
0000
0000
0000
0000
0000
0010
,
0000
0000
0000
0000
,
0000
0000
0000
1000
0000
0000
0000
0000
,
0000
0001
0000
0000
0000
0000
0000
0010
,
0000
0000
0000
0000
0000
0001
0000
0000
,
0001
0000
0000
0001
0000
0000
0000
0000
,
0000
0100
0000
0000
0100
0000
0000
0100
,
0000
0000
0000
0000
0000
0010
0000
0000
,
0010
0000
0000
1000
0000
0000
1000
0000
,
0000
0000
0001
0000
,
0000
0010
0000
0000
,
0100
0000
0000
1000
,
0000
0000
0001
0000
;

//---------------dance-double - ----------------
#NOTEDATA:;
#CHARTNAME:;
#STEPSTYPE:dance-double;
#DESCRIPTION:;
#CHARTSTYLE:;
#DIFFICULTY:Challenge;
#METER:14;
#RADARVALUES:0.672532,0.770373,0.354442,0.608914,0.813400,518.000000,479.000000,39.000000,67.000000,0.000000,0.000000,0.000000,0.000000,0.000000,0.672532,0.770373,0.354442,0.608914,0.813400,518.000000,479.000000,39.000000,67.000000,0.000000,0.000000,0.000000,0.000000,0.000000;
#CREDIT:Ben Speirs;
#NOTES:
// measure 0
00000000
00000000
00000000
00000000
,  // measure 1
00000000
00000000
00000000
00000000
,  // measure 2
00000000
00000000
00000000
00000000
,  // measure 3
00000000
00000000
00000000
00000000
00000000
00000000
00000000
00000000
00000000
00000000
00000000
00000000
00000001
00000000
00001000
00000100
,  // measure 4
00000000
00001000
00000000
00000200
00000000
00000000
00010300
00000000
00001000
00000000
01000000
00000000
00010000
00000000
10000000
01000000
,  // measure 5
00000000
10000000
00000000
02000000
00000000
00000000
03100000
00000000
00010000
00000000
01000000
00000000
00002000
00000000
00000000
00100000
,  // measure 6
00000000
00000000
00023000
00000000
00000000
00000010
00000000
00000000
00032000
00000000
00000000
01000000
00000000
00000000
00013000
00003000
,  // measure 7
00000100
00000000
00000010
00000000
00000001
00001000
00000001
00000000
00000100
00000000
00000001
00000010
00000000
00000100
00001000
00000100
,  // measure 8
00000000
00010000
00001000
00000000
01000000
00000000
00010000
10000000
00010000
00000000
10000000
01000000
00000000
00100000
00010000
00100000
,  // measure 9
00000000
00001000
00010000
00000000
00000010
00000000
00000100
00000010
00000200
00000000
00001300
00000000
00010000
00000000
02000000
00000000
,  // measure 10
03100003
00001000
00000000
00100000
00001000
00000000
00020000
00000000
00130000
10000000
00010000
10000000
00100000
00000000
01000000
00001000
,  // measure 11
00010000
00000000
00000100
00000000
00010100
00000000
00010000
00002000
00000000
00000000
01003000
00000000
01001000
00000000
00000000
00000000
,  // measure 12
00011000
00000000
00010000
00000020
00000000
00000000
00000130
00000000
00000001
00000010
00000100
00000000
00001100
00000000
00010000
00001000
,  // measure 13
00000000
01000000
00010000
00000000
10010000
00000000
10000000
01000000
10000000
00100000
00000000
00100000
00000000
00000000
01000000
00010000
,  // measure 14
10000000
00000000
00010000
00100000
00001000
00000000
00000000
00011000
00000000
00000000
00010000
00000010
00000100
00000010
00001000
00000000
,  // measure 15
00001100
00000000
00000000
00010100
00000000
00000000
00010000
00001000
01000000
00000000
00010000
10000000
00200000
00000000
01300000
00010000
,  // measure 16
01000000
00010000
00200000
00000000
00301000
00010000
00001000
00010000
00000100
00000010
00000000
00000010
00000000
00000000
00000001
00001000
,  // measure 17
00000010
00000100
00000001
00000000
00000101
00000000
00000001
00000020
00000000
00002030
00000000
00023000
00000000
01030000
10000000
00000000
,  // measure 18
00010000
01000000
00100000
10000000
00010000
00000000
10000000
02000000
00000000
03020000
00000000
00032000
00000000
00003010
00000001
00000000
,  // measure 19
00001000
00000000
00000001
00000100
00000002
00000000
00000103
00000000
00001000
00000000
00020000
00000000
00031000
00000000
00100000
00000000
,  // measure 20
02000000
00000000
00000000
00000000
13000000
00010000
10000000
30010000
10000000
00000000
00100000
00000000
01000000
00010000
10000000
00000000
,  // measure 21
11000000
00000000
10000000
02000000
00000000
03010000
00001000
00010000
00000000
00001000
00000010
00000000
00000001
00000000
00000011
00000000
,  // measure 22
00001000
00000000
00000001
00000200
00000000
00001330
00010000
00001000
00000000
00010000
00100000
00000000
10000000
00000000
00010000
10000000
,  // measure 23
00010000
00000000
00100000
00001000
00000000
00010000
00001000
00010000
00000000
00000010
00000100
00000000
00000001
00000010
00000100
00001000
,  // measure 24
00000010
00000000
00000000
00000000
00000000
00000000
00000000
00000000
00000000
00000000
00000000
00000000
00020000
00000000
00000000
00000010
,  // measure 25
00000000
00000000
00031000
00000000
00000000
00000000
00000000
00000000
00000000
00000000
00000000
00000000
00002000
00000000
00000000
00100000
,  // measure 26
00000000
00000000
00013000
00000000
00000000
00000000
00000000
00000000
01100000
00000000
00000000
00000000
10020000
00000000
00130000
00001000
,  // measure 27
00100000
00001000
00020000
00000000
00030010
00001000
00000010
00001000
00000002
00000000
00000013
00000100
00000010
00000100
00020000
00000000
,  // measure 28
00031000
01000000
00001000
01000000
00200000
00000000
10300000
01000000
00100000
01000000
20000000
00000000
30010000
01000000
00100000
01000000
,  // measure 29
00001000
00000000
01001000
00000000
00011000
00000000
00010000
00000000
00011000
00000000
00010100
00000000
00000100
00001000
00000010
00000100
,  // measure 30
00000001
00001000
00000001
00000000
00000000
00000000
00000000
00000000
00000101
00000000
00001000
00000100
00000010
00000100
00020000
00000300
,  // measure 31
00031030
00000000
00010000
01000000
10000000
00000000
00010000
01000000
00100000
01000000
00002000
00000000
00313000
00000000
00000100
00010000
,  // measure 32
00001000
00000000
00100000
00010000
00100000
10000000
00200000
00000000
00302000
00000000
00023000
00000000
00030020
00000000
00000130
00001000
,  // measure 33
00000100
00000010
00000200
00000000
00000000
00003310
00000000
00000000
00001002
00000000
00001003
00000100
00001000
00000100
00020000
00000000
,  // measure 34
00031000
01000000
00010000
00000000
20000000
00000000
30010000
00100000
00010000
00100000
00002000
00000000
00013000
00000010
00000100
00000000
,  // measure 35
00000001
00000010
00000000
00000010
00000100
00000000
00010100
00000000
00010000
00001000
00100000
01000000
00100000
00000000
00000000
00000000
,  // measure 36
00000000
20010000
00000000
30100000
00200000
00000000
00310000
03020000
,  // measure 37
00000000
00100000
00000000
00001000
00000000
00030100
00000200
00000000
,  // measure 38
00000310
00000020
00000000
00001330
00010000
00002000
00000000
00000100
,  // measure 39
00000000
00010000
00000000
00203000
00000300
00320030
00030003
20010000
,  // measure 40
30100000
01000000
00100000
01000000
00020000
00000000
00130000
00001000
00100000
00001000
00020000
00000000
00030010
00000100
00000010
00000100
,  // measure 41
00000002
00000000
00000013
00000100
00001000
00000000
00000001
00000100
00000000
00000100
00001000
00000000
00020000
00000000
00032000
00000000
,  // measure 42
00203000
00000000
03310000
00000000
00110000
00000000
10010000
00000000
10000000
00000000
10100000
00000000
10010000
00000000
00010000
00100000
,  // measure 43
01000000
10000000
00100000
01000000
00001000
00000000
00000000
00000000
00000000
00000000
00000000
00000000
00000000
00000000
00000000
00000000
,  // measure 44
00000000
00000000
00000000
00000000
00000000
00000000
00012000
00000000
00013000
00000100
00000010
00000001
00001000
00000010
00000100
00000000
,  // measure 45
00000110
00000000
00000101
00000000
00001000
00000100
00000000
00000100
00020000
00000000
00031000
01000000
00100000
00000000
10000000
00000000
,  // measure 46
00100000
00000000
01000000
00000000
00020000
00000000
00000000
23030000
00030000
00000000
31300000
10000000
00010000
01000000
00010000
01000000
,  // measure 47
00001000
00010000
00000010
00000100
00000010
00000100
00000001
00000010
00000100
00010000
00000100
00010000
00001000
01000000
00010000
10000000
,  // measure 48
00010000
10000000
00100000
01000000
00000000
01000000
00001000
00000000
01002000
00000000
00013000
00000100
00000010
00000000
00000001
00000100
,  // measure 49
00000000
00000100
00000010
00000000
00001010
00000000
00001001
00000000
00000101
00000000
00000001
00000010
00000100
00010000
00000100
00010000
,  // measure 50
00001000
01000000
00100000
10000000
01000000
00100000
00010000
00000000
00000000
00000000
00000000
00000000
10010000
00000000
00010000
00100000
,  // measure 51
00300000
00001000
00010000
00000000
00010100
00000000
00000000
00000000
00001010
00000000
00000001
00000010
00000000
00000100
00001000
00000000
,  // measure 52
00001100
00000000
00000000
00000000
00010010
00000000
00010000
00001000
00000000
00100000
00010000
00000000
00110000
00000000
00000000
00000000
,  // measure 53
10000000
00200000
00000000
00320000
00000000
00032000
00000000
00003200
00000000
00000320
00000000
00001030
00000001
00000010
00000100
00001000
,  // measure 54
00000000
00000000
00000010
00000100
00001000
00010000
00000000
00001000
01000000
00100000
00010000
00001000
00000000
00000000
00000000
00000000
;

//---------------dance-double - ----------------
#NOTEDATA:;
#CHARTNAME:;
#STEPSTYPE:dance-double;
#DESCRIPTION:;
#CHARTSTYLE:;
#DIFFICULTY:Hard;
#METER:12;
#RADARVALUES:0.493363,0.546716,0.218118,0.372619,0.363531,380.000000,356.000000,24.000000,41.000000,0.000000,0.000000,0.000000,0.000000,0.000000,0.493363,0.546716,0.218118,0.372619,0.363531,380.000000,356.000000,24.000000,41.000000,0.000000,0.000000,0.000000,0.000000,0.000000;
#CREDIT:Ben Speirs;
#NOTES:
00000000
00000000
00000000
00000000
,
00000000
00000000
00000000
00000000
,
00000000
00000000
00000000
00000000
,
00000000
00000000
00000000
00000000
00000000
00000000
10000000
00100000
,
01000000
00100000
20000000
00000000
30010000
00010000
00100000
00001000
,
00010000
00000010
00020000
00000000
00030100
00000100
00000020
00000000
,
00000031
00000200
00000000
00000310
00002000
00000000
00003100
00010000
,
00000100
00000000
00010000
00000000
00001000
01000000
00001000
00000000
00100000
00000000
00010000
01000000
00000000
00100000
00000000
20000000
,
00000000
00000000
30010000
00000000
01000000
00000000
00010000
00000000
00100000
00000000
00001000
00010000
00000000
00000100
00000000
00002000
,
00000000
00003001
00000100
00000010
00000200
00000000
00001300
00000200
,
00000001
00000000
00000000
00000000
00000310
00000000
00020000
00000000
00000100
00000000
00000000
00000000
00031000
00000000
00100000
01000000
,
00100000
00000000
00010000
00000000
01010000
00000000
00000000
01000000
00000000
00000000
00100000
00000000
10100000
00000000
00000000
00000000
,
00020000
00000000
00000000
00000000
00130000
00000000
00001000
00000000
00011000
00000000
00000000
00000000
00001010
00000000
00000000
00000010
,
00000000
00000000
00000100
00000000
00000101
00000000
00000000
00000000
00000001
00000010
00000000
00000010
00000000
00000000
00000001
00000000
,
00001000
00000000
00000000
00000000
00001010
00000000
00000000
00001010
00000000
00000000
00000001
00000000
00001000
00000000
00000000
00000000
,
00010100
00000000
00000000
00010100
00000000
00000000
00010000
00000000
00001000
00000000
01000000
00000000
00020000
00000000
00000000
00100000
,
00000000
00000000
20030000
00000000
00000000
00100000
00000000
00000000
30010000
00100000
00000000
00100000
00000000
00000000
00001000
00000000
,
00010000
00000000
00000100
00000000
00001000
00000000
00000001
00000000
00000100
00000000
00000010
00000000
00001000
00000100
00001000
00000000
,
00000100
00000000
00010000
00000000
00000000
00000000
00001000
00000000
00100000
00000000
00010000
00000000
01000000
00010000
01000000
00000000
,
00100000
10000000
02000000
00000000
03010000
02000000
10000000
00000000
,
03200000
00000000
00000000
00000000
00301000
00000000
00010000
00000000
00000010
00000000
00000100
00000000
00000001
00001000
00000001
00000000
,
00000101
00000000
00001000
00000010
00000000
00001000
00000000
00000020
00000000
00000000
00000130
00000000
00001000
00000000
00010000
00000000
,
00001000
00000000
00100000
00010000
00000000
00100000
00000000
00020000
00000000
00000000
10030000
00000000
00100000
00000000
01000000
00000000
,
00010000
00000000
00100000
01000000
00000000
00100000
00000000
02000000
00000000
00000000
13000000
00000000
00100000
00000000
00010000
00000000
,
00001000
00000000
00000000
00000000
00000000
00000000
00000000
00000000
00000000
00000000
00000000
00000000
00001000
00000000
00000000
00010000
,
00000000
00000000
00000100
00000000
00000000
00000000
00000000
00000000
00000000
00000000
00000000
00000000
00010000
00000000
00000000
00001000
,
00000000
01000000
00000000
00000000
00011000
00000000
00010010
00000010
,
00000100
00000001
00001000
00000100
00002100
00000000
00003001
00000001
,
00000100
00000000
00000010
00000000
00010000
00001000
00000000
00010000
00001000
00000000
00100000
00030000
00010000
00000000
01000000
00000000
,
00200000
10000000
10300000
00020000
00100000
00130000
00001000
01000000
,
00001000
00010000
00001000
00000000
00000000
00000000
00000000
00000000
00001000
00000000
00010000
00000010
00000000
00010000
00000010
00000000
,
00000100
00000000
00000001
00001000
00000001
00000000
00001000
00000100
00000000
00001000
00000100
00000000
00010000
00000000
00001000
01000000
,
00100000
00000000
10000000
01000000
00000000
01000000
00100000
00000000
00001000
00000000
00010000
00000000
00001000
00000000
00000100
00000000
,
00000010
00000000
00000210
00000000
00000000
00000302
00000000
00000000
00001003
00000000
00000100
00010000
00000000
00010000
00001000
00000000
,
00100000
00000000
00100000
00000000
00010000
00000000
01000000
00001000
00000000
00001000
00010000
00000000
00000010
00000000
00000010
00000000
,
00001000
00000100
00000000
00000100
00000010
00000000
00000001
00000000
00000100
00000000
00001000
00000000
00011000
00000000
00000000
00000000
,
00000000
00201000
00000000
00000000
00320000
00000000
00000000
02030000
,
00000000
00100000
00000000
00010000
00000000
03100000
20000000
00300000
,
00000000
32000000
00000000
03020000
00000000
00032000
00000000
00100000
,
00000000
01000000
00000000
00023000
00000000
00030020
00000030
00000101
,
00000100
00000010
00001010
00001000
00000000
00001100
00000100
00010000
,
00011000
00000000
00001000
00000000
00000000
00000000
00100000
00010000
00000000
00100000
00010000
00000000
10000000
00000000
00100000
00000000
,
01000000
00020000
00100000
00130000
00002000
00010000
00013000
00000010
,
00000100
00000000
00000001
00000010
00000100
00000000
00000000
00000000
00000000
00000000
00000000
00000000
00000000
00000000
00000000
00000000
,
00000000
00000000
00000000
00000000
00000000
00000000
00001002
00000000
00000000
00000023
00000000
00000000
00000031
00001000
00000001
00000000
,
00000100
00000000
00000010
00000000
00001000
00000100
00000000
00000100
00010000
00000000
00001000
00000000
00100000
00000000
00001000
00000000
,
01000000
00000000
00100000
00000000
20000000
00000000
00000000
30020000
00000000
00000000
10030000
00000000
01000000
00100000
01000000
00000000
,
00100000
00000000
00010000
01000000
00010000
00000000
01000000
00000000
00001000
00010000
00001000
00000000
00020000
00000000
00000000
00000000
,
00030100
00000000
00000010
00000001
00000000
00000010
00000001
00000000
00001000
00000000
00000010
00000000
00000100
00000000
00000001
00000010
,
00000000
00000100
00001000
00000000
00000020
00000000
00000000
00000000
00010030
00000000
00001000
00100000
00001000
00100000
00001000
00000000
,
00010000
00000010
00010000
00000010
00010000
00000000
00001000
00000000
00000000
00000000
00000000
00000000
00011000
00000000
00000000
00001000
,
00000000
00000000
00100000
00000000
00010000
00000000
10000000
00000000
10100000
00000000
00000000
00100000
00000000
00000000
01000000
00000000
,
00001000
00000000
00000000
00000000
00011000
00000000
00000000
00010000
00000000
00000000
00000100
00000000
00000010
00000000
00000001
00000000
,
00001000
00000010
00000000
00000010
00000000
00000100
00000000
00000001
00000000
00001000
00000000
00000000
00000001
00000000
00000100
00000000
,
00000000
00000000
00000100
00000000
00001000
00000000
00000000
00000000
00010000
00001000
00010000
00001000
00000000
00000000
00000000
00000000
;

//---------------dance-double - ----------------
#NOTEDATA:;
#CHARTNAME:;
#STEPSTYPE:dance-double;
#DESCRIPTION:;
#CHARTSTYLE:;
#DIFFICULTY:Medium;
#METER:8;
#RADARVALUES:0.327178,0.397157,0.099971,0.418060,0.095427,252.000000,241.000000,11.000000,46.000000,0.000000,0.000000,0.000000,0.000000,0.000000,0.327178,0.397157,0.099971,0.418060,0.095427,252.000000,241.000000,11.000000,46.000000,0.000000,0.000000,0.000000,0.000000,0.000000;
#CREDIT:Ben Speirs;
#NOTES:
00000000
00000000
00000000
00000000
,
00000000
00000000
00000000
00000000
,
00000000
00000000
00000000
00000000
,
00000000
00000000
00000000
20000000
,
30100000
00000000
10000000
00010000
10000000
00000000
00020000
00000000
,
00130000
00000000
00010000
10000000
00010000
00000000
02000000
00000000
,
00000000
03002000
00000000
00000000
00023000
00000000
00000000
00030200
,
00000000
00000000
00001300
00000001
00001000
00000000
00000101
00000000
,
00000001
00000010
00000100
00001000
00000010
00000000
00001010
00000000
,
00001000
00000100
00010000
00001000
00200000
00000000
00000000
02300000
,
00000000
00000000
13000000
00200000
00000000
00000000
01300000
00010000
,
10000000
00000000
00000000
00000000
00010000
00000000
00000000
00010000
00000000
00000000
00010000
00000000
00200000
00000000
00000000
00000000
,
00301000
00000000
00000000
00001000
00000000
00000000
00001000
00000000
00020000
00000000
00000000
00000000
00030010
00000000
00000000
00000010
,
00000000
00000000
00000010
00000000
00000200
00000000
00000000
00000000
00000301
00000000
00000000
00001000
00000000
00000000
00000001
00000000
,
00000020
00000000
00000000
00000000
00000130
00000000
00000000
00000100
00000000
00000000
00000100
00000000
00020000
00000000
00000000
00000000
,
00031000
00000000
00000000
00001000
00000000
00000000
00001000
00000000
02000000
00000000
00000000
00000000
03100000
00000000
00000000
00100000
,
00000000
00100000
20000000
00000000
30020000
00000000
00130000
00001000
,
00310000
00000000
00001000
00010000
00000010
00000000
00001000
00000010
,
00001000
00000000
00000001
00000010
00000100
00000000
00000010
00000100
,
00000010
00000000
00000002
00000000
00000103
00000200
00000000
00000000
,
00000320
00000000
00001000
00000000
00001030
00000000
00000001
00001000
,
00000100
00000000
00001100
00000000
00000100
00010000
00001000
00100000
,
00010000
00000000
00110000
00000000
10000000
00100000
01000000
00010000
,
00100000
00000000
00101000
00000000
00001000
00010000
00001000
00010000
,
00000000
00000000
00000000
00001000
,
00000000
00001000
00000000
00000000
00000000
00000000
00010000
00000000
,
00000000
00010000
00000000
00000000
00000000
00000000
00000010
00010000
,
00000010
00001000
00000010
00000000
00001000
00000001
00001000
00000001
,
00000010
00000000
00000001
00000100
00000001
00000100
00000010
00000000
,
00001000
00000100
00001000
00000100
00010000
00000000
00001000
00010000
,
00001000
00000000
00010000
00000000
00000000
00000000
00000000
00000000
00001000
00000000
00000000
00001000
00000000
00000000
00200000
00000000
,
00000000
00000000
00310000
00000000
01000000
00000000
00000000
01000000
00000000
00000000
00200000
00000000
00000000
00000000
00300000
00000000
,
10000000
00000000
00000000
10000000
00000000
00000000
00010000
00000000
00100000
00000000
00010000
00000000
01000000
00000000
00010000
00000000
,
00100000
00000000
00002000
00000000
00000000
00000000
00000000
00000000
00013000
00000000
00000000
00010000
00000000
00000000
00000200
00000000
,
00000000
00000000
00001300
00000000
00000010
00000000
00000000
00000010
00000000
00000000
00000200
00000000
00000000
00000000
00000300
00000000
,
00000001
00000000
00000000
00000001
00000000
00000000
00001000
00000000
00000100
00000000
00000010
00000000
00000001
00000000
00000000
00000000
,
00000000
00001002
00000000
00000000
00000203
00000000
00000000
00000320
,
00000000
00000000
00000000
00001000
00000000
00001030
00000200
00000000
,
00000000
00020300
00000000
00032000
00000000
02003000
00000000
00000000
,
00100000
00000000
00000000
03200000
00000000
20300000
30000000
00010000
,
00000000
00010000
00000000
00000000
00200000
00000000
00000000
00000000
00000000
00000000
00301000
00000000
00000000
00001000
00000000
00000000
,
00020000
00000000
00000000
00000000
00000000
00000000
00030010
00000000
00000000
00000010
00000000
00000000
00000100
00000000
00000010
00000000
,
00000100
00000001
00000000
00001000
00000100
00000000
00000000
00010000
,
00001000
00010000
00001000
00000000
00000000
00000000
00000000
00000000
,
00000000
00000000
00000000
10010000
00000000
00000000
01100000
00000000
,
00000000
10000000
01000000
10000000
00010000
01000000
00010000
00100000
,
00100000
00000000
00100000
00000000
00200000
00000000
00000000
00000000
00000000
00000000
00301000
00000000
00000000
00001000
00000000
00000000
,
00020000
00000000
00000000
00000000
00030010
00000000
00000100
00000000
00000000
00000100
00000000
00000000
00000002
00000000
00000000
00000000
,
00000000
00000003
00001000
00000000
00000000
00001000
00000000
00000000
00000001
00000000
00001000
00000000
00000100
00000000
00001000
00000000
,
00000010
00000000
00001000
00000000
00000200
00000000
00000000
00000000
00000000
00000000
00010300
00000000
00000000
00010000
00000000
00000000
,
00001000
00010000
00001000
00100000
00000000
00000000
00022000
00000000
,
00033000
00001000
00202000
00303000
,
00100000
02200000
03300000
00100000
,
00010000
00000000
10000000
00000000
00100000
00000000
01000000
01000000
,
00000000
00001000
00001000
00000000
00010000
00000100
00000000
00000000
;

//---------------dance-double - ----------------
#NOTEDATA:;
#CHARTNAME:;
#STEPSTYPE:dance-double;
#DESCRIPTION:;
#CHARTSTYLE:;
#DIFFICULTY:Easy;
#METER:5;
#RADARVALUES:0.185660,0.223401,0.045441,0.227207,0.000000,143.000000,138.000000,5.000000,25.000000,0.000000,0.000000,0.000000,0.000000,0.000000,0.185660,0.223401,0.045441,0.227207,0.000000,143.000000,138.000000,5.000000,25.000000,0.000000,0.000000,0.000000,0.000000,0.000000;
#CREDIT:Ben Speirs;
#NOTES:
00000000
00000000
00000000
00000000
,
00000000
00000000
00000000
00000000
,
00000000
00000000
00000000
00000000
,
00000000
00000000
00000000
00000001
,
00000000
00000100
00000010
00001000
,
00000000
00000100
00010000
00001000
,
00000000
00100000
00000000
00010000
,
00010000
10000000
10000000
00100000
,
01000000
00000000
00010000
00100000
,
00001000
00000000
00010000
00000010
,
00000100
00000000
00000010
00000010
,
00001000
00000002
00000003
00000001
,
00000020
00000030
00000010
00000200
,
00000300
00000100
00010000
00001000
,
01000000
00200000
00300000
00100000
,
20000000
30000000
10000000
00020000
,
00030000
00010000
00100000
00001000
,
00010000
00022000
00033000
00001000
,
00010000
00000020
00000030
00000100
,
00000001
00002000
00003000
00000200
,
00000300
00010000
00001000
00100000
,
00100000
00010000
02000000
03000000
,
00100000
10000000
02000000
03000000
,
00100000
00100000
00001000
00010000
,
00000000
00000000
00000000
00001000
,
00000000
00001000
00000000
00000000
00000000
00000000
00010000
00000000
,
00000000
00010000
00000000
00000000
00000000
00000000
00000010
00000000
,
00000010
00000010
00000100
00000100
,
00000100
00000001
00000001
00000001
,
00000010
00000010
00000010
00000100
,
00010000
00000000
00000000
00000000
00011000
00000000
00000000
00001000
,
00000000
00000000
00100000
00000000
00000000
00100000
00000000
00000000
,
00010000
00000000
00000000
00010000
00000000
00000000
10000000
00000000
,
00000000
00200000
00000000
00300000
01000000
00000000
00000000
01000000
,
00000000
00000000
00010000
00000000
00000000
00010000
00000000
00000000
,
00100000
00000000
00000000
00100000
00000000
00000000
00002000
00000000
,
00003000
00022000
00000000
00000000
00000000
00000000
00033000
00020000
,
00000000
00000000
00000000
00000000
00030000
00000100
00000000
00000100
,
00000000
00000010
00000000
00000010
00000000
00000002
00000000
00000000
,
00000000
00000000
00000003
00000100
00000000
00000100
00000000
00000010
,
00000000
00000000
00000010
00000000
00000000
00001000
00000000
00000000
,
00001000
00000000
00000000
00000100
00000000
00000000
00000100
00000000
,
00000000
00010000
00000000
00000000
00010000
00000000
00000000
00001000
,
00000000
01000000
00000000
00000000
,
00000000
00000000
00000000
20020000
00000000
00000000
00000000
00000000
,
30030000
10000000
00000000
00000000
00010000
00000000
00000000
00100000
,
00000000
00000000
00100000
00000000
00000000
00001000
00000000
00000000
,
00010000
00000000
00000000
00000010
00000000
00000000
00000010
00000000
,
00000000
00000100
00000000
00000000
00000001
00000000
00000000
00001000
,
00000000
00000000
00001000
00000000
00000000
00000100
00000000
00000000
,
00010000
00000000
00000000
00011000
00000000
00000000
00200000
00000000
,
00000000
00300000
00020000
00000000
,
00030000
20000000
00000000
30000000
,
00200000
00000000
00300000
01000000
,
00000000
01000000
00000000
00000000
00001000
00010000
00000000
00000000
;
