#TITLE:ToyMachineBlitz;
#SUBTITLE:;
#ARTIST:dj VERTICAI;
#TITLETRANSLIT:;
#SUBTITLETRANSLIT:;
#ARTISTTRANSLIT:;
#GENRE:;
#CREDIT:;
#BANNER:ToyMachineBlitz.png;
#BACKGROUND:ToyMachineBlitz-bg.png;
#LYRICSPATH:;
#CDTITLE:;
#MUSIC:ToyMachineBlitz.ogg;
#OFFSET:-0.017431;
#SAMPLESTART:79.575073;
#SAMPLELENGTH:15.000000;
#SELECTABLE:YES;
#BPMS:0.000000=188.000000
,204.000000=178.000000
,208.000000=168.000000
,212.000000=158.000000
,214.000000=148.000000
,216.000000=138.000000
,217.000000=128.000000
,218.000000=118.000000
,219.000000=108.000000
,222.000000=188.000000
;
#STOPS:219.500000=3.333000
;
#BGCHANGES:;
#KEYSOUNDS:;
#ATTACKS:;

//---------------dance-single - ----------------
#NOTES:
     dance-single:
     :
     Hard:
     14:
     0.704057,0.719443,0.413572,0.577278,0.124933,572.000000,524.000000,48.000000,67.000000,0.000000,0.000000,0.704057,0.719443,0.413572,0.577278,0.124933,572.000000,524.000000,48.000000,67.000000,0.000000,0.000000:
0000
0000
0000
0000
,
0000
0000
0000
0000
,
1000
1000
0100
0000
0101
0000
1100
0000
,
0000
1000
0010
0000
0011
0000
1010
0000
,
0010
0100
0001
0000
1100
0000
0201
0000
,
0310
0010
1000
0001
0100
0001
1000
0010
,
0100
0100
0001
0000
1100
0000
0101
0000
,
0000
0001
0010
0000
1010
0000
0011
0000
,
0001
0010
1000
0000
1000
0010
0001
0100
,
1000
0000
0100
0000
0010
0000
1000
0000
0001
0000
0000
0001
0010
0000
0100
0000
,
0010
0001
0021
0000
0130
1000
1200
0000
,
1300
0001
0021
0000
0031
1000
1200
0000
,
0310
0001
0021
0000
0130
1000
1200
0000
,
0310
0010
0001
1000
0100
1000
0001
0010
,
0001
0100
1020
0000
1030
0010
0102
0000
,
0103
0001
1020
0000
1030
0010
0201
0000
,
0320
0000
1030
0001
0100
0001
1000
0010
,
2000
0000
3100
0010
0001
0010
0100
1000
,
0020
0000
0000
0030
,
0010
0100
0001
0010
1000
0000
0110
0000
,
0001
0000
0000
0001
1000
0000
0010
0000
1000
0000
0100
0000
1000
0000
0010
0000
,
0100
0001
0010
0001
0100
0010
1000
0001
,
0020
0000
0000
0000
0030
0000
0001
1000
0200
0000
0000
0000
0300
0000
0000
0000
,
1000
0001
0201
0000
0301
1000
1020
0000
,
1030
0000
0000
1000
0001
0000
0001
0000
0100
0000
0001
0000
0010
0000
0001
0000
,
1000
0010
1000
0100
1000
0001
0100
0010
,
2000
0000
0000
0000
3000
0000
0010
0100
0020
0000
0000
0000
0030
0000
0100
0001
,
0100
0100
0001
0100
1000
0100
0010
0100
,
0001
0000
0000
0001
0010
0000
0010
0000
0010
0000
0100
0000
0010
0000
0001
0000
,
0010
1000
0010
0100
2000
0000
3010
0100
,
0002
0000
0103
0100
0100
0010
0100
0001
,
0100
0000
1000
0000
0100
0010
0100
0000
0001
0000
0010
0000
0200
0000
0000
0000
,
0300
0000
0100
1000
0001
0000
0001
0000
1000
0000
1000
0000
0100
0000
0010
0000
,
0110
0000
0000
0000
0220
0000
0000
0000
0330
0000
0000
0000
0100
0000
1000
0001
,
1000
0100
0002
0000
1003
0010
0002
0000
,
1003
0010
0002
0000
1003
0100
0001
0001
,
0010
0001
0100
0001
1000
0010
1000
0100
,
0110
0000
0000
0000
1001
0000
0000
0000
0001
0010
0001
0000
1000
0000
0100
0000
,
0020
0000
0100
0100
0032
0000
0100
0100
,
2003
0000
0010
0010
3002
0000
1000
1000
,
0203
0000
0001
0001
0320
0000
0100
1000
,
1030
0010
1000
0001
0100
0000
0102
0000
,
0023
0000
0100
0100
0032
0000
1000
1000
,
0203
0000
0010
0010
0302
0000
2003
0000
,
3010
0000
0010
1000
0200
0000
0320
0000
,
0031
0000
0001
0100
1010
0000
1000
0100
,
0011
0010
0001
1000
0100
0000
1001
0000
,
0001
0100
0002
0000
0100
0000
1000
0000
,
0003
0001
0200
0000
0010
0000
0310
0000
,
1000
0100
2000
0000
0100
0000
0001
0000
,
3010
0010
0100
0001
1000
0001
0100
0010
,
1000
0100
1000
0000
1100
0000
1001
0000
,
0000
0001
0100
0000
0101
0000
1001
0000
,
1000
0100
0010
0000
0110
0000
1001
0000
,
0001
0000
0001
0000
0001
0010
0100
2000
,
0000
0000
3000
0000
,
0000
0000
1000
0000
,
1000
0000
1000
1000
,
1000
0000
0001
0000
0100
0010
0100
0000
0010
0000
1000
0000
0001
0000
1000
0000
,
0100
1000
0010
0100
0010
1000
0001
1000
,
0100
0000
0000
0000
0100
0010
0100
0000
0010
0000
0001
0000
1000
0000
0001
0000
,
0100
0001
0010
0100
0010
0001
1000
0001
,
0100
0000
0000
0000
0100
0001
0100
0001
1000
0000
0010
0000
0100
0000
0010
0000
,
0001
0010
1000
0100
1000
0010
0100
0010
,
0001
0000
0000
0000
0010
0100
0010
0000
1000
0000
0100
0000
0010
0000
0100
0000
,
0001
0100
1000
0010
1000
0100
0010
0100
,
0001
0000
0100
0000
0010
0100
0010
0100
1000
0000
0001
0000
0100
0000
0001
0000
,
0010
0100
1000
0010
1000
0001
0100
0001
,
0010
0000
0000
0000
0010
0100
0010
0000
0001
0000
1000
0000
0100
0000
1000
0000
,
0010
0100
0001
0010
0001
1000
0100
1000
,
0010
0000
0000
0000
0100
0010
0100
0000
0001
0000
0010
0000
0001
0000
0100
0000
,
0001
0010
0001
1000
1100
0000
0022
0000
,
0033
0000
0000
0000
0010
0100
1000
0000
1000
0000
0001
0000
0101
0000
0000
0000
,
0011
0000
0101
0000
0000
1000
1100
0000
,
1010
0000
0000
0000
1100
0000
0000
0100
0010
0000
0100
0000
1000
0000
0001
0000
,
0101
0000
0000
0001
1000
0000
0010
0000
0100
0000
0001
0000
0010
0000
0100
0000
,
1100
0000
0000
1000
0001
0000
0010
0000
0002
0000
0203
0000
0320
0000
2030
0000
,
3002
0000
0203
0000
0320
0000
2030
0000
3001
0000
1000
0000
0100
1000
0100
0000
,
0010
0001
0100
0010
2000
3200
0320
0032
,
2003
3002
0203
0320
1030
1000
0001
0001
,
1000
0100
1000
0000
0001
0010
0001
0010
0002
0000
0000
0000
0000
0000
0000
0000
,
0000
0000
0000
0000
0003
0000
0000
0000
0000
0000
0001
0010
0100
0000
0100
0000
,
1000
0001
1000
0100
0010
0100
1000
0010
,
0001
0220
0330
0000
;

//---------------dance-single - ----------------
#NOTES:
     dance-single:
     :
     Medium:
     11:
     0.484962,0.575554,0.336027,0.327411,0.000000,394.000000,355.000000,39.000000,38.000000,0.000000,0.000000,0.484962,0.575554,0.336027,0.327411,0.000000,394.000000,355.000000,39.000000,38.000000,0.000000,0.000000:
0000
0000
0000
0000
,
0000
0000
0000
0000
,
1000
0100
0011
0011
,
0000
0001
0100
0000
1010
0000
1010
0000
,
1000
0100
1000
0000
0011
0000
0011
0000
,
0002
0203
2300
3020
,
0031
0100
1010
1010
,
0000
1000
0100
0000
0011
0000
0011
0000
,
0001
0100
0001
0000
1010
0000
1010
0000
,
1000
0001
1000
0100
0020
0000
0030
0000
,
0001
0100
0001
0000
0000
0001
1000
0000
,
0001
0010
0001
0000
0000
0001
1000
0000
,
1000
0100
1000
0000
0000
1000
0001
0000
,
0100
0010
0100
0000
0001
1000
0001
0000
,
0010
0100
1100
2001
,
3010
0100
0101
1002
,
0013
0000
0010
0100
0010
0100
2000
0000
,
3002
0000
0103
0010
0100
0010
1000
0000
,
0200
0000
0000
0300
,
1000
0100
1000
0001
0010
0000
1001
0000
,
0001
0000
0100
0000
0010
0000
0100
0001
,
1000
0000
0100
0000
0010
0000
0100
1000
,
0010
0000
0010
0100
0002
0000
0003
0000
,
0100
0001
1000
0100
,
1000
0000
0001
0000
0010
0000
0100
1000
,
0001
0000
1000
0000
0010
0000
0100
0001
,
0020
0000
0030
0010
0200
0000
0300
0100
,
2000
0000
3000
1001
,
1000
0000
0100
0000
0010
0000
0100
1000
,
0001
0000
0100
0001
1000
0000
0010
0000
,
0100
0000
0001
0000
0010
0000
0001
1000
,
0010
0000
1000
0001
0020
0000
0230
0000
,
0300
0000
1000
0001
1000
0000
0010
0000
,
0110
0220
0330
0001
,
0100
0000
0100
0001
0000
0000
0100
0000
,
0010
0000
0010
1000
0000
0000
0010
0000
,
1000
0100
0001
0100
,
1000
0000
0001
0000
0100
0010
0200
0000
,
0310
0000
0010
1000
0002
0000
0003
0000
,
0010
0000
0010
0001
2000
0000
3000
0000
,
0010
0000
0010
0100
0002
0000
0203
0000
,
0302
2003
3020
0030
,
0100
0000
0100
0001
0020
0000
0030
0000
,
0100
0000
0100
1000
0020
0000
0030
0000
,
1000
0000
1000
0001
0100
0000
0001
0000
,
0010
0000
0010
0000
,
0011
0110
2200
3300
,
1000
0100
1100
1001
,
0000
0001
0100
0000
0101
0000
1001
0000
,
1000
0100
1000
0000
1100
0000
1001
0000
,
0001
0010
1000
0010
,
0001
0100
0001
1000
,
0010
1000
0001
1000
,
0100
1000
0001
0010
,
0001
0000
0001
0000
1000
0000
1000
1000
,
0000
0000
2002
0000
,
0000
3003
1000
0000
,
1000
0000
1000
1000
,
0001
1000
0001
0000
1000
0000
0100
0010
,
0001
0000
1000
0000
1000
0000
0100
0010
,
0001
0000
1000
0000
0001
0000
0100
0010
,
1000
0000
0001
0000
0001
0000
0100
0010
,
1000
0000
0001
0000
1000
0000
0001
0010
,
0100
0000
1000
0000
1000
0000
0001
0010
,
0100
0000
1000
0000
0001
0000
0100
0010
,
1000
0000
0001
0000
1000
0000
0001
0010
,
0200
0000
0300
0000
1000
0000
0100
0010
,
0100
0000
1000
0000
0001
0000
0100
0010
,
0100
0000
0001
0000
0010
0000
0100
1000
,
0100
0000
1000
0000
0010
0000
0100
0001
,
0100
0000
0001
0000
0010
0000
0100
1000
,
0001
0000
0100
0010
1000
0000
2020
0000
,
3030
0000
0011
0000
0001
0000
1000
0100
,
0000
0000
1100
0000
1000
0000
0001
0100
,
0000
0101
0001
0010
,
0100
0000
0010
0001
1000
0000
0010
0000
,
0100
0000
0010
1000
0001
0000
0011
0000
,
0001
0000
0101
0000
0100
0001
0010
0001
,
0010
0100
1000
1010
,
1000
0000
1100
0000
0100
1000
0001
0000
,
0001
1000
0010
1000
0020
0000
0000
0000
,
0000
0030
0100
0010
,
0100
0000
0010
0000
1000
0001
1000
0100
,
0010
0220
0330
0000
;

//---------------dance-single - ----------------
#NOTES:
     dance-single:
     :
     Easy:
     7:
     0.332335,0.394509,0.077545,0.336027,0.000000,270.000000,261.000000,9.000000,39.000000,0.000000,0.000000,0.332335,0.394509,0.077545,0.336027,0.000000,270.000000,261.000000,9.000000,39.000000,0.000000,0.000000:
0000
0000
0000
0000
,
0000
0000
0000
0000
,
1000
0100
2000
3000
,
0000
0001
0200
0300
,
0001
0010
0002
0003
,
1000
0010
0100
0001
,
0001
0010
0002
0003
,
0000
1000
0020
0030
,
1000
0100
2000
3000
,
0010
1000
0001
0010
,
0100
0100
1000
1000
,
0001
0001
0010
0010
,
0001
0001
0100
0100
,
0010
0100
0001
1000
,
0010
0010
0100
0100
,
0001
0001
1000
1000
,
0100
0010
0010
0100
,
1000
0001
2000
3000
,
1001
0000
0000
0000
,
0001
1000
0020
0030
,
1000
0010
0100
0010
,
1000
0010
0100
0001
,
0020
0030
0200
0300
,
1000
0001
0001
1000
,
0001
0010
0100
0010
,
0001
0010
0100
1000
,
0020
0030
2000
3000
,
0100
0100
0200
0300
,
1000
0010
0010
0100
,
0001
0100
0010
1000
,
0001
0010
0010
0100
,
1000
0100
0010
0001
,
0000
0001
0100
0010
,
1000
2000
0000
3000
,
0100
1000
0100
1000
,
0001
0010
0001
0010
,
0001
0100
0001
0100
,
0010
0010
0020
0030
,
2000
3000
0100
1000
,
0002
0003
0100
0001
,
0020
0030
0001
1000
,
0010
0100
0020
0030
,
0200
0300
0001
0010
,
0200
0300
0010
0001
,
2000
3000
0002
0003
,
1001
0000
1001
0000
,
1001
0110
2002
3003
,
0001
0100
0002
0003
,
0000
1000
0200
0300
,
0010
0001
0020
0030
,
0001
1000
1000
0001
,
1000
0010
0200
0300
,
0001
0010
0200
0300
,
2000
3000
0002
0003
,
1000
0000
1000
0000
0001
0000
0002
0003
,
0000
0000
0000
0000
,
0000
0000
1000
0000
,
0001
0000
1000
0001
,
1000
1001
0001
0100
,
0010
0000
0100
0010
,
1000
0000
0010
1000
,
0001
0000
0001
1000
,
0100
0010
0001
0010
,
0100
0000
0010
0100
,
1000
0000
0100
1000
,
0001
0000
1000
0010
,
0100
0001
1000
1000
,
0010
0100
0001
0001
,
0010
0100
1000
0100
,
1000
1000
0001
0100
,
0001
0001
0010
0001
,
0100
0010
1000
2002
,
3003
0000
1000
0100
,
0020
0030
0000
0001
,
0100
0010
0010
1000
,
0002
0003
0010
0001
,
2000
3000
0100
0010
,
0100
0010
0001
0001
,
1000
1000
0010
0100
,
0010
0100
0001
1000
,
0001
0010
0110
0000
,
0000
0000
1000
0001
,
1000
0001
0001
0100
,
0020
0030
0000
0000
;

//---------------dance-single - ----------------
#NOTES:
     dance-single:
     :
     Beginner:
     3:
     0.206786,0.250297,0.034464,0.000000,0.000000,168.000000,164.000000,4.000000,0.000000,0.000000,0.000000,0.206786,0.250297,0.034464,0.000000,0.000000,168.000000,164.000000,4.000000,0.000000,0.000000,0.000000:
0000
0000
0000
0000
,
0000
0000
0000
0000
,
0000
1000
0000
1000
,
0000
0001
0000
0001
,
0000
1000
0000
1000
,
0010
0100
0010
0000
,
0000
1000
0000
1000
,
0000
0001
0000
0001
,
0000
1000
0000
1000
,
0100
0010
0100
0000
,
0000
1000
0000
0100
,
0000
1000
0000
0001
,
0000
1000
0000
0010
,
0000
0100
0010
0010
,
0000
1000
0000
0010
,
0000
1000
0000
0001
,
0001
0000
1000
0000
,
0100
0010
0010
0000
,
1001
0000
0000
0000
,
0000
0000
0000
1001
,
0000
0001
0000
0001
,
0000
1000
0000
1000
,
0010
0000
0100
0000
,
0100
0000
0010
0000
,
0000
1000
0000
1000
,
0000
0001
0000
0001
,
0010
0000
0010
0000
,
0100
0000
0000
0000
,
0000
1000
0000
1000
,
0000
0010
1000
0000
,
0001
0000
0001
0000
,
0001
0010
0001
0000
,
0000
1000
0000
0001
,
0100
0100
0000
0000
,
0000
0001
0000
0100
,
0000
1000
0000
0100
,
0000
0001
0000
0010
,
0000
1000
0000
0010
,
0010
0000
0000
0100
,
0100
0000
0000
1000
,
1000
0000
0000
0001
,
0001
1000
0001
0000
,
0100
0000
0000
0010
,
0010
0000
0000
1000
,
1000
0000
0001
0000
,
1001
0000
0000
0000
,
0001
1000
0001
0000
,
1000
0000
0000
0000
,
0100
0000
0000
0000
,
0010
0000
0000
0000
,
0001
0000
0000
0000
,
0001
0000
0000
0000
,
0100
0000
0000
0000
,
0010
0000
0000
0000
,
1000
0000
1000
0001
,
0000
0000
0000
0000
,
0000
0000
0000
0000
,
0000
0000
0000
0000
,
0000
0000
0001
0100
,
0001
0000
1000
0100
,
1000
0000
0001
0010
,
0001
0000
1000
0010
,
1000
0000
0100
1000
,
0100
0000
0010
0001
,
0010
0000
0001
0100
,
0001
0000
1000
0010
,
1000
0000
0001
0010
,
0010
0000
0100
1000
,
1000
0000
0001
0100
,
0100
0000
0010
1000
,
1000
0000
0001
0000
,
1000
0000
1001
0000
,
0000
0000
0000
1000
,
0000
1000
0000
0001
,
0000
0001
0000
1000
,
0000
1000
0000
0001
,
0000
0001
0010
0000
,
0010
0000
0100
0000
,
0100
0000
0010
0000
,
0001
0000
1000
0000
,
0010
0000
0100
0000
,
0000
0000
0010
0000
,
0010
0000
0010
1000
,
0001
0000
0000
0000
;

//---------------dance-single - ----------------
#NOTES:
     dance-single:
     :
     Challenge:
     16:
     0.814835,0.791387,0.379108,0.318795,0.344643,662.000000,618.000000,44.000000,37.000000,0.000000,0.000000,0.814835,0.791387,0.379108,0.318795,0.344643,662.000000,618.000000,44.000000,37.000000,0.000000,0.000000:
// measure 0
0000
0000
0000
0000
,  // measure 1
0000
0000
0000
0000
,  // measure 2
1000
0000
0001
0000
0010
0100
0010
0000
0011
0000
0000
0000
2100
0000
0000
0000
,  // measure 3
3001
1000
1010
0000
0110
0000
0101
0000
,  // measure 4
0001
0000
0100
0000
0010
1000
0001
0000
1001
0000
0000
0000
0011
0000
0000
0000
,  // measure 5
0001
0000
0001
0000
1000
0000
0001
0000
0100
0001
0100
0000
0010
0000
1000
0000
,  // measure 6
0001
0000
1000
0000
0100
0010
0100
0000
1100
0000
0000
0000
0012
0000
0000
0000
,  // measure 7
1003
0001
0011
0000
0110
0000
1100
0000
,  // measure 8
0100
0000
1000
0000
0010
0000
0010
1000
0001
0000
0100
0000
0001
1000
0001
1000
,  // measure 9
0010
0000
1000
0000
0100
0000
0010
0000
0001
0000
0000
0001
0100
0000
0010
0000
,  // measure 10
1000
0000
1000
0100
0010
0000
0100
0000
1000
0000
0100
0010
0001
0000
0000
0000
,  // measure 11
0001
0000
0001
0100
0010
0000
0100
0000
0001
0000
0100
0010
1000
0000
0000
0000
,  // measure 12
0001
0000
0001
1000
0100
0000
1000
0000
0001
0000
1000
0001
0100
0000
0010
0000
,  // measure 13
1000
1000
0001
0010
0100
0010
0001
0100
,  // measure 14
0110
0000
0000
0000
1010
0000
0000
0010
0100
0000
0001
0000
1000
0000
0100
0000
,  // measure 15
0110
0000
0000
0000
0011
0000
0000
0010
0100
0000
0100
0000
1000
0001
1000
0000
,  // measure 16
0020
0000
1030
0010
0100
0001
0100
0010
,  // measure 17
1000
0000
0001
0000
0001
0000
1000
0000
0100
0010
0100
0000
0110
0000
0000
0000
,  // measure 18
0000
0000
0100
1000
0001
0000
0001
0000
0001
0000
0010
0000
1000
0000
0010
0000
,  // measure 19
0010
0100
1000
0010
0001
0000
0110
0000
,  // measure 20
1000
0000
0010
0100
0001
0000
0001
0000
0001
0000
0001
0000
0001
0000
0001
0000
,  // measure 21
1000
0001
0001
0001
0001
0010
0001
1000
,  // measure 22
0020
0000
0000
0000
1030
0000
0001
1000
0200
0000
0000
0000
1300
0000
0000
0000
,  // measure 23
1000
0000
0100
0010
0001
0000
0010
0000
0001
0000
0100
0010
1000
0000
0000
0000
,  // measure 24
0001
0000
0010
0100
1000
0000
1000
0000
1000
0000
1000
0000
1000
0000
1000
0000
,  // measure 25
0010
1000
1000
0001
1000
0100
1000
0001
,  // measure 26
0020
0000
0000
0000
0031
0000
0001
0010
0200
0000
0000
0000
0310
0000
0010
0100
,  // measure 27
1000
0001
0001
1000
0010
0100
1001
0000
,  // measure 28
0001
0000
0001
1000
0010
0000
0010
0000
0010
0000
0010
0000
0010
0000
0010
0000
,  // measure 29
0010
0100
0010
1000
0020
0000
1030
0001
,  // measure 30
0020
0030
0010
0010
0010
0100
1000
0100
,  // measure 31
0010
0000
0010
0000
0010
0001
0010
0001
1000
0000
0001
0000
0202
0000
0000
0000
,  // measure 32
0303
0000
0001
0100
0010
0000
0010
0000
0010
0000
0100
0000
0010
1000
0010
0100
,  // measure 33
0001
0000
0000
0000
2002
0000
0000
0000
3003
0000
0000
0000
1000
0100
1000
0001
,  // measure 34
0010
0000
0000
0010
0100
0000
1000
0000
0100
0000
0001
0000
0100
0000
0010
0000
,  // measure 35
0011
0000
0000
0001
0100
0000
0001
0000
0100
0000
1000
0000
0100
0000
0010
0000
,  // measure 36
1020
0000
0130
0001
0021
0000
0130
1000
,  // measure 37
0001
1000
0001
1000
0100
0000
0100
0010
0001
0000
1000
0000
0010
0000
0100
0000
,  // measure 38
0002
0000
0000
0000
0103
0000
0100
0000
0010
0000
0100
0000
0001
1000
0001
0100
,  // measure 39
0020
0000
0000
0000
1030
0000
0001
0010
0100
0000
0100
0000
1000
0000
0001
0000
,  // measure 40
0020
0000
0000
0000
0031
0000
0001
0000
1000
0000
0010
0000
0100
0010
0100
0010
,  // measure 41
1000
0000
0001
0000
0100
0000
0001
0000
0010
0000
0000
0010
0002
0000
0000
0000
,  // measure 42
2003
0000
3100
0010
1000
0010
0001
0100
,  // measure 43
0002
0000
0103
0010
0001
0010
1000
0100
,  // measure 44
1100
1000
0001
0100
0201
0000
0310
0000
,  // measure 45
1001
0000
0000
0000
0010
0100
0010
0000
1001
0000
0000
0000
0100
0010
0100
0000
,  // measure 46
1001
0000
0001
1000
0001
0000
0010
0000
0100
0000
0000
0000
0110
0000
0000
0000
,  // measure 47
0100
2000
0010
0000
3001
0000
0202
0000
,  // measure 48
0303
0002
0010
0000
1003
0000
1100
0000
,  // measure 49
0100
2000
0010
0000
3001
0000
0102
0000
,  // measure 50
0013
0000
0010
0000
0001
0000
0010
0100
1000
0000
0100
0000
0010
0000
0001
0000
,  // measure 51
0100
0002
0010
0000
0100
0000
0013
0000
,  // measure 52
0000
0001
2000
0000
0100
0000
3010
0000
,  // measure 53
1000
0000
0010
0000
0100
0000
0010
0000
1000
0000
0001
0000
0010
0000
0001
1000
,  // measure 54
0001
0010
0100
1000
0010
0010
0100
0200
,  // measure 55
0000
0000
0020
0000
,  // measure 56
0000
0330
0101
0000
,  // measure 57
1100
0000
0000
0000
0000
0000
0000
0000
0100
1000
0100
0010
0001
0010
0100
1000
,  // measure 58
0001
0000
0001
0000
1000
0001
1000
0000
0010
0000
0100
0000
1000
0000
0100
0000
,  // measure 59
0001
1000
0100
0100
0010
0100
0001
0100
,  // measure 60
1000
0000
0000
0000
0100
1000
0100
1000
0001
0000
0100
0000
0010
0000
0001
0000
,  // measure 61
0010
0100
0001
0001
1000
0100
0010
1000
,  // measure 62
0010
0000
0000
0000
0001
0010
0001
0010
0100
0000
1000
0000
0100
0000
0001
0000
,  // measure 63
0100
0010
0001
0100
0100
0001
0100
1000
,  // measure 64
0100
0000
0000
0000
0100
0001
0100
0010
1000
0000
0010
0000
0100
0000
0001
0000
,  // measure 65
1000
0000
0100
0000
0100
1000
0100
0010
0001
0000
1000
0000
1000
0000
0001
0000
,  // measure 66
0010
0100
0110
0000
0100
1000
0010
0001
,  // measure 67
0010
0000
1000
0000
0001
0000
0010
0100
0010
0000
0001
0000
0100
0000
0010
0000
,  // measure 68
1000
0000
0000
0000
1000
0001
1000
0010
0100
0000
0001
0000
0010
0000
1000
0000
,  // measure 69
0010
0000
0001
0000
1000
0000
0100
0010
0001
0000
0010
0000
1000
0000
0010
0000
,  // measure 70
0100
0000
0000
0000
1000
0000
1000
0001
0100
0000
0001
0000
0100
0000
0010
0000
,  // measure 71
0100
1000
0100
0001
0101
0000
2020
0000
,  // measure 72
3030
0000
0000
0000
0010
0100
0010
1000
0001
0000
0001
0000
0100
0000
0001
0000
,  // measure 73
0010
0100
1100
0000
1000
1000
0100
1000
,  // measure 74
0010
0000
0100
0000
0101
0000
0000
0100
0010
0000
1000
0000
0100
0000
0010
0000
,  // measure 75
0011
0000
0000
0001
1000
0000
0001
0000
0100
0000
0001
0000
1000
0000
0010
0000
,  // measure 76
1010
0000
0000
1000
0001
0000
0100
0000
0010
0000
1000
0000
0010
0000
1000
0000
,  // measure 77
0010
0000
0001
0000
0010
0000
0001
0000
0010
0000
0100
0000
0010
1000
0010
0100
,  // measure 78
0001
1000
1001
0001
0010
0001
0010
0001
,  // measure 79
0010
1000
0010
1000
0010
0001
1000
0100
,  // measure 80
1000
0001
1000
0010
0100
0010
1000
0001
0020
0000
0000
0000
0000
0000
0000
0000
,  // measure 81
0000
0000
0000
0000
0030
0000
0000
0000
0000
0000
0010
0001
1000
0000
1000
0000
,  // measure 82
1000
0100
1000
0010
0100
0010
1000
0100
,  // measure 83
0001
0220
0330
0000
;
